osu file format v9

[General]
AudioFilename: 05 - PSI-missing -2011 remix-22.mp3
AudioLeadIn: 1511
PreviewTime: 76703
Countdown: 0
SampleSet: Soft
StackLeniency: 0.7
Mode: 0
LetterboxInBreaks: 1

[Editor]
DistanceSpacing: 0.8
BeatDivisor: 4
GridSize: 4

[Metadata]
Title:PSI-missing -2011 remix-
Artist:Kawada Mami
Creator:[MiSaKa] MiKoTo
Version:Level 5
Source:Toaru Majutsu no Index II
Tags:Index

[Difficulty]
HPDrainRate:7
CircleSize:4
OverallDifficulty:6
ApproachRate:5
SliderMultiplier:1.6
SliderTickRate:1

[Events]
//Background and Video events
0,0,"bg.jpg"
//Break Periods
//Storyboard Layer 0 (Background)
//Storyboard Layer 1 (Fail)
//Storyboard Layer 2 (Pass)
//Storyboard Layer 3 (Foreground)
//Storyboard Sound Samples
//Background Colour Transformations
3,100,163,162,255

[TimingPoints]
1058,428.584549356225,4,2,0,100,1,0
7921,-100,4,1,0,100,0,0
21415,-100,4,2,0,100,0,0
27630,-100,4,2,0,100,0,0
27730,-100,4,2,0,100,0,0
33630,-100,4,1,0,100,0,0

[HitObjects]
192,176,1058,1,2
256,176,1272,1,8
128,176,1700,1,2
128,240,1915,2,8,B|128:336|248:328,1,160
424,296,2772,5,2
424,232,2986,1,2
424,168,3200,2,8,B|368:96,1,80,8|2
374,104,3629,2,8,B|304:176,1,80,8|8
256,160,4058,1,4
208,96,4486,1,2
144,96,4700,1,2
136,216,5129,5,0
168,216,5236,1,0
200,216,5343,1,0
232,216,5450,1,0
264,216,5558,1,0
296,216,5665,1,0
328,216,5772,1,4
416,216,6201,6,0,B|424:48|272:72,1,240,2|8
280,136,7058,1,2
224,104,7272,1,8
168,136,7486,1,2
112,104,7701,1,8
56,136,7915,1,6
392,280,8343,5,0
328,280,8558,2,0,B|232:280,1,80
200,320,8986,1,0
152,280,9201,1,0
104,320,9415,1,0
48,288,9629,2,0,B|48:128,1,160
112,128,10272,1,0
112,64,10486,1,0
176,64,10701,1,0
176,128,10915,1,0
440,72,11344,5,0
408,128,11558,1,0
472,128,11772,2,0,B|472:208,1,80
456,272,12201,5,0
424,328,12415,1,0
392,272,12629,2,0,B|224:272,1,160
168,272,13272,1,0
168,336,13486,1,0
232,336,13701,1,0
296,336,13915,1,0
296,272,14129,2,0,B|296:184,1,80
32,64,14772,5,0
96,64,14986,1,0
128,64,15094,1,0
160,64,15201,2,0,B|328:64,1,160
360,112,15844,1,0
296,112,16058,1,0
160,160,16272,5,0
224,160,16487,2,0,B|224:216,4,40
272,200,17129,1,0
416,200,17344,1,0
344,200,17558,1,0
344,200,17772,1,0
80,312,18201,5,0
144,312,18415,1,0
208,312,18629,2,0,B|208:208|72:224,1,160
40,224,19272,1,0
40,224,19487,1,0
88,104,19915,6,0,B|144:104,4,40
88,40,20558,1,0
152,40,20772,1,0
216,40,20987,2,0,B|304:40,1,80
384,40,21415,5,0
448,40,21630,1,0
448,104,21844,1,0
384,104,22058,1,0
320,104,22272,2,0,B|320:280,1,160
448,272,23130,2,0,B|488:272,2,40
448,336,23558,1,0
368,336,23772,1,0
368,336,23987,1,0
200,336,24415,6,0,B|112:336,3,80
56,336,25273,1,0
88,280,25487,1,0
88,248,25594,1,0
88,216,25701,1,0
88,184,25808,1,0
176,216,26130,1,4
256,192,26773,12,0,27201
256,192,27415,12,4,28487
56,64,28915,5,0
120,64,29130,1,0
144,64,29237,1,0
168,64,29344,1,0
192,64,29451,1,0
216,64,29558,1,0
240,64,29666,1,0
264,64,29773,1,0
360,64,30201,2,0,B|488:48|488:192|344:160,1,239.999992847443
312,164,31273,1,4
64,240,31916,6,0,B|152:240,1,80
144,240,32344,2,0,B|200:168,1,80
193,176,32773,2,0,B|256:264,1,80
239,241,33201,2,0,B|296:320,1,80
286,306,33630,1,0
286,306,33844,1,0
256,192,35344,12,4,38344
