osu file format v12

[General]
AudioFilename: Kawada Mami - PSI-Missing.mp3
AudioLeadIn: 0
PreviewTime: 52134
Countdown: 0
SampleSet: Soft
StackLeniency: 0.7
Mode: 0
LetterboxInBreaks: 0
WidescreenStoryboard: 0

[Editor]
DistanceSpacing: 1
BeatDivisor: 4
GridSize: 4

[Metadata]
Title:PSI-missing (TV Size)
TitleUnicode:PSI-missing (TV Size)
Artist:Kawada Mami
ArtistUnicode:川田まみ
Creator:AnataNoBaka
Version:Nemis
Source:To Aru Majutsu No Index
Tags:opening Kamijou Touma Mikoto Misaka J.C. Staff とある魔術の禁書目録(インデックス toaru Nemis
BeatmapID:276024
BeatmapSetID:104916

[Difficulty]
HPDrainRate:3
CircleSize:3
OverallDifficulty:2
ApproachRate:4
SliderMultiplier:1
SliderTickRate:1

[Events]
//Background and Video events
Video,0,"video.avi"
0,0,"229268-dikemoon.jpg",0,0
//Break Periods
2,7565,12903
//Storyboard Layer 0 (Background)
//Storyboard Layer 1 (Fail)
//Storyboard Layer 2 (Pass)
//Storyboard Layer 3 (Foreground)
//Storyboard Sound Samples
//Background Colour Transformations
3,100,163,162,255

[TimingPoints]
1826.827,461.538461538462,4,2,0,10,1,0
2749,-100,4,2,0,20,0,0
3672,-100,4,2,0,30,0,0
4596,-100,4,2,0,5,0,0
5519,-100,4,2,0,30,0,0
5980,-100,4,2,0,40,0,0
6442,-100,4,2,0,50,0,0
6903,-100,4,2,0,60,0,0
7365,-100,4,2,0,70,0,0
14749,-100,4,2,0,50,0,0
29519,-100,4,2,0,60,0,0
36903,-100,4,2,0,50,0,0
44288,-100,4,2,0,60,0,0
49826,-100,4,2,0,10,0,0
50288,-100,4,2,0,25,0,0
50749,-100,4,2,0,40,0,0
51211,-100,4,2,0,5,0,0
51672,-100,4,1,0,70,0,1
80980,-100,4,2,0,100,0,0

[Colours]
Combo1 : 0,128,128
Combo2 : 0,255,255
Combo3 : 138,94,162
Combo4 : 0,0,255

[HitObjects]
256,192,1826,12,0,4596,2:0:0:0:
104,128,5519,6,0,L|204:120,1,100,0|8,0:0|0:0,0:0:0:0:
292,168,6442,2,0,L|392:160,2,100,0|8|4,0:0|0:0|0:0,0:0:0:0:
72,64,14749,6,0,P|60:112|80:168,1,100,4|8,0:0|0:0,0:0:0:0:
160,108,15672,1,2,0:0:0:0:
248,152,16134,2,0,L|348:148,1,100,8|0,0:0|0:0,0:0:0:0:
428,88,17057,2,0,P|448:144|432:204,1,100,8|2,0:0|0:0,0:0:0:0:
344,188,17980,1,8,0:0:0:0:
400,272,18442,6,0,L|500:280,2,100,0|8|2,0:0|0:0|0:0,0:0:0:0:
300,276,19826,1,8,0:0:0:0:
228,348,20288,2,0,P|188:336|124:336,1,100,0|8,0:0|0:0,0:0:0:0:
32,360,21211,2,0,P|12:300|24:248,1,100,2|8,0:0|0:0,0:0:0:0:
84,192,22134,5,0,0:0:0:0:
32,108,22596,1,8,0:0:0:0:
132,108,23057,2,0,L|232:104,1,100,2|8,0:0|0:0,0:0:0:0:
316,48,23980,2,0,P|332:92|316:156,1,100,0|8,0:0|0:0,0:0:0:0:
244,204,24903,2,0,P|235:255|251:299,1,100,2|8,0:0|0:0,0:0:0:0:
340,348,25826,6,0,L|440:356,2,100,0|8|2,0:0|0:0|0:0,0:0:0:0:
251,299,27211,1,8,0:0:0:0:
172,360,27672,2,0,P|124:372|60:340,1,100,0|8,0:0|0:0,0:0:0:0:
132,272,28596,1,2,0:0:0:0:
76,192,29057,2,0,L|72:140,1,50,8|0,0:0|0:0,0:0:0:0:
64,92,29519,6,0,P|116:104|172:80,1,100,4|8,0:0|0:0,0:0:0:0:
256,108,30442,2,0,P|304:92|352:104,1,100,2|8,0:0|0:0,0:0:0:0:
448,80,31365,1,0,0:0:0:0:
472,176,31826,1,8,0:0:0:0:
376,200,32288,2,0,P|388:252|372:308,1,100,2|8,0:0|0:0,0:0:0:0:
280,316,33211,6,0,L|180:324,1,100,0|8,0:0|0:0,0:0:0:0:
88,284,34134,2,0,P|80:340|100:392,2,100,2|8|0,0:0|0:0|0:0,0:0:0:0:
172,228,35519,1,8,0:0:0:0:
84,184,35980,1,2,0:0:0:0:
168,132,36442,2,0,P|200:132|232:156,1,50,8|0,0:0|0:0,0:0:0:0:
252,176,36903,6,0,P|312:196|360:176,1,100,4|2,0:0|0:0,0:0:0:0:
408,108,37826,1,0,0:0:0:0:
308,92,38288,1,2,0:0:0:0:
208,76,38749,2,0,L|120:68,1,75
76,120,39442,2,0,B|68:172|68:172|88:216|88:216|80:268,1,150,0|2,0:0|0:0,0:0:0:0:
148,336,40596,6,0,L|248:332,1,100,0|2,0:0|0:0,0:0:0:0:
332,280,41519,2,0,L|432:276,1,100,0|2,0:0|0:0,0:0:0:0:
496,200,42442,1,0,0:0:0:0:
404,160,42903,2,0,P|388:108|404:48,1,100,2|0,0:0|0:0,0:0:0:0:
480,8,43826,2,0,P|496:60|480:120,1,100,2|4,0:0|0:0,0:0:0:0:
404,160,44749,5,8,0:0:0:0:
316,116,45211,2,0,L|216:108,1,100,2|8,0:0|0:0,0:0:0:0:
128,60,46134,2,0,P|116:108|136:168,1,100,0|8,0:0|0:0,0:0:0:0:
216,208,47057,2,0,P|224:252|204:308,1,100,2|8,0:0|0:0,0:0:0:0:
112,332,47980,6,0,L|32:336,2,75,8|0|0,3:0|0:0|3:0,0:0:0:0:
208,304,49134,2,0,L|260:312,1,50,8|0,3:0|0:0,0:0:0:0:
308,324,49596,1,0,3:0:0:0:
256,192,49826,12,0,51211,2:0:0:0:
144,116,51672,5,4,0:0:0:0:
244,104,52134,2,0,L|344:96,1,100,8|2,0:0|0:0,0:0:0:0:
424,36,53057,2,0,P|444:84|428:148,1,100,8|0,0:0|0:0,0:0:0:0:
356,192,53980,2,0,P|349:238|369:286,1,100,8|2,0:0|0:0,0:0:0:0:
448,224,54903,1,8,0:0:0:0:
468,324,55365,5,0,0:0:0:0:
369,286,55826,2,0,L|260:292,1,100,8|2,0:0|0:0,0:0:0:0:
188,348,56749,1,8,0:0:0:0:
104,292,57211,2,0,P|88:248|104:184,1,100,0|8,0:0|0:0,0:0:0:0:
160,120,58134,1,2,0:0:0:0:
248,72,58596,2,0,P|260:100|256:132,1,50,8|0,0:0|0:0,0:0:0:0:
248,168,59057,6,0,L|348:164,1,100,0|8,0:0|0:0,0:0:0:0:
400,248,59980,2,0,L|300:252,1,100,2|8,0:0|0:0,0:0:0:0:
200,256,60903,1,0,0:0:0:0:
112,304,61365,1,8,0:0:0:0:
40,236,61826,1,0,0:0:0:0:
76,144,62288,1,8,0:0:0:0:
176,152,62749,6,0,L|276:144,1,100,0|8,0:0|0:0,0:0:0:0:
360,88,63672,2,0,P|376:136|364:192,1,100,2|8,0:0|0:0,0:0:0:0:
284,240,64596,1,0,0:0:0:0:
304,336,65057,2,0,P|268:340|204:300,1,100,8|2,0:0|0:0,0:0:0:0:
184,216,65980,2,0,L|120:220,1,50,8|0,0:0|0:0,0:0:0:0:
92,196,66442,6,0,P|76:148|88:84,1,100,4|8,0:0|0:0,0:0:0:0:
156,36,67365,1,2,0:0:0:0:
248,76,67826,2,0,L|348:72,1,100,8|0,0:0|0:0,0:0:0:0:
444,40,68749,1,8,0:0:0:0:
428,140,69211,2,0,P|420:184|436:236,1,100,2|8,0:0|0:0,0:0:0:0:
496,316,70134,6,0,P|460:336|392:328,1,100,0|8,0:0|0:0,0:0:0:0:
336,260,71057,1,2,0:0:0:0:
264,332,71519,1,8,0:0:0:0:
192,264,71980,2,0,L|88:272,1,100,0|8,0:0|0:0,0:0:0:0:
40,184,72903,2,0,L|139:176,1,100,2|8,0:0|0:0,0:0:0:0:
240,176,73826,5,4,0:0:0:0:
284,88,74288,2,0,P|236:76|188:92,1,100,8|2,0:0|0:0,0:0:0:0:
240,176,75211,2,0,P|280:184|304:180,1,50,8|0,0:0|0:0,0:0:0:0:
352,132,75672,2,0,L|428:124,2,75,4|2|0,0:2|0:2|0:0,0:0:0:0:
364,212,76596,2,0,L|440:204,2,75,4|2|0,0:2|0:2|0:0,0:0:0:0:
332,284,77519,6,0,P|280:268|224:284,1,100,4|8,0:0|0:0,0:0:0:0:
160,340,78442,2,0,P|140:296|144:244,1,100,2|8,0:0|0:0,0:0:0:0:
220,180,79365,1,0,0:0:0:0:
152,104,79826,1,8,0:0:0:0:
72,168,80288,2,0,P|52:128|56:84,2,75,2|0|0,0:0|0:0|0:0,0:0:0:0:
56,248,81211,6,0,L|156:256,1,100,4|8,0:0|0:0,0:0:0:0:
224,328,82134,2,0,L|324:336,1,100,2|8,0:0|0:0,0:0:0:0:
412,288,83057,1,0,0:0:0:0:
348,212,83519,2,0,P|332:160|352:108,1,100,8|2,0:0|0:0,0:0:0:0:
432,164,84442,1,8,0:0:0:0:
428,64,84903,5,0,0:0:0:0:
344,117,85365,2,0,L|232:112,1,100,8|2,0:0|0:0,0:0:0:0:
156,68,86288,1,8,0:0:0:0:
76,128,86749,2,0,P|64:176|76:224,1,100,0|8,0:0|0:0,0:0:0:0:
164,272,87672,2,0,L|216:268,1,50,2|0,0:0|0:0,0:0:0:0:
252,300,88134,2,0,L|304:296,1,50,8|4,3:0|0:0,0:0:0:0:
