osu file format v12

[General]
AudioFilename: Kawada Mami - PSI-Missing.mp3
AudioLeadIn: 0
PreviewTime: 52134
Countdown: 0
SampleSet: Soft
StackLeniency: 0.7
Mode: 0
LetterboxInBreaks: 0
WidescreenStoryboard: 0

[Editor]
DistanceSpacing: 0.5
BeatDivisor: 4
GridSize: 4

[Metadata]
Title:PSI-missing (TV Size)
TitleUnicode:PSI-missing (TV Size)
Artist:Kawada Mami
ArtistUnicode:川田まみ
Creator:AnataNoBaka
Version:Insane
Source:To Aru Majutsu No Index
Tags:opening Kamijou Touma Mikoto Misaka J.C. Staff とある魔術の禁書目録(インデックス toaru Nemis
BeatmapID:275775
BeatmapSetID:104916

[Difficulty]
HPDrainRate:6
CircleSize:4
OverallDifficulty:7
ApproachRate:8
SliderMultiplier:2.5
SliderTickRate:1

[Events]
//Background and Video events
Video,0,"video.avi"
0,0,"229268-dikemoon.jpg",0,0
//Break Periods
//Storyboard Layer 0 (Background)
//Storyboard Layer 1 (Fail)
//Storyboard Layer 2 (Pass)
//Storyboard Layer 3 (Foreground)
//Storyboard Sound Samples
//Background Colour Transformations
3,100,163,162,255

[TimingPoints]
1826.827,461.538461538462,4,2,0,100,1,0
51672,-100,4,2,0,100,0,1
80980,-100,4,2,0,100,0,0

[Colours]
Combo1 : 0,128,128
Combo2 : 0,255,255
Combo3 : 0,128,192
Combo4 : 0,0,255

[HitObjects]
256,192,3672,12,0,5057,1:0:0:0:
224,80,5519,5,0,0:0:0:0:
256,200,5749,1,0,0:0:0:0:
352,96,5980,1,0,0:0:0:0:
256,200,6211,1,0,0:0:0:0:
400,200,6442,5,0,0:0:0:0:
352,304,6672,1,0,0:0:0:0:
256,200,6903,1,0,0:0:0:0:
160,304,7134,1,0,0:0:0:0:
256,200,7365,6,0,P|216:144|144:136,1,125
245,43,7826,2,8,P|200:72|164:131,1,125
52,98,8288,2,0,P|80:124|163:132,1,125
134,243,8749,2,8,P|160:216|164:131,1,125
140,104,9096,1,0,0:0:0:0:
108,100,9211,1,0,0:0:0:0:
80,112,9326,1,0,0:0:0:0:
60,136,9442,1,0,0:0:0:0:
52,168,9557,1,0,0:0:0:0:
60,204,9672,1,8,0:0:0:0:
72,232,9788,1,0,0:0:0:0:
96,252,9903,6,0,P|168:228|184:180,1,125
124,136,10365,2,0,P|188:108|248:136,1,125,0|8,0:0|0:0,0:0:0:0:
268,144,10711,1,0,0:0:0:0:
296,168,10826,1,0,0:0:0:0:
316,200,10942,1,0,0:0:0:0:
324,236,11057,2,0,P|204:288|152:196,1,250,0|8,0:0|0:0,0:0:0:0:
156,168,11634,1,0,0:0:0:0:
176,136,11749,1,0,0:0:0:0:
204,112,11865,1,0,0:0:0:0:
240,120,11980,6,0,P|216:192|168:208,2,125,0|0|8,0:0|0:0|0:0,0:0:0:0:
216,92,12557,1,0,0:0:0:0:
188,64,12672,2,2,P|124:32|68:64,1,125
128,108,13134,2,2,P|166:142|230:118,1,125
188,64,13596,2,2,P|124:32|68:64,1,125
8,28,14057,2,2,P|16:96|80:124,1,125
168,180,14519,1,4,0:0:0:0:
288,144,14749,5,0,0:0:0:0:
192,304,14980,1,0,0:0:0:0:
96,144,15211,1,0,0:0:0:0:
160,184,15442,1,0,0:0:0:0:
160,184,15557,2,0,P|120:112|176:36,1,187.5,0|4,0:0|0:0,0:0:0:0:
268,40,16134,1,0,0:0:0:0:
336,104,16365,5,0,0:0:0:0:
336,104,16596,2,0,P|336:168|288:208,1,125
208,256,17057,5,0,0:0:0:0:
104,160,17288,1,0,0:0:0:0:
200,64,17519,1,0,0:0:0:0:
304,152,17749,1,0,0:0:0:0:
208,160,17980,1,4,0:0:0:0:
384,64,18211,5,0,0:0:0:0:
412,100,18326,1,0,0:0:0:0:
428,140,18442,2,0,P|420:212|364:236,1,125
236,264,18903,1,0,0:0:0:0:
168,156,19134,1,0,0:0:0:0:
136,136,19249,1,0,0:0:0:0:
100,132,19365,1,0,0:0:0:0:
68,148,19480,1,0,0:0:0:0:
40,176,19596,2,0,P|24:248|64:288,1,125,0|4,0:0|0:0,0:0:0:0:
184,336,20057,5,0,0:0:0:0:
352,264,20288,1,0,0:0:0:0:
424,120,20519,1,0,0:0:0:0:
512,264,20749,1,0,0:0:0:0:
380,344,20980,2,0,P|308:336|276:284,1,125
228,148,21442,2,0,P|164:188|140:240,2,125
384,164,22134,6,0,P|400:264|352:320,1,125
248,340,22596,2,0,P|152:304|136:264,1,125
76,172,23057,1,0,0:0:0:0:
164,68,23288,1,0,0:0:0:0:
248,176,23519,1,4,0:0:0:0:
312,64,23749,5,0,0:0:0:0:
416,152,23980,1,0,0:0:0:0:
432,288,24211,1,0,0:0:0:0:
312,224,24442,1,0,0:0:0:0:
212,260,24672,1,0,0:0:0:0:
180,280,24788,1,0,0:0:0:0:
164,308,24903,1,0,0:0:0:0:
164,340,25019,1,0,0:0:0:0:
184,368,25134,2,0,P|256:360|304:320,1,125,0|4,0:0|0:0,0:0:0:0:
408,248,25596,5,0,0:0:0:0:
376,240,25711,1,0,0:0:0:0:
348,224,25826,1,0,0:0:0:0:
288,156,26057,1,0,0:0:0:0:
424,152,26288,1,0,0:0:0:0:
420,16,26519,1,0,0:0:0:0:
280,64,26749,2,0,P|216:112|184:160,2,125,0|0|4,0:0|0:0|0:0,0:0:0:0:
280,64,27442,5,0,0:0:0:0:
336,192,27672,1,0,0:0:0:0:
264,308,27903,1,0,0:0:0:0:
112,276,28134,1,0,0:0:0:0:
204,176,28365,1,0,0:0:0:0:
124,64,28596,1,0,0:0:0:0:
280,64,28826,6,0,P|360:112|360:152,1,125
364,164,29172,1,0,0:0:0:0:
356,196,29288,1,0,0:0:0:0:
340,224,29403,1,0,0:0:0:0:
316,248,29519,2,2,P|252:232|204:168,1,125
288,152,29980,2,2,P|240:112|164:116,1,125
208,196,30442,2,2,P|136:188|104:128,1,125
92,52,30903,2,2,P|151:69|191:117,1,125
104,144,31365,6,2,P|144:196|224:196,1,125
228,280,31826,2,2,P|276:232|268:168,1,125
252,156,32172,1,0,0:0:0:0:
232,132,32288,1,8,0:0:0:0:
240,100,32403,1,0,0:0:0:0:
268,88,32519,6,2,P|348:120|364:168,1,125
420,208,32980,2,2,P|394:225|306:209,1,125
488,256,33442,2,2,P|504:176|448:136,1,125
432,204,33903,2,0,P|408:268|448:324,1,125
488,256,34365,6,2,P|504:176|456:128,1,125
464,120,34711,5,0,0:0:0:0:
440,104,34826,1,0,0:0:0:0:
408,100,34942,1,0,0:0:0:0:
376,100,35057,2,8,P|284:112|224:144,1,125
120,216,35519,1,0,0:0:0:0:
256,320,35749,1,0,0:0:0:0:
120,216,35980,1,0,0:0:0:0:
188,60,36211,1,0,0:0:0:0:
436,160,36442,5,0,0:0:0:0:
448,188,36557,1,0,0:0:0:0:
444,220,36672,1,0,0:0:0:0:
432,252,36788,1,0,0:0:0:0:
412,280,36903,2,0,P|340:312|288:304,1,125
164,260,37365,1,0,0:0:0:0:
84,172,37596,2,0,P|84:100|128:64,1,125,0|4,0:0|0:0,0:0:0:0:
256,56,38057,5,0,0:0:0:0:
364,140,38288,1,8,0:0:0:0:
232,184,38519,1,0,0:0:0:0:
128,96,38749,1,8,0:0:0:0:
272,36,38980,1,0,0:0:0:0:
400,112,39211,1,8,0:0:0:0:
232,184,39442,5,0,0:0:0:0:
208,204,39557,1,0,0:0:0:0:
196,232,39672,1,0,0:0:0:0:
240,344,39903,1,8,0:0:0:0:
343,310,40134,5,0,0:0:0:0:
361,283,40249,1,0,0:0:0:0:
371,256,40365,1,0,0:0:0:0:
370,224,40480,1,0,0:0:0:0:
368,191,40596,1,0,0:0:0:0:
260,44,40826,6,0,P|188:68|148:120,2,125,8|8|4,0:0|0:0|0:0,0:0:0:0:
292,52,41403,1,0,0:0:0:0:
320,68,41519,1,0,0:0:0:0:
416,244,41749,5,0,0:0:0:0:
300,320,41980,1,0,0:0:0:0:
184,244,42211,1,0,0:0:0:0:
220,152,42442,6,0,P|288:188|324:244,1,125
140,208,42903,2,0,P|128:136|172:76,1,125
232,60,43365,2,0,P|320:68|360:112,1,125
364,176,43826,2,0,P|372:237|408:288,1,125
492,180,44288,5,0,0:0:0:0:
408,288,44519,1,2,0:0:0:0:
304,196,44749,1,0,0:0:0:0:
492,180,44980,1,2,0:0:0:0:
384,80,45211,5,0,0:0:0:0:
304,196,45442,1,2,0:0:0:0:
492,180,45672,1,0,0:0:0:0:
416,264,45903,1,2,0:0:0:0:
328,312,46134,6,2,P|252:332|192:280,1,125
264,252,46596,2,2,P|204:232|136:284,1,125
208,316,47057,2,2,P|144:340|80:300,1,125
160,248,47519,2,2,P|228:240|280:284,1,125
416,300,47980,6,0,P|436:196|420:160,1,125,8|0,0:0|0:0,0:0:0:0:
412,152,48326,1,0,0:0:0:0:
396,128,48442,2,0,P|336:84|264:68,1,125,8|0,0:0|0:0,0:0:0:0:
256,72,48788,1,0,0:0:0:0:
228,84,48903,1,8,0:0:0:0:
204,104,49019,1,0,0:0:0:0:
184,128,49134,1,0,0:0:0:0:
176,156,49249,1,0,0:0:0:0:
172,188,49365,2,0,P|164:260|200:332,1,125,0|4,0:0|0:0,0:0:0:0:
256,192,49826,12,4,51672,0:0:0:0:
260,76,52134,6,0,P|208:156|160:164,1,125
112,100,52596,2,0,L|96:224,1,125
172,232,53057,2,0,P|184:296|236:344,1,125
316,384,53519,5,2,0:0:0:0:
236,256,53749,1,0,0:0:0:0:
316,384,53980,5,0,0:0:0:0:
432,240,54211,1,0,0:0:0:0:
264,104,54442,1,0,0:0:0:0:
140,248,54672,1,0,0:0:0:0:
288,248,54903,1,0,0:0:0:0:
420,132,55134,1,0,0:0:0:0:
328,68,55365,6,0,P|256:72|200:116,1,125,4|0,0:0|0:0,0:0:0:0:
268,148,55826,2,2,P|204:172|156:148,1,125,0|0,0:0|0:0,0:0:0:0:
84,132,56288,2,2,P|132:80|184:80,1,125
168,160,56749,2,2,P|124:216|56:208,1,125
64,80,57211,5,0,0:0:0:0:
232,176,57442,1,2,0:0:0:0:
236,32,57672,1,0,0:0:0:0:
232,176,57903,1,2,0:0:0:0:
408,104,58134,1,0,0:0:0:0:
376,296,58365,1,2,0:0:0:0:
232,176,58596,1,0,0:0:0:0:
124,92,58826,5,0,0:0:0:0:
108,120,58942,1,0,0:0:0:0:
96,148,59057,2,0,P|88:216|148:260,1,125
152,268,59403,1,0,0:0:0:0:
184,276,59519,1,0,0:0:0:0:
216,268,59634,1,0,0:0:0:0:
244,256,59749,1,0,0:0:0:0:
276,252,59865,1,0,0:0:0:0:
308,260,59980,1,0,0:0:0:0:
260,348,60211,6,0,P|212:280|232:240,2,125,8|8|4,0:0|0:0|0:0,0:0:0:0:
408,264,60903,5,0,0:0:0:0:
372,136,61134,1,2,0:0:0:0:
260,56,61365,1,0,0:0:0:0:
128,92,61596,1,2,0:0:0:0:
48,204,61826,1,0,0:0:0:0:
132,312,62057,1,2,0:0:0:0:
240,224,62288,1,0,0:0:0:0:
344,312,62519,1,2,0:0:0:0:
424,204,62749,6,2,P|420:128|360:88,1,125
348,168,63211,2,2,P|352:240|448:268,1,125
444,176,63672,2,2,P|432:100|384:72,1,125
352,176,64134,2,2,P|352:248|404:284,1,125
464,168,64596,2,2,P|456:104|408:52,1,125
232,64,65057,5,0,0:0:0:0:
96,176,65288,1,0,0:0:0:0:
0,40,65519,1,0,0:0:0:0:
96,176,65749,1,0,0:0:0:0:
232,64,65980,1,0,0:0:0:0:
96,176,66211,1,0,0:0:0:0:
172,292,66442,6,0,P|280:296|300:268,1,125,4|0,0:0|0:0,0:0:0:0:
336,256,66903,5,0,0:0:0:0:
352,228,67019,1,0,0:0:0:0:
348,196,67134,1,0,0:0:0:0:
336,168,67249,1,0,0:0:0:0:
312,148,67365,1,0,0:0:0:0:
284,140,67480,1,0,0:0:0:0:
252,148,67596,2,0,P|192:168|160:224,1,125
156,248,67942,1,0,0:0:0:0:
156,280,68057,2,0,P|184:336|252:336,2,125
108,208,68749,5,0,0:0:0:0:
100,176,68865,1,0,0:0:0:0:
120,152,68980,1,0,0:0:0:0:
152,152,69096,1,0,0:0:0:0:
184,156,69211,1,0,0:0:0:0:
212,168,69326,1,0,0:0:0:0:
244,168,69442,1,0,0:0:0:0:
272,156,69557,1,0,0:0:0:0:
296,140,69672,1,0,0:0:0:0:
312,112,69788,1,0,0:0:0:0:
312,80,69903,2,0,P|240:76|184:104,2,125,0|4|0,0:0|0:0|0:0,0:0:0:0:
428,192,70596,6,2,L|320:288,1,125
192,276,71057,2,2,L|100:176,1,125
88,48,71519,2,2,L|236:48,1,125
352,48,71980,2,2,L|212:48,1,125
48,40,72442,5,0,0:0:0:0:
152,144,72672,1,0,0:0:0:0:
264,40,72903,1,0,0:0:0:0:
152,144,73134,1,0,0:0:0:0:
264,40,73365,6,0,P|352:132|352:248,1,250
184,240,74057,1,2,0:0:0:0:
300,128,74288,1,0,0:0:0:0:
52,152,74519,1,2,0:0:0:0:
164,36,74749,1,0,0:0:0:0:
176,136,74980,1,2,0:0:0:0:
300,128,75211,1,0,0:0:0:0:
464,196,75442,5,2,0:0:0:0:
384,308,75672,1,0,0:0:0:0:
300,200,75903,1,0,0:0:0:0:
372,84,76134,1,0,0:0:0:0:
244,36,76365,1,0,0:0:0:0:
144,128,76596,1,0,0:0:0:0:
204,252,76826,1,0,0:0:0:0:
80,312,77057,1,0,0:0:0:0:
52,176,77288,1,0,0:0:0:0:
188,172,77519,1,0,0:0:0:0:
88,88,77749,1,2,0:0:0:0:
68,224,77980,6,2,P|120:268|180:276,1,125
172,140,78442,2,2,P|124:100|60:88,1,125
68,224,78903,2,2,P|91:288|138:325,1,125
172,140,79365,2,2,P|150:81|101:38,1,125
68,224,79826,1,0,0:0:0:0:
180,304,80057,1,0,0:0:0:0:
280,212,80288,1,0,0:0:0:0:
160,140,80519,1,0,0:0:0:0:
292,104,80749,1,0,0:0:0:0:
168,44,80980,1,2,0:0:0:0:
84,152,81211,5,8,0:0:0:0:
96,180,81326,1,0,0:0:0:0:
116,204,81442,1,0,0:0:0:0:
140,224,81557,1,0,0:0:0:0:
168,240,81672,2,8,P|240:264|288:240,1,125
308,228,82019,1,0,0:0:0:0:
340,228,82134,1,0,0:0:0:0:
360,252,82249,1,0,0:0:0:0:
380,276,82365,2,0,P|432:224|416:168,1,125,0|8,0:0|0:0,0:0:0:0:
316,120,82826,6,0,P|256:76|180:88,1,125
248,208,83288,2,0,P|292:260|352:260,1,125
456,184,83749,5,0,0:0:0:0:
440,156,83865,1,0,0:0:0:0:
420,132,83980,2,8,P|340:100|280:124,1,125
208,204,84442,1,2,0:0:0:0:
304,300,84672,1,0,0:0:0:0:
420,224,84903,1,2,0:0:0:0:
320,128,85134,1,0,0:0:0:0:
448,80,85365,1,2,0:0:0:0:
272,52,85596,6,2,P|176:80|144:120,1,125
80,116,86057,2,2,P|168:176|224:144,1,125
160,96,86519,2,2,P|214:68|272:88,1,125
315,152,86980,2,2,P|348:116|340:44,1,125
256,192,87442,12,0,88596,0:0:0:0:
