osu file format v12

[General]
AudioFilename: Kawada Mami - PSI-Missing.mp3
AudioLeadIn: 0
PreviewTime: 52134
Countdown: 0
SampleSet: Soft
StackLeniency: 0.7
Mode: 0
LetterboxInBreaks: 0
WidescreenStoryboard: 0

[Editor]
DistanceSpacing: 1.1
BeatDivisor: 4
GridSize: 8

[Metadata]
Title:PSI-missing (TV Size)
TitleUnicode:PSI-missing (TV Size)
Artist:Kawada Mami
ArtistUnicode:川田まみ
Creator:AnataNoBaka
Version:Hard
Source:To Aru Majutsu No Index
Tags:opening Kamijou Touma Mikoto Misaka J.C. Staff とある魔術の禁書目録(インデックス toaru Nemis
BeatmapID:275776
BeatmapSetID:104916

[Difficulty]
HPDrainRate:5
CircleSize:4
OverallDifficulty:6
ApproachRate:7
SliderMultiplier:1.4
SliderTickRate:1

[Events]
//Background and Video events
Video,0,"video.avi"
0,0,"229268-dikemoon.jpg",0,0
//Break Periods
2,7564,13849
//Storyboard Layer 0 (Background)
//Storyboard Layer 1 (Fail)
//Storyboard Layer 2 (Pass)
//Storyboard Layer 3 (Foreground)
//Storyboard Sound Samples
//Background Colour Transformations
3,100,163,162,255

[TimingPoints]
1826.827,461.538461538462,4,2,0,100,1,0
51672,-100,4,2,0,100,0,1
80980,-100,4,2,0,100,0,0

[Colours]
Combo1 : 0,128,128
Combo2 : 0,255,255
Combo3 : 0,64,128
Combo4 : 0,0,255

[HitObjects]
256,192,3672,12,0,5057,1:0:0:0:
360,64,5519,6,0,P|384:120|376:152,1,70
328,184,5980,2,0,P|304:136|312:104,2,70
416,248,6672,1,0,0:0:0:0:
400,344,6903,1,0,0:0:0:0:
296,344,7134,2,0,P|250:332|222:315,1,70,0|4,0:0|0:0,0:0:0:0:
368,296,14749,5,0,0:0:0:0:
288,272,14980,2,0,P|240:248|248:216,1,70
234,154,15442,2,0,P|256:152|304:200,1,70
168,192,15903,2,0,P|160:136|176:96,1,70
88,104,16365,5,0,0:0:0:0:
88,104,16596,1,0,0:0:0:0:
240,48,16826,1,0,0:0:0:0:
240,48,17057,1,0,0:0:0:0:
392,104,17288,2,0,P|392:144|375:167,1,70
296,224,17749,2,0,P|280:168|288:136,1,70
216,192,18211,5,0,0:0:0:0:
168,192,18326,1,0,0:0:0:0:
136,216,18442,2,0,P|112:256|120:288,1,70
168,328,18903,1,0,0:0:0:0:
240,352,19134,1,0,0:0:0:0:
304,312,19365,1,0,0:0:0:0:
328,240,19596,1,0,0:0:0:0:
304,168,19826,1,0,0:0:0:0:
248,112,20057,6,0,P|256:56|288:40,1,70
390,116,20519,2,0,P|384:104|336:80,1,70
408,200,20980,2,0,P|352:192|344:176,1,70
320,160,21326,1,0,0:0:0:0:
280,152,21442,1,0,0:0:0:0:
248,176,21557,1,0,0:0:0:0:
232,208,21672,2,0,P|208:240|168:232,1,70
144,312,22134,5,0,0:0:0:0:
96,248,22365,1,0,0:0:0:0:
88,168,22596,2,0,P|104:120|120:104,1,70
184,72,23057,1,0,0:0:0:0:
256,192,23288,1,0,0:0:0:0:
328,72,23519,1,0,0:0:0:0:
344,176,23749,6,0,L|352:248,1,70
272,336,24211,1,0,0:0:0:0:
184,272,24442,2,0,L|195:192,1,70
208,112,24903,1,0,0:0:0:0:
272,232,25134,1,0,0:0:0:0:
112,208,25365,1,0,0:0:0:0:
88,104,25596,6,0,L|168:56,1,70
224,56,26057,2,0,L|256:136,1,70
320,160,26519,2,0,L|272:224,1,70
208,256,26980,2,0,L|176:192,1,70
104,160,27442,5,0,0:0:0:0:
80,192,27557,1,0,0:0:0:0:
72,232,27672,1,0,0:0:0:0:
72,272,27788,1,0,0:0:0:0:
96,304,27903,1,0,0:0:0:0:
128,328,28019,1,0,0:0:0:0:
168,344,28134,2,0,P|224:352|248:352,1,70
360,264,28826,2,0,P|408:160|392:128,1,140
360,80,29519,6,0,L|288:136,1,70
272,200,29980,2,0,L|224:128,1,70
248,64,30442,2,0,L|176:80,1,70
160,152,30903,2,0,L|144:232,1,70
216,264,31365,2,0,L|144:328,2,70
288,232,32057,6,0,P|360:200|384:136,1,140
392,72,32749,2,0,P|320:56|264:96,1,140
240,120,33326,1,0,0:0:0:0:
208,144,33442,1,0,0:0:0:0:
168,152,33557,1,0,0:0:0:0:
136,128,33672,2,0,P|96:88|72:88,1,70
48,96,34019,1,0,0:0:0:0:
32,128,34134,2,0,P|16:192|48:256,1,140
104,312,34826,6,0,P|152:344|184:328,1,70
176,264,35288,2,0,L|240:216,1,70
272,288,35749,2,0,P|328:328|344:320,2,70
344,256,36442,5,0,0:0:0:0:
392,192,36672,1,0,0:0:0:0:
376,112,36903,1,0,0:0:0:0:
304,72,37134,1,0,0:0:0:0:
224,56,37365,2,0,P|184:48|96:104,1,140
56,160,38057,5,0,0:0:0:0:
32,248,38288,1,0,0:0:0:0:
96,312,38519,1,0,0:0:0:0:
184,328,38749,2,0,P|240:336|288:312,2,105
184,328,39903,5,0,0:0:0:0:
288,224,40134,1,0,0:0:0:0:
208,88,40365,1,0,0:0:0:0:
72,80,40596,2,0,P|48:120|72:152,1,70
112,208,41057,1,0,0:0:0:0:
192,168,41288,1,0,0:0:0:0:
360,104,41749,6,0,P|384:144|360:176,3,70
328,296,42903,6,0,P|256:320|240:312,1,70
192,304,43365,1,0,0:0:0:0:
128,264,43596,1,0,0:0:0:0:
80,200,43826,2,0,P|72:152|88:128,1,70
128,72,44288,6,0,P|192:64|208:80,1,70
213,126,44749,2,0,P|200:112|192:64,1,70
250,44,45211,2,0,P|240:40|192:64,1,70
168,136,45672,5,0,0:0:0:0:
192,208,45903,1,0,0:0:0:0:
248,256,46134,1,0,0:0:0:0:
320,280,46365,1,0,0:0:0:0:
400,272,46596,1,0,0:0:0:0:
432,200,46826,1,0,0:0:0:0:
400,128,47057,1,0,0:0:0:0:
336,80,47288,1,0,0:0:0:0:
264,48,47519,1,0,0:0:0:0:
112,96,47980,6,0,P|80:168|104:232,1,140
112,256,48557,1,0,0:0:0:0:
136,288,48672,2,0,P|184:328|208:328,1,70
272,336,49134,1,0,0:0:0:0:
312,264,49365,2,0,P|336:224|376:232,1,70
256,192,49826,12,4,51672,0:0:0:0:
208,64,52134,6,0,P|160:112|160:136,1,70
183,182,52596,2,0,P|200:176|232:136,1,70
288,80,53057,2,0,P|344:96|344:128,1,70
357,182,53519,2,0,P|336:184|296:160,1,70
240,112,53980,5,0,0:0:0:0:
120,72,54211,1,0,0:0:0:0:
104,184,54442,1,0,0:0:0:0:
240,112,54672,1,0,0:0:0:0:
120,72,54903,1,0,0:0:0:0:
104,184,55134,1,0,0:0:0:0:
168,272,55365,1,4,0:0:0:0:
272,280,55596,1,0,0:0:0:0:
344,168,55826,6,0,L|272:120,1,70
280,56,56288,2,0,L|200:56,1,70
136,56,56749,2,0,L|176:136,1,70
216,176,57211,6,0,L|288:120,1,70
344,88,57672,1,0,0:0:0:0:
408,152,57903,1,0,0:0:0:0:
416,240,58134,1,0,0:0:0:0:
360,304,58365,1,0,0:0:0:0:
304,248,58596,1,0,0:0:0:0:
256,184,58826,5,0,0:0:0:0:
232,160,58942,1,0,0:0:0:0:
200,136,59057,2,0,P|160:96|96:136,1,140
80,168,59634,1,0,0:0:0:0:
72,208,59749,1,0,0:0:0:0:
72,248,59865,1,0,0:0:0:0:
88,288,59980,6,0,P|136:336|168:336,1,70,0|0,0:0|0:0,0:0:0:0:
208,344,60442,1,0,0:0:0:0:
264,248,60672,2,0,L|304:176,1,70
328,112,61134,2,0,L|264:72,1,70
200,40,61596,2,0,L|152:104,1,70
112,160,62057,2,0,L|176:224,1,70
224,256,62519,2,0,L|280:200,1,70
328,152,62980,5,8,0:0:0:0:
384,96,63211,1,0,0:0:0:0:
424,160,63442,1,8,0:0:0:0:
440,232,63672,1,0,0:0:0:0:
408,304,63903,1,8,0:0:0:0:
336,320,64134,1,0,0:0:0:0:
256,320,64365,1,8,0:0:0:0:
184,296,64596,1,0,0:0:0:0:
80,184,65057,6,0,P|160:120|200:96,1,140
224,80,65634,1,0,0:0:0:0:
264,72,65749,1,0,0:0:0:0:
296,88,65865,1,0,0:0:0:0:
320,120,65980,2,0,P|344:192|312:248,1,140,0|4,0:0|0:0,0:0:0:0:
176,280,66903,5,0,0:0:0:0:
96,144,67134,1,0,0:0:0:0:
256,136,67365,1,0,0:0:0:0:
113,104,67596,1,0,0:0:0:0:
155,256,67826,1,0,0:0:0:0:
270,137,68057,1,0,0:0:0:0:
304,256,68749,5,0,0:0:0:0:
376,144,68980,1,0,0:0:0:0:
456,256,69211,1,0,0:0:0:0:
384,176,69442,1,0,0:0:0:0:
285,266,69672,1,0,0:0:0:0:
432,305,69903,1,0,0:0:0:0:
432,305,70134,1,4,0:0:0:0:
312,88,70596,6,0,P|344:128|336:144,1,70
304,208,71057,2,0,P|264:168|272:144,1,70
232,88,71519,2,0,P|192:120|192:160,1,70
144,200,71980,2,0,P|192:208|232:192,1,70
248,184,72326,1,0,0:0:0:0:
272,152,72442,2,0,P|320:88|392:64,1,140
448,72,73134,1,0,0:0:0:0:
440,176,73365,6,0,P|400:256|336:280,1,140
328,296,73942,1,0,0:0:0:0:
288,304,74057,1,0,0:0:0:0:
248,304,74172,1,0,0:0:0:0:
208,296,74288,2,0,P|176:272|160:232,1,70
224,192,74749,2,0,P|192:168|152:168,2,70
200,264,75442,5,0,0:0:0:0:
120,256,75672,1,0,0:0:0:0:
72,192,75903,1,0,0:0:0:0:
96,120,76134,1,0,0:0:0:0:
152,72,76365,1,0,0:0:0:0:
232,64,76596,1,0,0:0:0:0:
304,96,76826,1,0,0:0:0:0:
344,160,77057,1,0,0:0:0:0:
360,232,77288,1,0,0:0:0:0:
256,192,77519,12,0,79365,1:0:0:0:
240,312,79826,6,0,B|176:240|152:200|320:216|272:88|104:152|112:280|104:104,1,350
176,80,81211,6,0,P|232:96|232:112,1,70
232,176,81672,2,0,P|280:168|288:144,1,70
272,80,82134,2,0,P|328:80|336:104,1,70
408,88,82596,2,0,P|384:136|360:152,1,70
296,152,83057,2,0,P|312:192|352:216,1,70
408,256,83519,5,0,0:0:0:0:
344,312,83749,1,0,0:0:0:0:
264,328,83980,2,0,P|208:304|192:280,1,70
128,286,84442,2,0,P|136:264|168:232,1,70
232,184,84903,2,0,P|192:152|160:160,1,70
128,96,85365,2,0,P|116:102|92:150,1,70
104,224,85826,2,0,P|144:208|168:184,1,70
208,120,86288,2,0,P|240:168|240:192,1,70
256,192,86749,12,0,88480,0:0:0:0:
