osu file format v9

[General]
AudioFilename: Kawada Mami - PSI-Missing.mp3
AudioLeadIn: 1500
PreviewTime: 35988
Countdown: 0
SampleSet: Soft
StackLeniency: 0.7
Mode: 0
LetterboxInBreaks: 1

[Editor]
DistanceSpacing: 0.8
BeatDivisor: 2
GridSize: 8

[Metadata]
Title:PSI-Missing (TV Size)
Artist:Kawada Mami
Creator:Rucker
Version:Normal
Source:Toaru Majutsu no Index
Tags:thinkinglf2 Uan quintitem MeLLoN Index

[Difficulty]
HPDrainRate:2
CircleSize:3
OverallDifficulty:2
ApproachRate:2
SliderMultiplier:1.2
SliderTickRate:1

[Events]
//Background and Video events
0,0,"bg.jpg"
Video,0,"video.avi"
//Break Periods
2,7565,13190
2,31565,34882
2,49796,50113
//Storyboard Layer 0 (Background)
//Storyboard Layer 1 (Fail)
//Storyboard Layer 2 (Pass)
//Storyboard Layer 3 (Foreground)
//Storyboard Sound Samples
//Background Colour Transformations
3,100,163,162,255

[TimingPoints]
1827,461.538461538462,4,2,0,100,1,0
20980,-200,4,2,0,100,0,0
21673,-100,4,2,0,100,0,0
62750,-200,4,2,0,100,0,0
64596,-100,4,2,0,100,0,0
81442,-100,4,2,0,0,0,0

[Colours]
Combo1 : 255,204,128
Combo2 : 131,252,131
Combo3 : 131,131,252
Combo4 : 252,131,131

[HitObjects]
152,192,5519,1,2
360,192,5980,1,2
256,192,6442,1,0
256,192,6673,1,0
256,192,6903,1,0
256,192,7134,1,0
256,192,7365,1,4
160,80,14750,6,0,B|64:80,2,60
240,80,15442,1,0
320,80,15673,2,0,B|392:40|448:96,1,120,0|2
432,240,16596,2,0,B|280:240,1,120
344,312,17288,2,0,B|184:312,1,120
224,312,17980,1,4
64,312,18442,6,0,B|40:256|104:208|32:160,1,120
64,112,19134,1,0
144,112,19365,2,0,B|200:64|264:120,1,120
253,111,20057,1,0
256,192,20288,2,0,B|96:192,1,120
136,272,20980,2,0,B|136:370,1,90,0|4
384,96,22134,6,0,B|472:96,2,60
384,96,22827,1,0
384,176,23057,2,0,B|384:304,1,120
224,296,23980,2,0,B|224:144,1,120
224,96,24673,2,0,B|152:56|72:120,1,120
109,95,25365,1,4
104,256,25827,6,0,B|240:256,3,120
224,256,27442,1,0
224,256,27673,1,2
384,256,28134,1,2
384,256,28365,1,2
384,96,28827,2,0,B|280:96,2,60,0|0|2
256,192,29519,12,0,31365
80,304,36442,5,0
80,304,36673,1,0
80,304,36903,2,0,B|160:256|224:336,1,120,2|0
352,304,37827,2,0,B|352:176,1,120
352,104,38519,1,2
272,104,38750,2,0,B|120:104,3,120
152,104,40365,1,0
152,104,40596,1,4
192,272,41057,6,0,B|56:272,2,120
192,272,42211,1,0
192,272,42442,1,4
368,272,42903,2,0,B|440:272|472:184,1,120
461,208,43827,1,4
464,48,44288,6,0,B|312:48,1,120
184,48,45211,2,0,B|184:192,1,120
344,168,46134,2,0,B|488:168,1,120
464,328,47057,2,0,B|304:328,1,120
184,328,47980,2,0,B|184:184,3,120
184,208,49596,1,4
416,80,51673,5,4
256,80,52134,2,0,B|128:80,2,120
256,80,53288,1,0
256,80,53519,1,4
256,240,53980,6,0,B|432:240,2,120
256,240,55134,1,0
256,240,55365,1,4
96,240,55827,6,0,B|48:160|136:88,1,120,2|0
256,128,56750,2,0,B|320:88|392:144,1,120,2|0
368,288,57673,1,0
288,288,57903,1,0
208,288,58134,1,4
88,80,59057,6,0,B|168:32|232:112,1,120
360,80,59980,2,0,B|424:80,2,60,0|0|6
360,240,60903,2,0,B|432:288|352:344,1,120
200,288,61827,1,0
200,288,62057,1,0
200,288,62288,1,6
40,288,62750,6,0,B|16:208|64:128|40:48,1,240,0|4
200,56,65057,1,0
280,56,65288,1,0
360,56,65519,2,0,B|496:56,2,120,0|0|4
360,224,66903,5,0
360,224,67134,1,0
360,224,67365,2,0,B|192:224,1,120
240,224,68057,1,0
160,224,68288,2,0,B|128:160|168:96,1,120,4|0
320,112,69211,2,0,B|456:112,1,120
440,112,69903,1,0
440,112,70134,1,4
440,272,70596,6,0,B|424:344|352:352,1,120
200,352,71519,1,0
120,352,71750,1,0
40,352,71980,2,0,B|40:208,1,120
40,152,72673,2,0,B|40:88,1,60,0|4
192,72,73365,5,2
192,72,73827,2,0,B|352:72,3,120,2|0|2|0
312,72,75442,1,0
392,72,75673,2,0,B|440:152|368:216,1,120,4|0
392,344,76596,2,0,B|216:344,1,120,2|0
192,344,77288,1,0
192,344,77519,1,4
256,192,77750,12,4,79365
336,328,79827,5,2
176,328,80288,1,2
256,192,80750,1,2
256,112,80980,1,0
256,32,81211,1,4
256,192,81442,12,0,88596
