osu file format v8

[General]
AudioFilename: Kawada Mami - PSI-Missing.mp3
AudioLeadIn: 1500
PreviewTime: 35988
Countdown: 0
SampleSet: Soft
StackLeniency: 0.7
Mode: 0
LetterboxInBreaks: 1

[Editor]
DistanceSpacing: 0.8
BeatDivisor: 4
GridSize: 8

[Metadata]
Title:PSI-Missing (TV Size)
Artist:Kawada Mami
Creator:Rucker
Version:Missing
Source:Toaru Majutsu no Index
Tags:thinkinglf2 Uan quintitem MeLLoN Index

[Difficulty]
HPDrainRate:6
CircleSize:4
OverallDifficulty:7
ApproachRate:7
SliderMultiplier:1.6
SliderTickRate:1

[Events]
//Background and Video events
0,0,"bg.jpg"
Video,0,"video.avi"
//Break Periods
2,7565,13850
2,33411,35542
//Storyboard Layer 0 (Background)
//Storyboard Layer 1 (Fail)
//Storyboard Layer 2 (Pass)
//Storyboard Layer 3 (Foreground)
//Storyboard Sound Samples
//Background Colour Transformations
3,100,163,162,255

[TimingPoints]
1827,461.538461538462,4,2,0,100,1,0
62750,-200,4,2,0,100,0,0
63673,-100,4,2,0,100,0,0

[Colours]
Combo1 : 255,204,128
Combo2 : 131,252,131
Combo3 : 131,131,252
Combo4 : 252,131,131

[HitObjects]
128,96,3673,1,2
144,96,3788,1,0
160,96,3903,1,0
176,96,4019,1,0
192,96,4134,1,2
208,96,4250,1,0
224,96,4365,1,0
240,96,4480,1,0
256,96,4596,1,2
272,96,4711,1,0
288,96,4827,1,0
304,96,4942,1,0
320,96,5057,1,2
336,96,5173,1,0
352,96,5288,1,0
368,96,5403,1,0
384,96,5519,1,6
456,168,5750,5,0
392,240,5980,1,2
456,328,6211,1,0
440,328,6327,1,0
424,328,6442,1,2
328,328,6673,1,0
256,256,6903,1,2
256,240,7019,1,2
256,224,7134,1,0
256,208,7250,1,0
256,192,7365,1,6
72,104,14750,6,0,B|152:56|224:104,1,160
312,48,15442,1,0
344,48,15557,1,0
376,48,15673,1,2
472,112,15903,2,0,B|472:200,1,80
472,280,16365,1,0
376,344,16596,1,2
376,312,16711,1,0
376,272,16826,1,0
376,168,17057,6,0,B|376:112|312:112,1,80
256,48,17519,2,0,B|88:48,1,160
40,128,18211,1,0
40,160,18327,1,0
40,192,18442,1,2
128,240,18673,2,0,B|216:240,1,80
240,168,19134,1,2
296,240,19365,1,0
240,312,19596,1,2
336,344,19827,6,0,B|432:344,1,80
480,272,20288,2,0,B|480:192|432:200,1,80,0|2
360,200,20750,1,2
328,200,20865,1,0
296,200,20980,1,0
192,208,21211,2,0,B|192:104,1,80
272,64,21673,1,2
304,64,21788,1,0
336,64,21903,1,2
368,64,22019,1,0
400,64,22134,1,2
448,152,22365,6,0,B|480:192|448:232,1,80
368,192,22827,1,0
336,192,22942,1,2
304,192,23057,1,0
208,152,23288,6,0,B|208:64,1,80
128,40,23750,1,0
40,80,23980,1,0
40,176,24211,1,0
128,224,24442,1,0
216,176,24673,2,0,B|320:176,1,80,2|0
320,88,25134,2,0,B|432:88|432:216,1,160
429,181,25711,1,0
429,181,25827,1,2
488,256,26057,5,0
432,328,26288,1,0
336,304,26519,1,2
304,304,26634,1,0
272,304,26750,1,2
176,336,26980,2,0,B|80:336,1,80
88,240,27442,1,0
144,144,27673,2,0,B|144:56,1,80,2|0
368,144,28134,2,0,B|368:232,1,80,2|0
256,288,28596,5,2
256,272,28711,1,0
256,256,28827,1,0
256,240,28942,1,0
256,224,29057,1,2
256,208,29173,1,0
256,192,29288,1,0
256,176,29403,1,0
256,160,29519,1,6
256,192,29750,12,0,33211
424,64,36442,6,0,B|424:160,1,80
480,216,36903,1,2
480,248,37019,1,0
480,280,37134,1,0
392,328,37365,2,0,B|352:360|304:320,1,80
256,264,37827,5,2
200,336,38057,1,0
112,336,38288,1,2
48,272,38519,1,0
112,200,38750,1,2
112,168,38865,1,0
112,136,38980,1,0
112,40,39211,2,0,B|208:40,1,80
248,112,39673,2,0,B|328:160|400:112,1,160
472,184,40365,5,0
432,280,40596,1,2
432,280,40711,1,0
432,280,40827,2,0,B|344:280,1,80
208,208,41288,2,0,B|296:208,1,80
288,208,41634,1,0
288,208,41750,1,2
368,144,41980,5,0
288,80,42211,2,0,B|200:40,1,80
215,46,42673,1,0
128,88,42903,2,0,B|128:192,1,80
128,168,43365,1,2
128,168,43480,1,0
128,168,43596,1,2
200,256,43827,1,0
200,256,43942,1,2
200,256,44057,1,0
304,288,44288,6,0,B|296:384,1,80,2|0
184,240,44750,2,0,B|192:344,1,80
360,176,45211,2,0,B|352:272,1,80,2|0
128,144,45673,2,0,B|144:240,1,80,0|0
424,112,46134,2,0,B|408:208,1,80,2|0
56,64,46596,2,0,B|80:160,1,80,0|0
256,64,47057,5,2
256,64,47173,1,0
256,64,47288,2,0,B|256:168,1,80
256,144,47750,1,0
72,192,47980,5,2
72,192,48096,1,0
72,192,48211,2,0,B|144:152,1,80
440,192,48673,5,0
440,192,48788,1,0
440,192,48903,2,0,B|368:232,1,80,2|0
256,336,49365,6,0,B|256:240,1,80,2|0
256,144,50288,5,2
256,144,50403,1,0
256,144,50519,1,0
256,144,50634,1,0
256,144,50750,1,2
256,144,50865,1,0
256,144,50980,1,0
256,144,51096,1,0
256,144,51211,1,2
256,144,51327,1,0
256,144,51442,1,0
256,144,51557,1,0
256,144,51673,1,6
96,312,52134,6,0,B|96:224,1,80
40,152,52596,2,0,B|40:40|176:40,1,160,2|0
232,40,53288,1,2
264,40,53403,1,0
296,40,53519,1,0
392,80,53750,6,0,B|480:80,1,80
472,80,54211,1,0
424,168,54442,1,2
392,168,54557,1,2
360,168,54673,1,0
328,168,54788,1,2
296,168,54903,2,0,B|208:168,1,80
184,96,55365,5,2
136,168,55596,1,0
184,240,55827,1,0
256,296,56057,2,0,B|256:384,1,80,0|2
352,296,56519,2,0,B|352:200,1,80
352,216,56980,5,0
440,168,57211,1,2
440,136,57327,1,0
440,104,57442,1,0
440,72,57557,1,0
440,40,57673,1,0
344,64,57903,2,0,B|240:64,1,80,0|2
216,136,58365,1,0
168,64,58596,1,0
120,136,58827,5,0
120,136,58942,1,0
120,136,59057,2,0,B|120:232,1,80,2|0
40,240,59519,1,0
80,312,59750,1,0
160,288,59980,1,2
240,312,60211,1,0
280,240,60442,1,0
200,208,60673,5,0
200,208,60788,1,0
200,208,60903,2,0,B|200:112,1,80,2|0
288,176,61365,2,0,B|288:80,1,80
376,144,61827,2,0,B|376:48,1,80,2|0
472,104,62288,1,0
472,136,62403,1,0
472,168,62519,1,0
472,200,62634,1,0
472,232,62750,2,0,B|472:320,1,80,6|0
256,336,63673,5,2
240,336,63788,1,0
224,336,63903,1,0
208,336,64019,1,0
192,336,64134,1,2
176,336,64250,1,0
160,336,64365,1,0
144,336,64480,1,0
128,336,64596,2,0,B|72:336|72:272,1,80,2|0
128,208,65057,5,2
128,176,65173,1,0
128,144,65288,1,2
128,112,65403,1,0
128,80,65519,1,2
240,72,65750,1,0
240,72,65865,6,0,B|344:40,1,80
352,56,66211,1,0
384,64,66327,1,0
416,72,66442,1,2
488,144,66673,6,0,B|488:232,1,80,0|0
400,208,67134,1,0
432,296,67365,2,0,B|320:296,1,80,2|0
352,296,67711,1,0
352,296,67827,1,0
280,352,68057,1,0
208,304,68288,1,2
120,296,68519,1,0
40,328,68750,2,0,B|40:240,1,80
40,248,69211,5,2
80,160,69442,1,0
80,128,69557,1,0
80,96,69673,1,0
80,64,69788,1,0
80,32,69903,1,0
176,56,70134,2,0,B|264:56,1,80,2|0
328,136,70596,2,0,B|232:136,1,80
184,208,71057,5,2
184,208,71173,1,0
184,208,71288,2,0,B|184:296,1,80
272,240,71750,2,0,B|272:328,1,80,0|2
360,272,72211,2,0,B|360:360,1,80
360,352,72673,1,0
448,304,72903,2,0,B|512:232|432:144,1,160,2|0
408,80,73596,1,0
328,136,73827,2,0,B|328:48,1,80,2|0
240,72,74288,5,0
144,56,74519,1,0
144,56,74634,1,0
144,56,74750,1,2
72,112,74980,1,0
32,192,75211,1,0
72,272,75442,1,0
144,328,75673,1,2
144,328,75788,1,0
144,328,75903,2,0,B|240:312,1,80
368,56,76365,5,0
368,56,76480,1,0
368,56,76596,2,0,B|272:72,1,80,2|0
256,192,77057,5,2
256,192,77173,1,0
256,192,77288,1,0
256,192,77403,1,0
256,192,77519,1,2
256,192,77634,12,0,79365
256,80,79596,5,0
352,120,79827,1,2
352,120,79942,1,0
352,120,80057,2,0,B|440:120,1,80
416,216,80519,1,0
344,288,80750,5,2
312,288,80865,1,0
280,288,80980,1,0
248,288,81096,1,0
216,288,81211,2,0,B|112:288|112:168,1,160,0|2
40,160,81903,5,0
112,112,82134,1,0
184,160,82365,1,0
256,216,82596,1,2
328,160,82826,1,0
400,112,83057,1,0
400,112,83173,1,0
400,112,83288,1,0
472,160,83519,5,2
432,240,83750,2,0,B|432:328,1,80
336,296,84211,2,0,B|273:358,1,80,0|2
224,272,84673,2,0,B|135:272,1,80
80,192,85134,1,0
144,120,85365,1,2
176,120,85480,1,0
208,120,85596,1,0
304,160,85826,6,0,B|304:56,1,80
400,152,86288,2,0,B|400:240,1,80,2|0
336,304,86750,1,0
304,304,86865,1,0
272,304,86980,1,0
176,264,87211,2,0,B|120:264,2,40,2|0|0
256,192,87673,5,2
256,176,87788,1,0
256,160,87903,1,0
256,144,88019,1,2
256,128,88134,1,0
256,112,88250,1,0
256,96,88365,1,2
256,80,88480,1,0
