osu file format v8

[General]
AudioFilename: Kawada Mami - PSI-Missing.mp3
AudioLeadIn: 1500
PreviewTime: 35988
Countdown: 0
SampleSet: Normal
StackLeniency: 0.7
Mode: 0
LetterboxInBreaks: 1

[Editor]
DistanceSpacing: 1
BeatDivisor: 4
GridSize: 8

[Metadata]
Title:PSI-Missing (TV Size)
Artist:Kawada Mami
Creator:Rucker
Version:MeLLoN
Source:Toaru Majutsu no Index
Tags:thinkinglf2 Uan quintitem MeLLoN Index

[Difficulty]
HPDrainRate:6
CircleSize:4
OverallDifficulty:8
ApproachRate:8
SliderMultiplier:1.9
SliderTickRate:1

[Events]
//Background and Video events
0,0,"bg.jpg"
Video,0,"video.avi"
//Break Periods
2,35026,35692
//Storyboard Layer 0 (Background)
//Storyboard Layer 1 (Fail)
//Storyboard Layer 2 (Pass)
//Storyboard Layer 3 (Foreground)
//Storyboard Sound Samples
//Background Colour Transformations
3,100,163,162,255

[TimingPoints]
1827,461.538461538462,4,2,0,100,1,0
3557,-100,4,2,0,0,0,0
5403,-100,4,1,0,70,0,0
29403,-100,4,1,0,0,0,0
31365,-100,4,1,0,70,0,0
49711,-100,4,1,0,0,0,0
51211,-100,4,1,0,80,0,0
51673,-100,4,1,0,80,0,1
62636,-100,4,1,0,80,0,0
66903,-100,4,1,0,80,0,1
81096,-100,4,1,0,0,0,0
83057,-100,4,1,0,70,0,0

[Colours]
Combo1 : 255,204,128
Combo2 : 131,252,131
Combo3 : 131,131,252
Combo4 : 252,131,131

[HitObjects]
256,192,3673,12,0,5057
256,56,5519,6,0,B|256:152,1,95
256,151,5865,1,0
256,151,5980,1,0
160,208,6211,2,0,B|112:200,1,47.5
352,208,6557,2,0,B|400:200,1,47.5
256,256,6903,5,0
256,256,7019,1,0
256,256,7134,1,0
256,256,7250,1,0
256,256,7365,1,4
312,328,7596,5,0
408,344,7827,2,0,B|448:312|496:296,2,95
384,256,8519,1,0
400,216,8634,1,0
392,168,8750,1,0
304,144,8980,2,0,B|280:96|272:48,1,95
192,96,9442,2,0,B|160:64|120:32,1,95
88,120,9903,5,0
40,200,10134,1,0
64,288,10365,2,0,B|104:320|136:360,2,95
144,240,11057,5,0
144,240,11173,1,0
144,240,11288,1,0
224,192,11519,2,0,B|232:144|224:96,1,95
288,272,11980,2,0,B|304:320|336:360,1,95
328,168,12442,1,0
328,168,12673,2,0,B|376:176|424:168,2,95
264,104,13365,6,0,B|232:64|192:32,1,95
112,72,13826,2,0,B|120:120|152:160,1,95
232,200,14288,1,0
240,216,14403,1,0
248,232,14519,1,0
256,248,14634,1,0
264,264,14750,6,0,B|288:312|312:352,1,95,4|0
360,272,15211,1,0
448,296,15442,1,0
448,296,15557,2,0,B|472:248|488:200,1,95
448,184,15903,2,0,B|432:136|432:88,1,95
344,120,16365,6,0,B|296:136,1,47.5
280,96,16596,2,0,B|224:104|184:88,2,95
232,176,17288,2,0,B|184:176|128:184,1,95
48,160,17750,1,0
48,160,17980,1,0
112,96,18211,2,0,B|128:72|128:40,2,47.5
137,182,18673,6,0,B|112:232|64:256,1,95
40,336,19134,1,0
40,336,19250,2,0,B|88:336|144:344,1,95
160,304,19596,2,0,B|208:304|256:296,1,95
344,312,20057,5,0
344,312,20288,2,0,B|368:272|376:216,1,95
288,192,20750,2,0,B|296:144|320:96,2,95
216,136,21442,1,0
192,48,21673,1,0
192,48,21788,1,0
192,48,21903,1,0
280,72,22134,6,0,B|328:72|376:64,1,95,4|0
456,104,22596,1,0
408,184,22827,1,0
408,184,22942,2,0,B|360:184|304:192,1,95
272,176,23288,2,0,B|224:184|176:184,1,95
104,128,23750,5,0
104,128,23980,2,0,B|96:80|72:32,2,95
56,208,24673,2,0,B|56:256|72:304,1,95
144,360,25134,1,0
144,360,25365,1,0
232,336,25596,5,0
232,336,25711,1,0
232,336,25827,2,0,B|256:288|264:240,1,95
344,288,26288,1,0
432,312,26519,1,0
432,312,26634,2,0,B|456:264|464:216,1,95
432,192,26980,2,0,B|432:144|440:96,1,95
360,48,27442,5,0
360,48,27673,2,0,B|312:56|264:48,1,95,4|0
240,136,28134,2,0,B|288:144|336:160,2,95,0|4|0
160,88,28827,2,0,B|112:80|64:80,2,95
256,192,29519,12,0,31365
144,88,32057,6,0,B|192:72|232:48,1,95
264,136,32519,2,0,B|312:128|360:128,2,95
208,208,33211,1,0
392,176,33673,2,0,B|440:160|488:152,1,95
120,176,34596,2,0,B|72:160|16:152,1,95
360,280,36442,5,0
360,280,36673,1,0
360,280,36903,2,0,B|408:336|488:352,2,142.5
176,312,38057,6,0,B|128:320|80:320,2,95
128,232,38750,2,0,B|200:200|272:192,2,142.5
224,72,39903,6,0,B|272:56|320:48,1,95
392,104,40365,1,0
368,192,40596,2,0,B|320:240|248:272,2,142.5
392,104,41519,1,0
312,56,41750,5,0
288,144,41980,1,0
208,96,42211,1,0
120,120,42442,1,0
120,120,42673,1,0
72,200,42903,6,0,B|32:288,1,95
128,272,43365,2,0,B|168:184,1,95
224,256,43827,2,0,B|200:304,1,47.5
296,288,44173,1,0
296,288,44288,6,0,B|360:336|432:352,2,142.5,4|0|0
352,216,45211,1,0
328,128,45442,1,0
384,56,45673,2,0,B|424:32|480:24,1,95
328,128,46134,6,0,B|256:104|176:104,2,142.5,4|0|0
352,216,47057,2,0,B|400:232|448:240,2,95,4|0|0
256,232,47750,1,0
160,232,47980,6,0,B|112:240|64:240,1,95,4|0
96,328,48442,1,0
184,352,48673,2,0,B|232:360|280:352,1,95,4|0
368,336,49134,1,0
344,248,49365,2,0,B|392:240|440:240,1,95,4|0
256,192,49827,12,4,51211
88,112,51673,5,0
176,80,51903,1,0
264,104,52134,2,0,B|312:88|360:80,1,95,4|0
384,168,52596,2,0,B|448:128|496:64,2,142.5
360,256,53519,1,0
360,256,53634,1,0
360,256,53750,1,0
272,280,53980,6,0,B|232:312|184:336,1,95
136,256,54442,2,0,B|64:288|16:344,2,142.5,4|0|0
88,176,55365,1,0
88,176,55480,1,0
88,176,55596,1,0
112,88,55827,6,0,B|160:72|200:40,1,95
264,104,56288,2,0,B|336:72|408:72,2,142.5
320,176,57211,2,0,B|256:216|176:224,2,142.5
400,224,58134,1,0
400,224,58250,1,0
400,224,58365,1,0
480,272,58596,1,0
416,336,58827,6,0,B|368:360,1,47.5
352,320,59057,2,0,B|304:304|248:312,1,95
224,224,59519,2,0,B|272:224|320:216,1,95
136,176,59980,2,0,B|88:192|40:200,1,95
88,280,60442,1,0
152,344,60673,5,0
152,344,60788,1,0
152,344,60903,2,0,B|232:344|304:360,2,142.5,4|0|0
200,264,61827,2,0,B|272:264|344:256,2,142.5,4|0|0
112,240,62750,5,4
40,184,62980,1,0
64,96,63211,2,0,B|104:64|136:24,1,95,0|4
176,112,63673,2,0,B|208:72|248:40,2,95,0|0|4
224,192,64365,1,0
312,216,64596,1,0
312,216,64711,1,0
312,216,64827,1,0
400,192,65057,6,0,B|440:224|488:248,1,95,4|0
408,304,65519,2,0,B|384:352,1,47.5
304,304,65865,1,0
304,304,65980,1,0
216,328,66211,2,0,B|200:344|168:352,2,47.5,0|0|4
296,160,66903,6,0,B|344:176|392:184,1,95
360,96,67365,2,0,B|432:72|496:32,2,142.5,4|0|0
280,48,68288,1,0
280,48,68403,1,0
280,48,68519,1,0
200,96,68750,6,0,B|152:104|104:104,1,95
160,176,69211,2,0,B|88:184|16:200,2,142.5,4|0|0
256,168,70134,2,0,B|280:168|304:160,2,47.5
232,256,70596,5,0
256,344,70827,1,0
328,288,71057,2,0,B|400:264|480:256,2,142.5
256,344,71980,2,0,B|184:336|112:344,2,142.5
232,256,72903,1,0
232,256,73019,1,0
232,256,73134,1,0
160,200,73365,5,0
160,200,73480,1,0
160,200,73596,1,0
80,248,73827,2,0,B|88:296|88:344,1,95,4|0
80,160,74288,2,0,B|72:112|72:64,1,95
160,88,74750,1,0
248,112,74980,1,0
336,88,75211,1,0
312,176,75442,5,0
336,264,75673,2,0,B|416:288|464:328,2,142.5,4|0|0
272,328,76596,2,0,B|208:352|128:352,2,142.5,4|0|0
208,264,77519,5,4
120,224,77750,1,0
144,136,77980,1,0
64,88,78211,1,0
144,136,78442,6,0,B|144:104|160:80,2,47.5
232,160,78903,2,0,B|232:192|256:208,2,47.5
304,104,79365,1,0
304,104,79480,1,0
304,104,79596,1,0
304,104,79711,1,0
304,104,79827,6,0,B|352:96|400:96,1,95,4|0
448,176,80288,2,0,B|392:224|320:248,2,142.5,4|0|0
256,192,81211,12,4,83057
120,168,83750,6,0,B|112:120|96:72,2,95
200,216,84442,1,0
288,192,84673,1,0
352,256,84903,6,0,B|328:312|288:344,2,95
376,168,85596,2,0,B|368:120|368:72,2,95
448,224,86288,1,0
448,224,86519,1,0
168,192,87211,6,0,B|120:192|72:200,1,95
256,240,87673,2,0,B|304:240|352:248,1,95
168,288,88134,2,0,B|144:304|136:328,3,47.5
