osu file format v12

[General]
AudioFilename: Kwada Mami - Koubou.mp3
AudioLeadIn: 0
PreviewTime: 198186
Countdown: 0
SampleSet: Soft
StackLeniency: 0.7
Mode: 0
LetterboxInBreaks: 1
StoryFireInFront: 0
EpilepsyWarning: 1
WidescreenStoryboard: 1

[Editor]
DistanceSpacing: 0.8
BeatDivisor: 2
GridSize: 4

[Metadata]
Title:Koubou
TitleUnicode:光芒
Artist:Kawada Mami
ArtistUnicode:川田まみ
Creator:P A N
Version:Normal
Source:Shakugan_no_shana 灼眼のシャナ
Tags:p_a_n ending Beam of Light Shakugan no Shana Final
BeatmapID:338918
BeatmapSetID:135230

[Difficulty]
HPDrainRate:2
CircleSize:3
OverallDifficulty:2
ApproachRate:3
SliderMultiplier:1.2
SliderTickRate:1

[Events]
//Background and Video events
0,0,"bgg.jpg",0,0
//Break Periods
2,88543,104403
//Storyboard Layer 0 (Background)
//Storyboard Layer 1 (Fail)
//Storyboard Layer 2 (Pass)
//Storyboard Layer 3 (Foreground)
//Storyboard Sound Samples
//Background Colour Transformations
3,100,163,162,255

[TimingPoints]
23343,625,4,2,1,70,1,0
39749,-100,4,2,2,70,0,0
40218,-100,4,2,1,70,0,0
62874,-100,4,2,1,50,0,0
63343,-100,4,2,1,45,0,0
63968,-100,4,2,2,45,0,0
65843,-100,4,2,1,70,0,0
85843,-100,4,2,1,50,0,0
86468,-100,4,2,1,70,0,0
128343,-100,4,2,2,50,0,0
130843,-100,4,2,1,70,0,0
208968,-100,4,2,1,50,0,0
209593,-100,4,2,1,70,0,0
216780,-100,4,2,1,30,0,0
217093,-100,4,2,1,70,0,0
228968,-100,4,2,1,50,0,0
229593,-100,4,2,1,70,0,0
248968,-100,4,2,1,50,0,0
249593,-100,4,2,1,70,0,0
268968,-100,4,2,1,50,0,0
269593,-100,4,2,1,70,0,0

[Colours]
Combo1 : 128,128,255
Combo2 : 255,128,128
Combo3 : 255,255,128
Combo4 : 255,128,192
SliderBorder : 255,255,255

[HitObjects]
256,192,20843,12,0,22718,0:0:0:0:
196,108,23343,6,0,P|256:96|320:112,2,120,6|2|2,0:0|0:0|0:0,0:0:0:0:
148,192,25218,1,2,0:0:0:0:
196,276,25843,2,0,P|254:288|312:276,2,120,2|2|2,0:0|0:0|0:0,0:0:0:0:
148,192,27718,1,2,0:0:0:0:
192,108,28343,6,0,P|304:56|476:192,1,360,2|2,0:0|0:0,0:0:0:0:
444,276,30843,2,0,P|332:328|160:192,1,360,2|2,0:0|0:0,0:0:0:0:
156,100,33343,6,0,P|156:68|168:40,1,60,2|0,0:0|0:0,0:0:0:0:
212,24,33968,2,0,P|268:40|340:12,1,120,2|2,0:0|0:0,0:0:0:0:
404,76,35218,1,2,0:0:0:0:
432,116,35530,1,0,0:0:0:0:
436,164,35843,6,0,P|440:224|404:280,1,120,2|2,0:0|0:0,0:0:0:0:
316,300,37093,2,0,P|256:288|197:302,1,120,2|2,0:0|0:0,0:0:0:0:
152,300,38030,1,0,0:0:0:0:
108,276,38343,6,0,P|78:224|83:166,1,120,2|2,0:0|0:0,0:0:0:0:
72,120,39280,2,0,P|152:132|216:60,1,180,0|2,0:0|0:0,0:0:0:0:
228,20,40530,2,0,L|304:24,1,60,0|2,0:0|0:0,0:0:0:0:
376,56,41468,6,0,P|400:112|380:188,1,120,2|2,0:0|0:0,0:0:0:0:
336,248,42718,1,2,0:0:0:0:
296,272,43030,1,0,0:0:0:0:
248,284,43343,6,0,P|188:292|132:252,1,120,6|8,0:0|0:0,0:0:0:0:
160,168,44593,2,0,P|220:160|276:200,1,120,2|8,0:0|0:0,0:0:0:0:
304,220,45530,1,0,0:0:0:0:
344,248,45843,6,0,P|396:256|456:224,1,120,2|8,0:0|0:0,0:0:0:0:
472,132,47093,2,0,P|432:72|364:60,1,120,2|8,0:0|0:0,0:0:0:0:
344,48,48030,1,0,0:0:0:0:
296,52,48343,6,0,L|176:56,1,120,2|8,0:0|0:0,0:0:0:0:
88,92,49593,1,2,0:0:0:0:
72,136,49905,2,0,P|68:172|72:204,1,60,0|8,0:0|0:0,0:0:0:0:
80,244,50530,6,0,P|128:324|232:336,1,180,2|8,0:0|0:0,0:0:0:0:
292,292,52093,2,0,L|288:228,2,60,2|2|8,0:0|0:0|0:0,0:0:0:0:
320,332,53030,1,0,0:0:0:0:
364,348,53343,6,0,P|424:348|476:296,1,120,6|8,0:0|0:0,0:0:0:0:
388,260,54593,2,0,P|332:232|272:244,1,120,2|8,0:0|0:0,0:0:0:0:
240,272,55530,1,0,0:0:0:0:
200,296,55843,6,0,P|136:304|88:280,1,120,2|8,0:0|0:0,0:0:0:0:
52,248,56780,1,0,0:0:0:0:
44,200,57093,1,2,0:0:0:0:
44,104,57718,1,8,0:0:0:0:
72,64,58030,1,0,0:0:0:0:
112,40,58343,6,0,P|172:20|244:36,1,120,2|8,0:0|0:0,0:0:0:0:
256,68,59280,2,0,P|328:108|420:80,1,180,2|8,0:0|0:0,0:0:0:0:
472,164,60843,5,2,0:0:0:0:
452,260,61468,2,0,P|400:280|336:260,1,120,8|2,0:0|0:0,0:0:0:0:
256,216,62718,1,8,0:0:0:0:
208,204,63030,1,0,0:0:0:0:
160,212,63343,6,0,P|104:236|76:304,1,120,4|4,0:0|0:0,0:0:0:0:
92,332,64280,2,0,P|148:360|208:348,1,120,4|4,0:0|0:0,0:0:0:0:
240,320,65218,2,0,L|312:328,1,60,4|4,0:0|0:0,0:0:0:0:
256,192,65843,12,6,68343,0:0:0:0:
380,300,69593,6,0,L|448:296,2,60,2|0|8,0:0|0:0|0:0,0:0:0:0:
332,300,70530,2,0,P|264:288|204:320,1,120
176,332,71468,2,0,P|112:348|48:312,1,120,8|2,0:0|0:0,0:0:0:0:
32,236,72718,1,8,0:0:0:0:
20,188,73030,6,0,P|24:96|104:56,1,180,2|8,0:0|0:0,0:0:0:0:
112,152,74593,1,2,0:0:0:0:
100,248,75218,1,8,0:0:0:0:
116,292,75530,6,0,P|200:256|284:284,1,180,2|8,0:0|0:0,0:0:0:0:
336,360,77093,2,0,P|392:372|460:340,1,120,2|8,0:0|0:0,0:0:0:0:
472,308,78030,1,2,0:0:0:0:
480,260,78343,6,0,L|476:132,1,120,6|8,0:0|0:0,0:0:0:0:
384,108,79593,2,0,L|380:48,2,60,2|0|8,0:0|0:0|0:0,0:0:0:0:
376,156,80530,2,0,P|300:192|208:156,1,180,2|8,0:0|0:0,0:0:0:0:
152,88,82093,1,2,0:0:0:0:
68,132,82718,1,8,0:0:0:0:
32,160,83030,6,0,L|48:348,1,180,2|8,0:0|0:0,0:0:0:0:
140,372,84593,2,0,P|200:380|256:356,1,120,2|8,0:0|0:0,0:0:0:0:
276,316,85530,1,0,0:0:0:0:
280,268,85843,6,0,P|268:204|224:160,1,120,6|8,0:0|0:0,0:0:0:0:
136,144,87093,2,0,P|97:99|87:40,1,120,2|8,0:0|0:0,0:0:0:0:
184,60,88343,1,2,0:0:0:0:
256,192,105843,12,0,107718,0:0:0:0:
256,72,108343,5,6,0:0:0:0:
348,48,108968,1,8,0:0:0:0:
396,56,109280,1,0,0:0:0:0:
436,84,109593,2,0,P|468:136|452:212,1,120,2|8,0:0|0:0,0:0:0:0:
440,236,110530,1,0,0:0:0:0:
396,256,110843,6,0,L|256:260,1,120,2|8,0:0|0:0,0:0:0:0:
180,264,112093,1,2,0:0:0:0:
88,240,112718,1,8,0:0:0:0:
52,208,113030,2,0,L|40:28,1,180,2|8,0:0|0:0,0:0:0:0:
136,44,114593,6,0,L|140:108,1,60,2|0,0:0|0:0,0:0:0:0:
148,152,115218,2,0,P|204:168|272:144,2,120,8|2|8,0:0|0:0|0:0,0:0:0:0:
56,120,117093,5,2,0:0:0:0:
56,168,117405,1,0,0:0:0:0:
56,216,117718,1,8,0:0:0:0:
100,300,118343,6,0,P|152:324|216:304,1,120,6|8,0:0|0:0,0:0:0:0:
284,244,119593,2,0,P|340:228|394:252,1,120,2|8,0:0|0:0,0:0:0:0:
428,284,120530,1,0,0:0:0:0:
448,328,120843,6,0,P|488:280|488:216,1,120,2|8,0:0|0:0,0:0:0:0:
460,132,122093,1,2,0:0:0:0:
368,164,122718,1,8,0:0:0:0:
324,184,123030,1,0,0:0:0:0:
276,184,123343,6,0,P|212:172|176:124,1,120,2|8,0:0|0:0,0:0:0:0:
148,96,124280,2,0,P|56:100|8:180,1,180,2|8,0:0|0:0,0:0:0:0:
16,264,125843,2,0,P|64:312|124:320,1,120,2|8,0:0|0:0,0:0:0:0:
108,224,127093,2,0,P|168:196|236:220,1,120,2|8,0:0|0:0,0:0:0:0:
256,236,128030,1,0,0:0:0:0:
292,268,128343,6,8,P|348:288|424:264,1,120,4|4,0:0|0:0,0:0:0:0:
412,180,129593,2,8,P|356:160|280:184,1,120,4|4,0:0|0:0,0:0:0:0:
256,192,130843,12,6,133343,0:0:0:0:
145,317,134593,6,0,P|115:319|88:308,2,60,2|0|8,0:0|0:0|0:0,0:0:0:0:
192,312,135530,2,0,P|264:268|368:296,1,180,2|8,0:0|0:0,0:0:0:0:
440,328,137093,1,2,0:0:0:0:
496,252,137718,1,8,0:0:0:0:
504,204,138030,1,0,0:0:0:0:
496,156,138343,6,0,P|480:92|428:56,1,120,2|8,0:0|0:0,0:0:0:0:
376,132,139593,2,0,L|368:200,2,60,2|0|8,0:0|0:0|0:0,0:0:0:0:
332,48,140843,2,0,L|208:40,1,120,2|8,0:0|0:0,0:0:0:0:
164,124,142093,2,0,L|36:136,1,120,2|8,0:0|0:0,0:0:0:0:
20,176,143030,1,0,0:0:0:0:
8,224,143343,6,0,P|0:288|32:348,1,120,6|8,0:0|0:0,0:0:0:0:
104,284,144593,2,0,P|100:252|124:212,2,60,2|0|8,0:0|0:0|0:0,0:0:0:0:
132,320,145530,2,0,P|208:348|296:304,1,180,2|8,0:0|0:0,0:0:0:0:
356,236,147093,1,2,0:0:0:0:
336,140,147718,1,8,0:0:0:0:
312,100,148030,6,0,P|232:136|136:92,1,180,2|8,0:0|0:0,0:0:0:0:
92,28,149593,1,2,0:0:0:0:
60,64,149905,1,0,0:0:0:0:
52,112,150218,1,8,0:0:0:0:
76,204,150843,6,0,P|128:244|196:236,1,120,8|8,0:0|0:0,0:0:0:0:
156,148,152093,2,0,P|214:149|260:187,1,120,8|8,0:0|0:0,0:0:0:0:
272,284,153343,5,6,0:0:0:0:
348,344,153968,2,0,P|420:336|456:280,1,120,8|2,0:0|0:0,0:0:0:0:
464,208,155218,1,8,0:0:0:0:
456,160,155530,6,0,P|420:84|316:64,1,180,2|8,0:0|0:0,0:0:0:0:
256,116,157093,1,2,0:0:0:0:
180,60,157718,1,8,0:0:0:0:
132,68,158030,6,0,P|68:116|76:208,1,180,2|8,0:0|0:0,0:0:0:0:
148,272,159593,2,0,P|208:288|264:260,2,120,2|8|2,0:0|0:0|0:0,0:0:0:0:
76,208,161468,1,8,0:0:0:0:
76,112,162093,1,2,0:0:0:0:
136,36,162718,1,8,0:0:0:0:
232,24,163343,6,0,P|296:32|340:84,1,120,6|8,0:0|0:0,0:0:0:0:
380,152,164593,1,2,0:0:0:0:
388,200,164905,2,0,P|392:232|380:272,1,60,0|8,0:0|0:0,0:0:0:0:
368,304,165530,2,0,P|292:356|192:328,1,180,2|8,0:0|0:0,0:0:0:0:
160,260,167093,1,2,0:0:0:0:
176,164,167718,1,8,0:0:0:0:
216,140,168030,6,0,L|404:148,1,180,2|8,0:0|0:0,0:0:0:0:
436,60,169593,2,0,L|304:54,1,120,2|8,0:0|0:0,0:0:0:0:
220,52,170843,6,0,L|92:48,1,120,2|8,0:0|0:0,0:0:0:0:
56,68,171780,1,8,0:0:0:0:
36,112,172093,2,0,L|40:236,1,120,2|8,0:0|0:0,0:0:0:0:
132,264,173343,6,0,L|128:140,1,120,6|8,0:0|0:0,0:0:0:0:
188,68,174593,1,2,0:0:0:0:
232,48,174905,1,0,0:0:0:0:
280,52,175218,2,0,P|340:64|376:116,1,120,8|2,0:0|0:0,0:0:0:0:
400,200,176468,1,8,0:0:0:0:
376,292,177093,1,2,0:0:0:0:
296,344,177718,1,8,0:0:0:0:
248,356,178030,1,0,0:0:0:0:
200,344,178343,6,0,P|152:304|140:232,1,120,2|8,0:0|0:0,0:0:0:0:
104,216,179280,2,0,P|192:220|260:144,1,180,2|8,0:0|0:0,0:0:0:0:
308,80,180843,6,0,P|368:56|432:84,1,120,2|8,0:0|0:0,0:0:0:0:
452,108,181780,2,0,L|456:300,1,180,2|8,0:0|0:0,0:0:0:0:
392,360,183343,2,0,P|332:376|268:348,1,120,6|8,0:0|0:0,0:0:0:0:
212,288,184593,1,2,0:0:0:0:
168,272,184905,2,0,L|92:276,1,60,0|8,0:0|0:0,0:0:0:0:
60,280,185530,6,0,P|16:204|56:108,1,180,2|8,0:0|0:0,0:0:0:0:
112,56,187093,2,0,L|240:60,1,120,2|8,0:0|0:0,0:0:0:0:
280,64,188030,1,0,0:0:0:0:
328,64,188343,6,0,L|408:68,2,60,2|0|8,0:0|0:0|0:0,0:0:0:0:
276,144,189593,2,0,L|300:208,2,60,2|0|8,0:0|0:0|0:0,0:0:0:0:
216,68,190843,6,0,P|156:56|96:88,1,120,2|8,0:0|0:0,0:0:0:0:
64,168,192093,2,0,P|60:232|100:288,1,120,2|8,0:0|0:0,0:0:0:0:
168,332,193343,5,8,0:0:0:0:
264,328,193968,1,8,0:0:0:0:
324,252,194593,1,8,0:0:0:0:
296,160,195218,1,8,0:0:0:0:
256,192,195843,12,6,198343,0:0:0:0:
200,64,199593,6,0,P|256:48|323:69,1,120,2|8,0:0|0:0,0:0:0:0:
352,92,200530,2,0,P|392:136|392:216,1,120,2|0,0:0|0:0,0:0:0:0:
392,240,201468,2,0,P|336:312|232:316,1,180,8|0,0:0|0:0,0:0:0:0:
204,320,202718,1,8,0:0:0:0:
164,292,203030,6,0,L|156:112,1,180,2|8,0:0|0:0,0:0:0:0:
148,16,204593,1,2,0:0:0:0:
52,32,205218,1,8,0:0:0:0:
36,76,205530,6,0,L|44:260,1,180,2|8,0:0|0:0,0:0:0:0:
92,340,207093,1,2,0:0:0:0:
188,356,207718,1,8,0:0:0:0:
236,348,208030,1,0,0:0:0:0:
276,324,208343,6,0,P|304:276|296:208,1,120,6|6,0:0|0:0,0:0:0:0:
224,156,209593,2,0,P|196:104|224:32,1,120,2|8,0:0|0:0,0:0:0:0:
248,16,210530,2,0,L|432:24,1,180,2|8,0:0|0:0,0:0:0:0:
444,120,212093,2,0,L|319:115,1,120,2|8,0:0|0:0,0:0:0:0:
276,116,213030,1,0,0:0:0:0:
228,116,213343,5,2,0:0:0:0:
156,180,213968,2,0,P|144:236|172:296,1,120,8|2,0:0|0:0,0:0:0:0:
252,340,215218,1,8,0:0:0:0:
324,276,215843,2,0,P|336:220|308:160,1,120,2|8,0:0|0:0,0:0:0:0:
276,132,216780,1,4,0:0:0:0:
228,120,217093,2,0,P|156:120|116:160,1,120,2|8,0:0|0:0,0:0:0:0:
104,244,218343,5,6,0:0:0:0:
152,328,218968,1,8,0:0:0:0:
240,360,219593,2,0,P|300:364|348:332,1,120,2|8,0:0|0:0,0:0:0:0:
380,296,220530,2,0,P|416:204|376:124,1,180,2|8,0:0|0:0,0:0:0:0:
304,80,222093,2,0,L|308:16,2,60,2|0|8,0:0|0:0|0:0,0:0:0:0:
284,124,223030,6,0,P|200:152|120:100,1,180,2|8,0:0|0:0,0:0:0:0:
56,44,224593,1,2,0:0:0:0:
4,124,225218,1,8,0:0:0:0:
12,172,225530,6,0,P|76:248|156:280,1,180,2|8,0:0|0:0,0:0:0:0:
244,264,227093,2,0,P|312:256|360:284,1,120,2|8,0:0|0:0,0:0:0:0:
432,336,228343,5,6,0:0:0:0:
492,260,228968,2,0,L|480:132,2,120,6|2|8,0:0|0:0|0:0,0:0:0:0:
476,304,230530,2,0,P|392:340|304:308,1,180,2|8,0:0|0:0,0:0:0:0:
236,252,232093,1,2,0:0:0:0:
224,156,232718,1,8,0:0:0:0:
196,116,233030,6,0,P|112:96|36:156,1,180,2|8,0:0|0:0,0:0:0:0:
28,244,234593,5,2,0:0:0:0:
52,284,234905,2,0,L|116:292,1,60,0|8,0:0|0:0,0:0:0:0:
156,272,235530,2,0,L|352:264,1,180,2|8,0:0|0:0,0:0:0:0:
384,260,236780,1,8,0:0:0:0:
428,244,237093,2,0,P|448:196|432:132,1,120,8|8,0:0|0:0,0:0:0:0:
364,64,238343,6,0,L|236:72,1,120,6|8,0:0|0:0,0:0:0:0:
288,156,239593,2,0,L|164:164,1,120,2|8,0:0|0:0,0:0:0:0:
128,192,240530,2,0,P|92:260|132:356,1,180,2|8,0:0|0:0,0:0:0:0:
216,320,242093,2,0,L|348:328,1,120,2|8,0:0|0:0,0:0:0:0:
372,360,243030,6,0,P|348:308|392:200,1,180,2|8,0:0|0:0,0:0:0:0:
488,188,244593,1,2,0:0:0:0:
504,92,245218,1,8,0:0:0:0:
416,48,245843,1,2,0:0:0:0:
344,112,246468,1,8,0:0:0:0:
391,200,247093,2,0,P|328:212|276:184,1,120,2|8,0:0|0:0,0:0:0:0:
220,112,248343,5,6,0:0:0:0:
132,68,248968,1,6,0:0:0:0:
60,132,249593,6,0,L|48:196,1,60,2|0,0:0|0:0,0:0:0:0:
44,240,250218,1,8,0:0:0:0:
40,288,250530,2,0,P|96:272|168:300,1,120,2|2,0:0|0:0,0:0:0:0:
184,328,251468,2,0,P|240:352|304:340,1,120,8|2,0:0|0:0,0:0:0:0:
368,280,252718,1,8,0:0:0:0:
400,192,253343,6,0,P|404:136|376:76,1,120,2|8,0:0|0:0,0:0:0:0:
344,48,254280,2,0,P|264:16|164:60,1,180,2|8,0:0|0:0,0:0:0:0:
256,192,255843,12,6,258343,0:0:0:0:
196,272,259593,6,0,P|256:284|316:268,2,120,2|8|2,0:0|0:0|0:0,0:0:0:0:
156,248,261155,1,0,0:0:0:0:
136,204,261468,2,0,L|144:80,1,120,8|2,0:0|0:0,0:0:0:0:
228,36,262718,1,8,0:0:0:0:
316,72,263343,6,0,P|368:52|436:76,2,120,2|8|2,0:0|0:0|0:0,0:0:0:0:
256,148,265218,1,8,0:0:0:0:
195,71,265843,2,0,P|140:51|84:69,2,120,2|8|2,0:0|0:0|0:0,0:0:0:0:
232,104,267405,1,0,0:0:0:0:
256,148,267718,2,0,L|256:216,1,60,8|0,0:0|0:0,0:0:0:0:
256,256,268343,5,6,0:0:0:0:
184,320,268968,1,12,0:0:0:0:
100,276,269593,6,0,P|64:228|68:156,2,120,2|8|2,0:0|0:0|0:0,0:0:0:0:
136,308,271155,1,2,0:0:0:0:
184,320,271468,2,0,L|368:312,1,180,8|0,0:0|0:0,0:0:0:0:
412,308,272718,2,0,P|408:268|416:236,1,60,8|0,0:0|0:0,0:0:0:0:
436,208,273343,6,0,P|444:140|424:88,1,120,2|8,0:0|0:0,0:0:0:0:
336,56,274593,2,0,L|260:52,2,60,2|0|8,0:0|0:0|0:0,0:0:0:0:
256,192,275843,12,6,278343,0:0:0:0:
