osu file format v8

[General]
AudioFilename: choco.mp3
AudioLeadIn: 1996
PreviewTime: 62677
Countdown: 0
SampleSet: Soft
StackLeniency: 0.7
Mode: 0
LetterboxInBreaks: 1

[Editor]
DistanceSpacing: 0.7
BeatDivisor: 4
GridSize: 8

[Metadata]
Title:INITIATIVE
Artist:Kawada Mami
Creator:MeLLoN
Version:Love
Source:Koi to Senkyo to Chocolate
Tags:sprite

[Difficulty]
HPDrainRate:4
CircleSize:3
OverallDifficulty:2
ApproachRate:2
SliderMultiplier:1.2
SliderTickRate:2

[Events]
//Background and Video events
0,0,"chokobg.jpg"
Video,0,"choco2.avi"
//Break Periods
//Storyboard Layer 0 (Background)
//Storyboard Layer 1 (Fail)
//Storyboard Layer 2 (Pass)
//Storyboard Layer 3 (Foreground)
//Storyboard Sound Samples
//Background Colour Transformations
3,100,128,191,255

[TimingPoints]
412,447.761194029851,4,2,1,50,1,0
14628,-100,4,2,1,50,0,0
28956,-100,4,2,1,0,0,0
31531,-100,4,2,1,70,0,0
54926,-100,4,2,1,55,0,0
55822,-100,4,2,1,60,0,0
56717,-100,4,2,1,65,0,0
57613,-100,4,2,1,70,0,0
61195,-100,4,1,1,0,0,0
63098,-100,4,2,1,90,0,1
77314,-100,4,2,1,0,0,1
79217,-100,4,2,1,90,0,1
89852,-100,4,2,1,0,0,1
93546,-100,4,2,1,90,0,1
107762,-100,4,2,1,0,0,0

[Colours]
Combo1 : 194,134,255
Combo2 : 255,147,201
Combo3 : 255,180,104
Combo4 : 70,163,255

[HitObjects]
80,208,412,2,0,B|40:128|80:32,2,180,2|2|2
152,168,2203,2,0,B|192:248|152:344,2,180,2|2|2
232,160,3994,1,2
296,112,4441,1,0
376,112,4889,1,2
456,264,5785,1,2
384,304,6232,1,0
312,264,6680,1,2
256,104,7576,6,0,B|376:104,2,120,2|0|2
176,104,8919,1,0
176,184,9367,2,0,B|56:184,2,120,2|0|2
264,184,10710,1,0
264,96,11158,6,0,B|384:96|488:184,1,240,2|2
360,288,12949,2,0,B|288:344|128:336,1,240,2|2
56,304,14292,1,4
56,224,14740,6,0,B|48:136|88:48,2,180,2|0|0
136,224,16531,2,0,B|240:224|304:296,2,180,2|0|0
136,144,18322,1,2
192,88,18770,1,0
264,56,19217,1,2
360,192,20113,6,0,B|480:192,2,120,2|0|2
360,272,21456,1,0
280,272,21904,2,0,B|160:320|40:272,1,240,2|2
48,104,23695,2,0,B|160:56|288:104,1,240,2|2
440,56,25486,5,2
440,136,25934,1,0
440,216,26382,1,2
440,296,26829,1,0
360,296,27277,2,0,B|176:296,2,180,2|0|0
256,192,29068,12,4,31531
104,72,32650,5,2
104,152,33098,1,0
104,232,33546,2,0,B|104:296|160:336,2,120,2|0|2
272,232,35337,1,2
352,232,35785,1,0
432,232,36232,6,0,B|432:352,2,120,2|0|2
432,152,37576,2,0,B|432:32,2,120,0|2|0
352,152,38919,1,2
232,40,39814,6,0,B|104:40|32:152,1,240,4|2
40,232,41158,1,0
88,296,41606,1,2
200,176,42501,5,2
280,200,42949,1,0
344,152,43397,2,0,B|384:104|448:88,2,120,2|0|2
400,208,44740,1,0
400,288,45188,1,2
272,288,45859,6,0,B|208:288,5,60,0|2|0|0|0|2
152,232,47426,5,0
112,232,47650,1,2
24,232,48098,1,0
24,104,48770,1,2
64,104,48994,1,0
152,104,49441,1,0
240,104,49889,1,0
280,104,50113,1,0
360,104,50561,6,0,B|424:104,2,60
360,184,51456,1,0
440,184,51904,1,0
432,264,52352,1,0
432,264,52576,1,0
376,320,53023,1,0
296,232,53695,2,0,B|224:216|176:232,1,120
144,304,54591,6,0,B|80:304|32:256,2,120,0|4|0
144,224,55934,1,4
144,144,56382,1,0
224,144,56829,2,0,B|288:144|336:104,1,120,4|0
408,72,57725,2,0,B|464:152|456:256,1,180,4|0
408,304,58844,5,0
328,328,59292,1,0
328,328,59516,2,0,B|288:344|232:344,2,90,2|2|2
264,224,60859,1,0
256,192,61307,12,4,63098
96,312,63546,5,0
64,240,63994,1,2
104,168,64441,2,0,B|104:104|152:56,2,120,0|2|0
176,208,65785,1,2
304,104,66680,5,4
368,152,67128,1,0
448,152,67576,1,4
448,232,68023,1,0
448,312,68471,2,0,B|408:344|352:352,2,90,4|2|2
280,192,70262,5,2
184,56,71158,1,2
104,200,72053,2,0,B|72:256|24:288,2,120,2|0|2
176,240,73397,1,0
224,304,73844,2,0,B|272:256|352:352|456:312,1,240,2|2
392,160,75635,5,2
352,88,76083,1,0
272,80,76531,1,2
208,128,76979,1,0
256,192,77426,12,2,79217
120,168,79665,5,0
168,232,80113,1,2
168,312,80561,2,0,B|112:336|48:336,2,120,0|2|0
240,272,81904,2,0,B|304:288|344:336,2,120,2|0|2
288,208,83247,6,0,B|352:208|408:192,1,120,0|2
456,128,84143,1,0
456,128,84367,1,0
456,128,84591,2,0,B|408:56|272:120|232:40,1,240,2|0
160,72,85934,1,0
80,168,86606,6,0,B|32:216,2,60
192,216,87501,1,0
192,216,87725,1,0
264,256,88173,6,0,B|320:224|384:224,1,120,2|0
448,184,89068,2,0,B|424:120|376:80,1,120,2|0
256,192,89964,12,2,93546
288,120,94441,6,0,B|320:64|384:56,2,120,2|0|2
128,80,96232,2,0,B|88:128|32:160,2,120,0|0|2
168,240,98023,5,2
216,304,98471,1,0
296,304,98919,1,2
432,208,99814,1,2
384,144,100262,1,0
376,64,100710,1,2
216,104,101606,6,0,B|152:96|104:64,1,120,2|0
64,136,102501,2,0,B|88:192|80:256,1,120,2|0
160,264,103397,2,0,B|192:208|248:184,1,120,2|0
320,152,104292,5,2
392,192,104740,1,0
432,264,105188,1,2
424,344,105635,1,0
344,336,106083,2,0,B|336:296|304:256,2,90,2|2|2
224,312,107426,2,0,B|184:328|144:320,1,60,2|0
256,192,107874,12,0,111456
