osu file format v8

[General]
AudioFilename: choco.mp3
AudioLeadIn: 1996
PreviewTime: 62677
Countdown: 0
SampleSet: Soft
StackLeniency: 0.7
Mode: 0
LetterboxInBreaks: 1

[Editor]
DistanceSpacing: 1.3
BeatDivisor: 4
GridSize: 8

[Metadata]
Title:INITIATIVE
Artist:Kawada Mami
Creator:MeLLoN
Version:Election
Source:Koi to Senkyo to Chocolate
Tags:sprite

[Difficulty]
HPDrainRate:5
CircleSize:3
OverallDifficulty:4
ApproachRate:4
SliderMultiplier:1.3
SliderTickRate:2

[Events]
//Background and Video events
0,0,"chokobg.jpg"
Video,0,"choco2.avi"
//Break Periods
//Storyboard Layer 0 (Background)
//Storyboard Layer 1 (Fail)
//Storyboard Layer 2 (Pass)
//Storyboard Layer 3 (Foreground)
//Storyboard Sound Samples
//Background Colour Transformations
3,100,128,191,255

[TimingPoints]
412,447.761194029851,4,2,1,50,1,0
14852,-100,4,2,1,70,0,0
30747,-100,4,2,1,50,0,0
31867,-100,4,2,1,40,0,0
32538,-100,4,2,1,70,0,0
47314,-100,4,2,1,50,0,0
47986,-100,4,2,1,70,0,0
48658,-100,4,2,1,50,0,0
49106,-100,4,2,1,70,0,0
50449,-100,4,2,1,50,0,0
50897,-100,4,2,1,70,0,0
52352,-100,4,2,1,50,0,0
52688,-100,4,2,1,70,0,0
54031,-100,4,2,1,50,0,0
54926,-100,4,2,1,55,0,0
55822,-100,4,2,1,60,0,0
56717,-100,4,2,1,65,0,0
57613,-100,4,2,1,70,0,0
61195,-100,4,1,1,0,0,0
63098,-100,4,2,1,90,0,1
77314,-100,4,2,1,0,0,1
79217,-100,4,2,1,90,0,1
105971,-100,4,2,1,70,0,1
107762,-100,4,2,1,0,0,0

[Colours]
Combo1 : 194,134,255
Combo2 : 255,147,201
Combo3 : 255,180,104
Combo4 : 70,163,255

[HitObjects]
64,288,412,6,0,B|112:336|184:328,1,130,2|0
256,296,1083,1,0
160,160,1531,2,0,B|128:136|128:104,2,65
208,96,2203,2,0,B|248:64|320:160|400:120,1,195,2|0
264,336,3546,5,0
104,296,3994,2,0,B|48:216|32:112,1,195,2|0
184,48,5113,1,0
184,48,5337,1,0
144,208,5785,2,0,B|216:200|216:104|304:96,1,195,2|0
344,256,6904,1,0
344,256,7128,1,2
472,152,7576,6,0,B|448:88|392:48,1,130,2|0
232,80,8471,2,0,B|256:144|312:184,1,130,2|0
216,320,9367,6,0,B|184:272|96:344|32:280,1,195,2|0
96,128,10486,1,0
96,128,10710,1,0
240,48,11158,2,0,B|336:64|432:104,1,195,2|0
392,264,12277,2,0,B|432:272|456:296,2,65,0|2|0
352,336,12949,6,0,B|320:344|288:336,1,65,2|0
272,256,13397,2,0,B|232:256|208:272,1,65
160,336,13844,2,0,B|128:336|96:320,1,65,2|0
88,240,14292,2,0,B|56:248|32:272,2,65,0|0|4
152,88,15188,5,0
312,48,15635,2,0,B|368:48|344:168|440:192,1,195,2|0
456,112,16531,1,2
208,336,17426,2,0,B|272:352|336:336,1,130,2|0
408,296,18098,1,0
336,256,18322,1,2
72,48,19217,6,0,B|136:40|200:56,2,130,2|0|2
88,128,20337,1,0
48,288,20785,1,0
104,344,21009,2,0,B|168:352|232:328,1,130,2|0
312,184,21904,6,0,B|288:120|432:96|432:48,1,195,2|0
264,80,23023,1,0
264,80,23247,1,0
136,192,23695,6,0,B|88:144|96:72,2,130,2|0|2
200,344,25038,1,0
360,304,25486,1,2
384,224,25710,1,0
456,184,25934,1,0
296,144,26382,2,0,B|304:80|368:40,1,130,2|0
208,88,27277,5,2
128,80,27501,1,0
64,128,27725,1,0
168,256,28173,2,0,B|112:296|48:304,2,130,2|0|2
312,344,29516,5,0
472,304,29964,1,2
424,144,30412,1,0
264,184,30859,2,0,B|216:168|160:176,2,97.5,8|8|8
184,40,31979,6,0,B|216:56|248:56,2,65,2|2|2
104,48,32650,2,0,B|88:112|40:160,1,130,2|0
80,320,33546,2,0,B|104:256|160:216,1,130,2|0
272,96,34441,2,0,B|288:192|376:264,2,195,2|0|0
176,232,36232,5,2
40,136,36680,2,0,B|96:104|128:40,2,130,0|2|0
88,200,37800,1,0
48,272,38023,2,0,B|128:336|232:344,1,195,2|0
280,280,38919,2,0,B|304:256|336:248,1,65,2|0
416,240,39367,5,0
416,240,39591,1,0
416,240,39814,2,0,B|456:184|464:120,1,130,4|0
320,40,40710,1,2
320,40,40934,1,0
160,80,41382,2,0,B|184:112|216:120,2,65,0|2|0
40,192,42277,5,0
120,184,42501,1,2
136,264,42725,1,0
216,256,42949,1,0
288,296,43173,2,0,B|336:344|408:352,1,130
480,328,43844,1,0
352,224,44292,1,2
464,104,44740,1,0
312,40,45188,6,0,B|216:72|120:64,1,195,2|0
40,48,46083,2,0,B|32:80|56:120,3,65,2|0|0|0
192,320,47426,5,4
192,320,47650,1,4
128,168,48098,2,0,B|160:152|192:144,1,65
272,136,48546,1,0
352,152,48770,5,4
352,152,48994,1,4
456,280,49441,2,0,B|392:296|328:280,1,130
256,240,50113,1,0
104,304,50561,5,4
104,304,50785,1,4
40,152,51232,2,0,B|72:96|136:64,1,130
216,48,51904,1,0
376,88,52352,5,4
376,88,52576,2,0,B|336:144|272:160,1,130,4|0
392,280,53471,2,0,B|408:240|432:216,2,65
328,328,54143,6,0,B|288:272|176:352|144:312,1,195,4|0
184,240,55038,2,0,B|144:224|104:232|72:272,2,97.5,4|2|2
248,192,55934,1,4
360,240,56270,1,0
480,216,56606,1,0
440,144,56829,6,0,B|472:104|456:48,2,97.5,4|2|2
376,88,57725,2,0,B|336:56|264:136|184:80,1,195,4|0
40,160,58844,5,0
56,240,59068,1,0
104,304,59292,1,0
176,344,59516,2,0,B|224:352|272:352,2,97.5,4|4|4
240,192,60635,1,0
240,192,60859,1,0
256,192,61307,12,4,63098
104,304,63546,5,0
264,264,63994,2,0,B|312:272|352:304,2,97.5,2|2|2
192,224,64889,2,0,B|136:232|104:184,2,97.5,2|2|2
176,144,65785,2,0,B|232:104|256:40,1,130,2|0
392,136,66680,6,0,B|400:80|440:48,2,97.5,4|0|0
408,216,67576,1,4
368,288,67800,1,0
296,328,68023,1,4
216,336,68247,1,0
144,296,68471,2,0,B|96:280|48:288,2,97.5,4|2|2
216,56,69814,5,0
216,56,70038,1,0
280,104,70262,2,0,B|328:80|384:80,2,97.5,4|0|0
216,152,71158,2,0,B|152:128|80:136,1,130,4|0
40,200,71829,1,0
80,272,72053,2,0,B|128:240|152:336|216:312,1,130,4|0
272,296,72725,5,0
440,336,73173,1,0
464,256,73397,1,0
416,184,73620,1,0
384,256,73844,2,0,B|352:248|336:176|304:120|256:120,1,195,4|0
96,72,74964,5,0
168,112,75188,1,0
128,184,75412,1,0
168,256,75635,2,0,B|128:312|56:328,2,130,2|0|2
248,272,76755,1,0
320,232,76979,1,0
256,192,77426,12,2,79217
184,128,79665,5,0
336,64,80113,1,2
472,160,80561,2,0,B|464:224|408:272,1,130,0|2
360,208,81232,5,0
280,216,81456,1,0
176,344,81904,2,0,B|136:344|112:328,1,65,2|0
152,256,82352,2,0,B|120:240|72:256,1,65
64,88,83023,6,0,B|120:120|192:112,1,130
256,64,83695,1,2
256,64,83919,1,0
328,104,84143,2,0,B|360:80|400:88,1,65
376,168,84591,2,0,B|384:224|408:264,2,97.5,4|2|2
296,176,85486,2,0,B|288:288|216:352,1,195,4|0
112,224,86606,5,0
64,160,86829,1,2
72,80,87053,1,0
224,144,87501,2,0,B|224:72|280:32,1,130
352,72,88173,6,0,B|408:88|448:80,2,97.5,4|2|2
336,152,89068,1,4
424,240,89404,1,0
360,344,89740,1,0
288,304,89964,2,0,B|224:336|160:336,1,130,4|0
80,328,90635,1,0
120,168,91083,5,0
128,88,91307,1,0
200,48,91531,1,0
280,56,91755,2,0,B|344:80|408:72,1,130,2|0
472,120,92426,1,0
368,248,92874,6,0,B|408:264|440:264,2,65
328,176,93546,2,0,B|264:160|200:168,1,130,2|0
144,232,94217,2,0,B|80:216|40:160,1,130
80,88,94889,1,0
80,88,95113,1,0
152,48,95337,5,2
400,80,96009,1,0
248,280,96680,1,0
408,240,97128,6,0,B|416:304|472:352,2,130,2|0|2
280,136,98471,1,0
240,64,98695,1,0
160,56,98919,2,0,B|104:88|40:104,2,130,2|0|2
200,216,100262,5,0
160,288,100486,1,0
216,344,100710,2,0,B|288:336|352:336,1,130,2|0
464,216,101606,1,2
456,136,101829,1,0
384,96,102053,1,0
224,56,102501,5,2
240,136,102725,1,0
200,208,102949,1,0
40,168,103397,2,0,B|80:160|112:144,2,65,2|0|0
104,320,104292,6,0,B|168:344|240:344,1,130,4|0
384,280,105188,2,0,B|320:264|272:216,1,130,2|0
424,144,106083,2,0,B|464:176|480:224,2,97.5,8|8|8
392,64,106979,1,2
312,96,107203,1,0
240,56,107426,1,2
184,112,107650,1,0
256,192,107874,12,0,111456
