osu file format v8

[General]
AudioFilename: choco.mp3
AudioLeadIn: 1996
PreviewTime: 62677
Countdown: 0
SampleSet: Soft
StackLeniency: 0.7
Mode: 0
LetterboxInBreaks: 1

[Editor]
DistanceSpacing: 1
BeatDivisor: 4
GridSize: 8

[Metadata]
Title:INITIATIVE
Artist:Kawada Mami
Creator:MeLLoN
Version:Chocolate
Source:Koi to Senkyo to Chocolate
Tags:sprite

[Difficulty]
HPDrainRate:7
CircleSize:4
OverallDifficulty:8
ApproachRate:8
SliderMultiplier:2
SliderTickRate:1

[Events]
//Background and Video events
0,0,"chokobg.jpg"
Video,0,"choco2.avi"
//Break Periods
//Storyboard Layer 0 (Background)
//Storyboard Layer 1 (Fail)
//Storyboard Layer 2 (Pass)
//Storyboard Layer 3 (Foreground)
//Storyboard Sound Samples
//Background Colour Transformations
3,100,128,191,255

[TimingPoints]
412,447.761194029851,4,2,1,50,1,0
1643,-100,4,2,1,20,0,0
2091,-100,4,2,1,0,0,0
2203,-100,4,2,1,50,0,0
2426,-100,4,2,1,0,0,0
2538,-100,4,2,1,50,0,0
3434,-100,4,2,1,20,0,0
3994,-100,4,2,1,50,0,0
4441,-100,4,2,1,0,0,0
4665,-100,4,2,1,50,0,0
4889,-100,4,2,1,0,0,0
5001,-100,4,2,1,20,0,0
5673,-100,4,2,1,50,0,0
6009,-100,4,2,1,20,0,0
6344,-100,4,2,1,50,0,0
6904,-100,4,2,1,20,0,0
7688,-100,4,2,1,35,0,0
12837,-100,4,2,1,50,0,0
13061,-100,4,2,1,70,0,0
13732,-100,4,2,1,35,0,0
14180,-100,4,1,1,20,0,0
14852,-100,4,2,1,70,0,0
31867,-100,4,2,1,40,0,0
32538,-100,4,2,1,70,0,0
45300,-100,4,1,1,20,0,0
45747,-100,4,2,1,70,0,0
46979,-100,4,2,1,50,0,0
47314,-100,4,2,1,70,0,0
48658,-100,4,2,1,50,0,0
49106,-100,4,2,1,70,0,0
50449,-100,4,2,1,50,0,0
50897,-100,4,2,1,70,0,0
52352,-100,4,2,1,50,0,0
52688,-100,4,2,1,70,0,0
54031,-100,4,2,1,50,0,0
54926,-100,4,2,1,55,0,0
55822,-100,4,2,1,60,0,0
56717,-100,4,2,1,65,0,0
57613,-100,4,2,1,70,0,0
61195,-100,4,1,1,20,0,0
61755,-100,4,1,1,30,0,0
62203,-100,4,1,1,40,0,0
62650,-100,4,2,1,80,0,0
62986,-100,4,2,1,90,0,0
63098,-100,4,2,1,90,0,1
76307,-100,4,2,1,50,0,1
76531,-100,4,2,1,45,0,1
76755,-100,4,2,1,40,0,1
76979,-100,4,2,1,35,0,1
77203,-100,4,2,1,30,0,1
77314,-100,4,2,1,80,0,1
107762,-100,4,2,1,0,0,0

[Colours]
Combo1 : 194,134,255
Combo2 : 255,147,201
Combo3 : 255,180,104
Combo4 : 70,163,255

[HitObjects]
128,344,412,5,2
32,160,1083,1,2
296,296,1755,2,0,B|352:264|416:296|464:264,1,150
416,232,2203,2,0,B|368:224|320:208,1,100,2|0
216,40,2874,1,2
120,320,3546,5,2
128,320,3658,1,2
136,320,3770,1,2
144,320,3882,1,0
152,320,3994,2,0,B|200:352|296:296|352:312,1,200,2|2
432,360,4665,2,0,B|456:312|424:248,1,100,2|0
384,176,5113,1,2
304,232,5337,5,2
296,232,5449,1,2
288,232,5561,1,2
200,192,5785,2,0,B|152:200|96:200,2,100,2|0|0
144,112,6456,2,0,B|192:80|288:128|344:96,1,200,2|0
416,40,7128,5,2
416,40,7240,1,2
416,40,7352,1,2
416,40,7464,1,2
416,40,7576,1,0
480,112,7800,1,0
440,200,8023,2,0,B|448:248|472:296,2,100,2|0|0
352,152,8695,1,0
280,216,8919,6,0,B|176:216,1,100,2|0
256,344,9367,2,0,B|360:344,1,100,0|0
168,288,9814,5,2
168,288,9926,1,0
168,288,10038,1,0
80,328,10262,1,0
80,328,10374,2,0,B|56:280|56:224,1,100
56,231,10710,1,2
56,231,10822,1,0
56,231,10934,1,0
128,168,11158,5,0
168,80,11382,2,0,B|184:136|224:160,1,100,0|2
304,216,11829,1,0
320,120,12053,1,0
320,120,12165,1,0
408,80,12389,1,0
408,80,12501,1,2
480,144,12725,1,0
440,232,12949,5,0
440,232,13061,2,0,B|464:256,6,25,0|0|0|0|0|0|0
296,208,13620,1,0
224,272,13844,1,8
224,272,13956,1,8
224,272,14068,1,8
136,232,14292,2,0,B|120:256,7,25
112,232,14740,6,0,B|64:192|128:104|64:40,1,200,4|8
168,64,15412,2,0,B|272:64,1,100,0|2
336,136,15859,1,0
416,80,16083,2,0,B|464:168|408:280,1,200,8|2
336,336,16755,5,0
312,336,16867,1,0
288,336,16979,1,8
232,200,17203,1,0
256,200,17314,1,0
280,200,17426,1,2
360,256,17650,1,0
448,216,17874,1,8
464,200,17986,1,0
472,176,18098,1,0
464,152,18210,1,0
448,136,18322,6,0,B|392:136|360:96,1,100,2|0
240,32,18770,1,8
104,96,18994,1,0
184,152,19217,1,2
208,160,19329,1,0
232,168,19441,1,0
328,280,19665,1,8
352,272,19777,1,0
376,264,19889,1,0
456,208,20113,6,0,B|480:256|472:312,2,100,2|0|8
464,112,20785,1,0
376,152,21009,1,2
360,136,21120,1,0
336,128,21232,1,0
320,112,21344,1,0
296,104,21456,1,8
280,88,21568,1,0
256,80,21680,1,0
240,64,21792,1,0
216,56,21904,6,0,B|168:40|96:48,1,100,2|0
32,224,22352,2,0,B|80:240|136:232,1,100,8|0
130,232,22688,1,0
130,232,22800,1,2
208,288,23023,1,0
208,288,23135,1,0
208,288,23247,1,8
120,328,23471,1,0
304,328,23695,6,0,B|288:264|432:280|448:208,1,200,2|8
360,168,24367,1,0
360,144,24479,1,0
360,120,24591,1,2
488,48,24814,1,0
488,72,24926,1,0
488,96,25038,1,8
432,232,25262,1,0
360,352,25486,5,2
336,208,25822,1,0
336,208,25934,1,8
240,224,26158,1,0
216,320,26382,2,0,B|176:288|72:352|32:280,1,200,2|8
104,216,27053,1,0
104,216,27165,1,0
104,216,27277,6,0,B|160:208|208:208,1,100,2|0
296,32,27725,2,0,B|248:40|192:40,1,100,8|0
376,120,28173,2,0,B|424:128|480:128,1,100,2|0
376,296,28620,2,0,B|328:296|272:304,1,100,8|0
192,352,29068,6,0,B|136:352|88:336,1,100,2|0
93,337,29404,1,0
93,337,29516,1,8
144,256,29740,1,0
144,256,29852,1,0
144,256,29964,2,0,B|176:216|176:160,1,100,2|0
80,176,30412,1,8
72,152,30523,1,0
72,128,30635,1,0
80,104,30747,1,0
96,88,30859,5,8
312,40,31195,1,8
264,256,31531,1,8
440,344,31979,5,2
360,288,32203,1,2
448,248,32426,1,2
408,160,32650,6,0,B|424:112|456:72,1,100,2|0
455,72,32986,1,0
455,72,33098,1,8
312,40,33322,1,0
288,184,33546,2,0,B|280:232|288:288,1,100,2|0
287,283,33882,1,0
287,283,33994,1,8
208,344,34217,5,0
120,304,34441,2,0,B|96:232|32:184,2,150,2|2|2
176,224,35337,1,2
112,152,35561,1,0
200,112,35785,1,8
208,88,35897,1,0
224,72,36009,1,0
248,64,36120,1,0
272,64,36232,6,0,B|320:72|376:56,1,100,2|0
371,57,36568,1,0
371,57,36680,1,8
296,184,36904,1,0
296,184,37016,1,0
296,184,37128,2,0,B|264:224|208:232,1,100,2|0
210,231,37464,1,0
210,231,37576,2,0,B|160:216|104:224,1,100,8|0
48,152,38023,6,0,B|8:224|48:296,2,150,2|2|2
104,72,38919,2,0,B|144:40|200:32,1,100,2|0
344,160,39367,1,2
344,160,39479,1,0
344,160,39591,1,2
344,160,39703,1,0
344,160,39814,6,0,B|328:208|208:176|168:248,1,200,4|8
200,336,40486,1,0
200,336,40598,1,0
200,336,40710,2,0,B|304:336,1,100,2|0
416,248,41158,2,0,B|312:248,1,100,8|0
256,112,41606,1,2
256,112,41829,1,0
72,40,42277,5,0
112,128,42501,1,2
56,208,42725,1,0
120,280,42949,2,0,B|104:328|56:352,2,100,8|0|2
208,240,43620,1,0
264,160,43844,1,8
360,160,44068,1,0
360,160,44180,1,0
360,160,44292,1,2
448,120,44516,1,0
392,40,44740,5,8
392,40,44852,1,0
304,80,45076,1,0
304,80,45188,1,2
304,80,45300,2,0,B|280:72,6,25,0|0|0|0|0|0|8
176,152,45859,6,0,B|128:136|96:96,1,100,0|2
48,184,46307,2,0,B|80:224|96:272,1,100,0|8
184,312,46755,1,0
184,312,46867,1,0
184,312,46979,1,4
272,352,47203,1,4
360,312,47426,5,2
456,328,47650,1,0
448,304,47762,2,0,B|456:248|440:200,1,100,2|0
400,192,48098,2,0,B|392:144|400:88,1,100,2|2
312,48,48546,1,0
224,88,48770,2,0,B|120:88,1,100,4|4
40,40,49217,1,2
40,136,49441,6,0,B|48:192|176:176|216:232,1,200
128,280,50113,1,2
104,280,50225,1,0
80,280,50337,1,0
208,352,50561,1,4
208,352,50785,1,4
288,288,51009,6,0,B|280:240|288:184,1,100,2|0
288,160,51344,1,2
352,88,51568,1,0
352,88,51680,1,0
432,152,51904,1,2
424,248,52128,2,0,B|432:296|416:352,2,100,0|4|4
248,336,52800,5,2
224,336,52912,1,0
200,336,53023,1,0
128,272,53247,1,2
40,320,53471,1,0
24,296,53583,1,0
16,272,53695,1,2
24,248,53807,1,0
40,224,53919,1,0
152,128,54143,6,0,B|256:144|352:136,1,200,4|2
440,176,54814,1,0
360,232,55038,2,0,B|384:312|456:352,2,150,4|2|2
320,144,55934,2,0,B|288:72|216:32,2,150,4|2|2
224,144,56829,1,4
200,136,56941,1,0
176,128,57053,1,0
48,200,57277,1,2
48,200,57389,1,0
48,200,57501,1,0
104,280,57725,6,0,B|120:336|224:288|288:336,1,200,4|2
376,296,58397,1,0
336,208,58620,1,2
232,208,58844,2,0,B|176:200|136:176,2,100,0|2|0
272,120,59516,1,4
56,72,59852,1,4
104,288,60188,2,0,B|192:344|296:336,1,200,4|0
392,320,60859,1,2
184,64,61307,5,0
208,56,61419,1,0
232,56,61531,1,0
256,64,61643,1,0
272,80,61755,1,0
280,104,61867,1,0
280,128,61979,1,0
272,152,62091,1,0
264,176,62203,1,0
264,200,62314,1,0
272,224,62426,1,0
288,240,62538,1,0
312,248,62650,6,0,B|360:272|408:272,1,100,2|0
480,144,63098,2,0,B|432:120|384:112,1,100,4|0
385,112,63434,1,0
385,112,63546,1,8
256,40,63770,5,0
168,80,63994,2,0,B|120:88|64:88,1,100,4|0
68,87,64329,1,0
68,87,64441,1,8
32,176,64665,1,0
120,296,64889,5,4
144,288,65001,1,0
168,280,65113,1,0
296,352,65337,1,8
272,344,65449,1,0
248,336,65561,1,0
256,240,65785,5,2
400,216,66009,1,0
464,144,66232,1,8
456,120,66344,1,0
440,104,66456,1,0
416,96,66568,1,0
392,96,66680,2,0,B|312:96|240:64,2,150,4|2|2
256,152,67576,5,4
256,152,67688,1,0
256,152,67800,1,0
200,288,68023,1,4
56,264,68247,1,0
56,264,68359,1,0
56,264,68471,2,0,B|16:208|24:120,2,150,4|2|2
112,184,69367,5,2
120,160,69479,1,0
128,136,69591,1,0
136,112,69703,1,0
144,88,69814,1,8
224,32,70038,1,0
312,72,70262,5,4
312,72,70374,2,0,B|368:80|416:80,1,100,0|0
411,79,70710,1,8
480,152,70934,1,0
400,208,71158,1,4
400,208,71270,1,0
312,168,71494,1,0
312,168,71606,1,8
216,184,71829,1,0
64,56,72053,6,0,B|112:32|200:104|264:64,1,200,4|8
128,136,72725,1,0
104,136,72837,1,0
80,136,72949,1,2
56,280,73173,1,0
80,280,73285,1,0
104,280,73397,1,8
240,224,73620,5,0
160,352,73844,2,0,B|184:304|296:360|352:328,1,200,4|8
424,264,74516,1,0
368,184,74740,1,2
392,176,74852,1,0
416,168,74964,1,0
288,96,75188,1,8
232,176,75411,5,0
240,200,75523,1,0
248,224,75635,1,4
176,352,75859,1,0
152,344,75971,1,0
128,336,76083,2,0,B|96:304|88:240,1,100,8|8
88,245,76419,1,8
88,245,76531,1,8
88,245,76643,1,8
88,245,76755,1,8
88,245,76867,1,8
88,245,76979,1,8
88,245,77091,1,8
88,245,77203,1,8
144,56,77426,6,0,B|248:32|352:40,1,200,4|8
432,80,78098,1,0
408,224,78322,1,2
392,240,78434,1,0
376,256,78546,1,0
384,352,78770,1,8
248,296,78994,1,0
104,320,79217,1,2
144,232,79441,5,0
128,216,79553,1,0
112,200,79665,1,8
32,144,79889,2,0,B|64:88|160:120|216:64,1,200
304,40,80561,1,8
280,136,80785,1,0
280,136,80897,1,0
280,136,81009,2,0,B|336:136|384:144,1,100,2|0
472,168,81456,1,8
400,296,81680,5,0
384,312,81792,1,0
368,328,81904,1,2
224,304,82128,1,0
232,280,82240,1,0
240,256,82352,1,8
352,160,82576,2,0,B|376:112|368:56,1,100,0|2
272,96,83023,6,0,B|224:64|112:144|56:120,1,200,0|0
24,208,83695,1,2
24,208,83807,1,0
24,208,83919,1,0
112,328,84143,2,0,B|160:336|208:352,1,100,8|0
304,312,84591,6,0,B|368:352|448:352,2,150,2|2|2
264,224,85486,1,2
256,200,85598,1,0
240,184,85710,1,0
216,176,85822,1,0
192,176,85934,2,0,B|136:176|96:152,1,100,8|0
192,40,86382,2,0,B|240:32|296:32,1,100,2|0
291,32,86717,1,0
291,32,86829,1,8
432,72,87053,1,8
312,344,87501,5,2
456,320,87725,1,2
360,208,87949,1,0
360,208,88061,1,0
360,208,88173,2,0,B|440:176|472:112,2,150,4|2|2
320,120,89068,2,0,B|256:168|232:248,2,150,4|2|2
192,48,89964,5,4
192,48,90076,1,0
192,48,90188,1,0
96,40,90411,2,0,B|88:104|160:160|112:232,1,200,8|2
32,176,91083,1,0
24,272,91307,1,8
24,272,91419,1,0
24,272,91531,1,0
216,232,91755,6,0,B|192:280|192:336,2,100,2|0|8
288,104,92426,1,0
288,104,92538,1,0
288,104,92650,2,0,B|264:56|216:32,2,100,2|0|8
368,48,93322,1,0
368,48,93434,1,0
368,48,93546,6,0,B|408:112|360:160|352:208|384:248,1,200,4|8
448,312,94217,1,0
360,352,94441,1,2
336,360,94553,1,0
312,352,94665,1,0
296,336,94777,1,0
288,312,94889,2,0,B|296:264|264:216,1,100,8|0
144,304,95337,5,2
56,264,95561,1,0
56,168,95785,2,0,B|56:112|24:72,2,100,8|0|2
136,112,96456,1,0
136,112,96568,1,0
136,112,96680,2,0,B|176:80|224:64,1,100,8|0
264,256,97128,5,4
392,328,97352,1,0
416,320,97464,1,0
440,312,97576,1,8
464,168,97800,1,0
440,176,97911,1,0
416,184,98023,2,0,B|368:192|312:184,1,100,2|0
264,48,98471,2,0,B|312:32|368:48,1,100,8|0
184,128,98919,5,2
184,128,99031,1,0
184,128,99143,1,0
88,120,99367,2,0,B|96:72|144:40,2,100,8|0|2
96,216,100038,1,0
96,216,100150,1,0
96,216,100262,2,0,B|80:264|40:304,1,100,8|0
184,256,100710,5,4
208,248,100822,1,0
232,240,100934,1,0
368,296,101158,1,8
392,304,101270,1,0
416,312,101382,1,0
472,232,101606,5,2
344,160,101829,1,0
472,88,102053,1,8
472,88,102165,1,0
472,88,102277,1,0
336,32,102501,6,0,B|288:24|200:96|128:72,1,200,2|8
56,32,103173,1,0
32,176,103397,1,2
48,192,103509,1,0
72,200,103620,1,0
96,200,103732,1,0
120,192,103844,2,0,B|168:176|224:176,1,100,8|0
208,272,104292,5,2
208,272,104404,1,0
264,352,104628,1,0
264,352,104740,1,8
352,312,104964,1,0
488,256,105188,5,2
488,256,105300,1,0
448,168,105523,1,0
448,168,105635,1,8
360,128,105859,1,0
296,56,106083,5,8
120,48,106419,1,8
208,200,106755,1,8
152,280,106979,5,2
176,288,107091,1,0
200,296,107203,1,0
344,272,107426,1,2
368,264,107538,1,0
392,256,107650,1,0
256,192,107874,12,0,111456
