osu file format v9

[General]
AudioFilename: Mami Kawada - Hishoku no Sora.mp3
AudioLeadIn: 0
PreviewTime: 62962
Countdown: 0
SampleSet: Normal
StackLeniency: 0.5
Mode: 0
LetterboxInBreaks: 1

[Editor]
Bookmarks: 18297,29658
DistanceSpacing: 0.8
BeatDivisor: 2
GridSize: 8

[Metadata]
Title:Hishoku no Sora
Artist:Kawada Mami
Creator:lkp
Version:Lunety
Source:Shakugan no Shana
Tags:koko6162006 Muya Lunet S_o_r_d_a

[Difficulty]
HPDrainRate:3
CircleSize:3
OverallDifficulty:2
ApproachRate:4
SliderMultiplier:1.2
SliderTickRate:0.5

[Events]
//Background and Video events
0,0,"untitled.jpg"
//Break Periods
2,18428,28269
2,89434,99275
2,137718,158920
//Storyboard Layer 0 (Background)
//Storyboard Layer 1 (Fail)
//Storyboard Layer 2 (Pass)
//Storyboard Layer 3 (Foreground)
//Storyboard Sound Samples
//Background Colour Transformations
3,100,163,162,255

[TimingPoints]
1187,355.029585798817,4,1,1,70,1,0
6867,-100,4,1,1,80,0,1
18228,-100,4,1,1,70,0,0
63672,-100,4,1,1,80,0,1
89234,-100,4,1,1,70,0,0
100417,-100,4,1,1,80,0,0
160062,-200,4,2,1,60,0,0
171601,-200,4,2,1,60,0,0
185092,-100,4,1,1,71,0,0
185802,-100,4,1,1,80,0,1
234086,-100,4,1,1,70,0,0

[Colours]
Combo1 : 182,182,182
Combo2 : 255,0,0
Combo3 : 255,132,9

[HitObjects]
136,272,6157,2,0,B|80:304,2,60
208,336,6867,5,4
304,312,7222,1,0
448,184,7932,2,0,B|400:144,2,60,8|0|8
376,248,8642,6,0,B|336:200|280:176,2,120
448,184,9707,2,0,B|368:88|240:72,2,240
304,312,11837,5,4
208,336,12192,1,0
112,320,12547,2,0,B|64:208|112:80,1,240,4|0
200,56,13613,6,0,B|328:24|440:56,1,240,0|0
392,136,14678,1,0
336,216,15033,5,0
288,296,15388,2,0,B|224:304|168:296,1,120,4|0
104,224,16098,2,0,B|96:160|104:104,1,120
168,40,16808,2,0,B|232:32|288:40,1,120
384,64,17518,2,0,B|432:16,2,60
456,128,18228,1,4
392,48,29589,5,0
304,80,29944,1,8
208,80,30299,1,0
208,80,30654,1,8
128,48,31009,2,0,B|88:96|88:160,1,120,0|8
88,240,31719,2,0,B|88:304|128:352,1,120,0|8
216,312,32429,6,0,B|216:256|176:192,2,120,0|8|0
296,264,33494,1,8
368,200,33849,1,0
368,200,34027,1,0
368,200,34204,1,8
432,128,34559,5,0
344,88,34914,1,8
256,56,35269,2,0,B|192:64|136:56,2,120,0|8|0
208,144,36334,1,8
208,144,36512,1,0
208,144,36689,1,0
152,224,37044,5,8
240,256,37400,1,0
328,216,37755,1,8
360,128,38110,1,0
432,64,38465,2,0,B|464:112|432:192,1,120,8|0
392,264,39175,2,0,B|344:208|360:128,1,120,8|0
296,80,39885,2,0,B|176:112,2,120,8|0|8
384,128,40950,6,0,B|448:104,2,60,4|0|8
320,200,41660,1,0
224,192,42015,1,8
232,288,42370,2,0,B|352:352,2,120,0|8|0
136,272,43435,1,8
120,176,43790,6,0,B|208:96,1,120,0|8
304,64,44500,1,0
400,80,44855,1,8
464,152,45210,2,0,B|464:216|416:264,1,120,0|8
328,280,45920,2,0,B|296:352,2,60,0|0|8
272,200,46630,5,0
184,248,46985,1,8
96,208,47340,1,0
64,120,47695,1,8
152,80,48050,2,0,B|216:184,2,120,0|8|0
240,40,49115,1,8
256,192,49471,12,4,50891
360,192,51601,1,0
360,192,51778,1,0
360,192,51956,1,0
264,192,52311,2,0,B|152:152,2,120,4|8|0
312,272,53376,1,8
312,272,53553,1,0
312,272,53731,1,0
400,320,54086,2,0,B|440:272,2,60,8|0|0
312,272,54796,5,8
232,224,55151,1,4
152,176,55506,2,0,B|208:152|248:104,1,120,8|0
328,56,56216,2,0,B|440:104,2,120,8|0|8
344,152,57281,6,0,B|360:208,4,60,0|0|8|0|0
264,200,58346,1,8
192,256,58701,2,0,B|160:136,2,120,0|8|0
264,200,59766,6,0,B|144:200,1,120,8|0
48,200,60476,1,8
256,192,60831,12,0,62252
400,104,62962,6,0,B|448:64,2,60
368,192,63672,6,0,B|328:240|264:256,1,120,4|8
176,288,64382,1,0
120,208,64737,1,8
112,112,65092,6,0,B|160:64|216:56,2,120,0|8|0
200,152,66157,1,8
288,192,66512,2,0,B|344:168|376:112,2,120,0|8|0
216,248,67577,1,8
216,248,67755,1,0
216,248,67932,1,0
120,224,68287,5,8
184,152,68642,2,0,B|288:88,2,120,0|8|0
120,224,69707,1,8
184,296,70062,2,0,B|296:360,2,120,0|8|0
248,224,71127,1,8
312,160,71482,1,0
384,96,71837,5,8
384,96,72015,1,0
384,96,72192,2,0,B|272:40|152:104,1,240
72,160,73258,2,0,B|48:104,2,60,8|0|0
104,248,73968,1,8
192,280,74323,5,0
192,280,74500,1,0
192,280,74678,1,8
192,280,75033,2,0,B|320:248,1,120,4|8
392,208,75743,1,0
384,120,76098,2,0,B|272:72,1,120,8|0
176,80,76808,5,8
80,104,77163,1,0
80,200,77518,1,8
96,296,77873,2,0,B|160:264|216:256,1,120,0|8
304,232,78583,1,0
352,152,78938,2,8,B|280:32|144:56,1,240
72,112,80003,6,0,B|112:168,2,60,0|0|8
72,112,80713,2,0,B|48:176|104:224,1,120,0|8
168,288,81423,1,0
264,312,81778,2,0,B|328:288|352:232,1,120,8|0
400,152,82488,2,0,B|376:96|320:64,1,120,8|0
232,104,83198,5,8
232,104,83376,1,0
232,104,83553,2,0,B|104:152,2,120,4|8|0
304,32,84618,1,8
384,88,84973,1,0
312,152,85329,6,0,B|320:224|248:240,1,120,8|0
160,264,86039,1,8
136,168,86394,2,0,B|200:64,1,120,0|8
296,48,87104,1,0
352,128,87459,1,8
408,208,87814,6,0,B|408:352,3,120,0|8|0|8
312,352,89234,1,4
256,192,100595,5,4
256,192,100950,1,8
256,192,101305,2,0,B|208:232,1,60
160,224,101660,2,0,B|112:176,1,60,8|0
104,136,102015,1,0
168,64,102370,1,8
256,104,102725,2,0,B|304:144,1,60
320,192,103080,2,0,B|280:240,1,60,8|0
232,248,103435,5,0
160,184,103790,1,8
232,120,104145,1,0
304,56,104500,1,8
368,128,104855,2,0,B|464:40,2,120,0|8|0
440,192,105920,5,8
440,192,106098,1,0
440,192,106275,2,0,B|352:280,1,120,0|8
264,288,106985,2,0,B|208:264|192:192,1,120,0|8
184,104,107695,1,0
184,104,108050,1,8
264,48,108405,1,0
264,48,108760,1,8
256,192,109115,12,0,111246
112,336,111956,6,0,B|72:272|112:192,1,120,4|8
192,232,112666,2,0,B|248:296|352:248,1,120,0|8
368,192,113376,2,0,B|408:128|376:80,1,120,0|8
288,48,114086,2,0,B|224:72|200:128,1,120,0|8
152,208,114796,5,0
152,208,114973,1,0
152,208,115151,1,8
104,288,115506,2,0,B|48:256,2,60,0|0|8
192,320,116216,1,0
280,288,116571,1,8
368,320,116926,1,0
408,232,117281,5,8
408,232,117459,1,0
408,232,117636,2,0,B|408:160|352:128,1,120,4|8
264,96,118346,2,0,B|200:96|160:152,1,120,0|8
104,224,119056,1,0
104,224,119411,5,8
104,224,119766,1,0
104,224,120121,1,8
168,296,120476,2,0,B|232:272|240:168,3,120,0|8|0|8
160,144,121897,1,4
104,224,122252,1,8
160,304,122607,1,4
256,320,122962,1,8
344,296,123317,6,0,B|408:264|384:192,1,120,4|8
352,104,124027,1,0
264,64,124382,2,0,B|200:56|144:88,1,120,8|0
136,168,125092,1,8
64,96,125447,1,0
160,80,125802,5,8
256,80,126157,1,0
256,80,126512,1,8
256,176,126867,1,0
256,176,127222,1,8
352,152,127577,1,0
352,152,127932,1,8
448,128,128287,6,0,B|448:56,2,60,0|0|8
344,128,128997,2,0,B|224:128,1,120,0|8
192,216,129707,2,0,B|312:216,1,120,0|8
400,184,130417,1,0
360,96,130772,5,8
272,56,131127,1,0
184,96,131482,1,8
128,168,131837,2,0,B|208:256,3,120,0|8|0|8
280,320,133258,1,0
280,320,133613,1,8
328,240,133968,6,0,B|176:56,1,240,0|4
256,192,135033,12,0,137518
256,192,160240,5,4
256,192,161660,1,4
256,192,163080,2,0,B|312:144,1,60,4|0
304,104,163790,2,0,B|256:64,1,60,2|0
208,64,164500,1,2
160,64,164855,1,0
112,64,165210,1,2
104,192,165920,5,4
256,312,167340,1,4
328,248,168050,2,0,B|368:208,2,30,2|0|0
288,216,168760,2,0,B|240:168,1,60,4|0
216,136,169471,2,0,B|256:88,1,60,2|0
288,56,170181,1,2
152,192,171601,5,4
240,232,172311,1,0
264,232,172488,1,0
288,232,172666,1,2
336,232,173021,2,0,B|384:184,1,60,0|2
384,144,173731,6,0,B|328:112,1,60,0|2
296,88,174441,1,0
256,64,174796,1,2
216,88,175151,1,0
176,64,175506,1,2
136,88,175861,2,0,B|96:136,1,60,0|2
96,184,176571,6,0,B|136:232,1,60,0|2
168,264,177281,1,4
184,280,177459,1,0
200,296,177636,1,2
232,328,177991,1,0
280,328,178346,1,2
328,328,178701,1,0
376,328,179056,1,2
408,296,179411,2,0,B|424:264|408:232,1,60,0|2
256,192,180121,12,0,182607
256,192,182962,12,0,184382
256,152,185092,2,0,B|192:152,2,60
328,88,185802,5,4
352,176,186157,2,0,B|432:264,1,120,8|0
360,328,186867,2,0,B|240:328,1,120,8|0
152,296,187577,5,8
120,208,187932,1,0
88,120,188287,1,8
176,104,188642,2,0,B|296:72,1,120,0|8
376,56,189352,1,0
368,152,189707,1,8
352,248,190062,2,0,B|424:224,2,60,0|0|8
256,256,190772,6,0,B|184:160,1,120,0|8
176,64,191482,1,0
272,88,191837,1,8
272,88,192015,1,0
272,88,192192,1,0
368,64,192547,6,0,B|448:160,1,120,8|0
416,248,193258,1,8
416,248,193435,1,0
416,248,193613,1,0
384,336,193968,1,12
256,192,194323,12,0,195743
104,240,196453,6,0,B|64:192,2,60
192,280,197163,2,0,B|312:304,1,120,4|8
400,264,197873,1,0
360,176,198228,1,8
320,88,198583,6,0,B|80:136,1,240
64,232,199648,1,8
152,200,200003,2,0,B|184:80,3,120,0|8|0|8
272,56,201423,1,0
272,56,201601,1,0
272,56,201778,1,8
360,88,202133,5,0
360,88,202488,1,8
360,88,202843,2,0,B|408:136|408:200,1,120,0|8
360,280,203553,1,0
272,248,203908,6,8,B|208:160|136:272|64:160,1,240
80,64,204973,1,0
80,64,205329,1,12
256,192,205684,12,0,207104
360,304,207814,5,0
360,304,207991,1,0
360,304,208169,1,0
376,208,208524,2,0,B|392:80,1,120,4|8
304,40,209234,1,0
216,72,209589,1,8
296,128,209944,1,0
216,72,210299,6,0,B|160:56|96:72,2,120,8|0|8
152,144,211364,2,0,B|112:192,1,60
96,232,211719,2,0,B|152:272,1,60,8|0
184,288,212074,1,0
272,320,212429,1,8
360,288,212784,1,0
360,288,212962,1,0
360,288,213139,1,8
376,192,213494,6,0,B|352:128|296:96,1,120,0|8
224,48,214204,1,0
224,48,214559,1,8
144,96,214914,6,0,B|32:208|184:288,1,240
272,312,215979,1,8
320,232,216334,1,0
368,312,216689,1,12
256,192,217044,12,0,218465
256,192,219175,5,0
256,192,219352,1,0
256,192,219530,1,0
256,96,219885,2,0,B|136:120,2,120,4|8|0
344,56,220950,1,8
384,144,221305,1,0
320,216,221660,6,0,B|232:304,2,120,8|0|8
240,160,222725,2,0,B|192:120,1,60
160,88,223080,2,0,B|96:88,1,60,8|0
48,88,223435,1,0
80,176,223790,1,8
112,264,224145,1,0
112,264,224323,1,0
112,264,224500,1,8
192,216,224855,6,0,B|248:184,2,60,0|0|8
224,304,225565,2,0,B|376:352|416:208,1,240,0|0
440,128,226630,2,0,B|408:80|336:72,1,120,8|0
248,104,227340,1,8
248,104,227695,1,0
304,184,228050,5,8
304,184,228228,1,0
304,184,228405,2,0,B|256:336|96:240,1,240,4|0
56,176,229471,2,0,B|80:112|136:88,1,120,8|0
216,40,230181,6,0,B|288:136,2,120,8|0|8
256,192,231246,12,4,234086
