osu file format v14

[General]
AudioFilename: fluff.mp3
AudioLeadIn: 0
PreviewTime: 5256
Countdown: 0
SampleSet: Normal
StackLeniency: 0.7
Mode: 1
LetterboxInBreaks: 0
WidescreenStoryboard: 1

[Editor]
DistanceSpacing: 1.6
BeatDivisor: 4
GridSize: 32
TimelineZoom: 1.9

[Metadata]
Title:Hishoku no Sora (TV Size)
TitleUnicode:緋色の空(TVサイズ)
Artist:Kawada Mami
ArtistUnicode:川田まみ
Creator:Skull Kid
Version:Inner Oni
Source:灼眼のシャナ
Tags:Shakugan no Shana opening
BeatmapID:772865
BeatmapSetID:350576

[Difficulty]
HPDrainRate:6
CircleSize:4
OverallDifficulty:5
ApproachRate:9
SliderMultiplier:1.4
SliderTickRate:1

[Events]
//Background and Video events
0,0,"3.jpg",0,0
//Break Periods
//Storyboard Layer 0 (Background)
//Storyboard Layer 1 (Fail)
//Storyboard Layer 2 (Pass)
//Storyboard Layer 3 (Foreground)
//Storyboard Sound Samples

[TimingPoints]
375,355.029585798817,4,1,0,100,1,0
28954,-100,4,1,0,50,0,0
37298,-100,4,1,0,75,0,0
40315,-100,4,1,0,50,0,0
45286,-100,4,1,0,75,0,0
48659,-100,4,1,0,100,0,0
62860,-100,4,1,0,100,0,1
85582,-100,4,1,0,100,0,0

[HitObjects]
256,192,375,5,4,0:0:0:0:
256,192,730,1,0,0:0:0:0:
256,192,907,1,0,0:0:0:0:
256,192,1085,1,8,0:0:0:0:
256,192,1440,1,8,0:0:0:0:
256,192,1617,1,8,0:0:0:0:
256,192,1972,1,8,0:0:0:0:
256,192,2150,1,8,0:0:0:0:
256,192,2505,1,0,0:0:0:0:
256,192,2682,1,8,0:0:0:0:
256,192,2860,1,0,0:0:0:0:
256,192,3037,1,0,0:0:0:0:
256,192,3215,1,8,0:0:0:0:
256,192,3392,1,0,0:0:0:0:
256,192,3481,1,0,0:0:0:0:
256,192,3570,1,8,0:0:0:0:
256,192,3747,1,0,0:0:0:0:
256,192,3925,1,8,0:0:0:0:
256,192,4102,1,0,0:0:0:0:
256,192,4280,1,0,0:0:0:0:
256,192,4457,1,8,0:0:0:0:
256,192,4635,1,8,0:0:0:0:
256,192,4812,1,0,0:0:0:0:
256,192,4990,1,8,0:0:0:0:
256,192,5345,1,0,0:0:0:0:
256,192,5522,1,0,0:0:0:0:
256,192,5700,1,8,0:0:0:0:
256,192,6055,1,4,0:0:0:0:
256,192,6232,1,0,0:0:0:0:
256,192,6410,1,8,0:0:0:0:
256,192,6588,1,0,0:0:0:0:
256,192,6765,1,8,0:0:0:0:
256,192,6854,1,8,0:0:0:0:
256,192,6943,1,8,0:0:0:0:
256,192,7120,1,0,0:0:0:0:
256,192,7298,1,8,0:0:0:0:
256,192,7653,1,0,0:0:0:0:
256,192,7830,1,8,0:0:0:0:
256,192,8185,1,0,0:0:0:0:
256,192,8540,1,8,0:0:0:0:
256,192,8895,1,4,0:0:0:0:
256,192,9250,1,0,0:0:0:0:
256,192,9428,1,0,0:0:0:0:
256,192,9605,1,8,0:0:0:0:
256,192,9783,1,0,0:0:0:0:
256,192,9872,1,8,0:0:0:0:
256,192,9960,1,8,0:0:0:0:
256,192,10138,1,8,0:0:0:0:
256,192,10493,1,0,0:0:0:0:
256,192,10582,1,0,0:0:0:0:
256,192,10670,1,8,0:0:0:0:
256,192,10848,1,0,0:0:0:0:
256,192,11025,1,8,0:0:0:0:
256,192,11203,1,8,0:0:0:0:
256,192,11380,1,0,0:0:0:0:
256,192,11558,1,8,0:0:0:0:
256,192,11735,1,0,0:0:0:0:
256,192,11913,1,0,0:0:0:0:
256,192,12090,1,8,0:0:0:0:
256,192,12268,1,0,0:0:0:0:
256,192,12623,1,0,0:0:0:0:
256,192,12800,1,8,0:0:0:0:
256,192,12978,1,0,0:0:0:0:
256,192,13333,1,0,0:0:0:0:
256,192,13510,1,8,0:0:0:0:
256,192,13688,1,0,0:0:0:0:
256,192,13866,1,0,0:0:0:0:
256,192,14043,1,8,0:0:0:0:
256,192,14132,1,8,0:0:0:0:
256,192,14221,1,0,0:0:0:0:
256,192,14398,1,8,0:0:0:0:
256,192,14576,1,4,0:0:0:0:
256,192,14931,1,0,0:0:0:0:
256,192,15108,1,0,0:0:0:0:
256,192,15286,1,8,0:0:0:0:
256,192,15463,1,0,0:0:0:0:
256,192,15641,1,8,0:0:0:0:
256,192,15818,1,0,0:0:0:0:
256,192,15996,1,8,0:0:0:0:
256,192,16173,1,8,0:0:0:0:
256,192,16351,1,0,0:0:0:0:
256,192,16528,1,0,0:0:0:0:
256,192,16706,1,8,0:0:0:0:
256,192,16795,1,0,0:0:0:0:
256,192,16883,1,8,0:0:0:0:
256,192,16972,1,8,0:0:0:0:
256,192,17061,1,0,0:0:0:0:
256,192,17150,1,8,0:0:0:0:
256,192,17238,1,0,0:0:0:0:
256,192,17327,1,0,0:0:0:0:
256,192,17416,1,8,0:0:0:0:
256,192,17593,1,0,0:0:0:0:
256,192,17771,1,8,0:0:0:0:
256,192,17948,1,0,0:0:0:0:
256,192,18126,1,0,0:0:0:0:
256,192,18303,1,8,0:0:0:0:
256,192,18481,1,0,0:0:0:0:
256,192,18659,1,8,0:0:0:0:
256,192,19014,1,0,0:0:0:0:
256,192,19191,1,8,0:0:0:0:
256,192,19369,1,0,0:0:0:0:
256,192,19546,1,8,0:0:0:0:
256,192,19724,1,8,0:0:0:0:
256,192,19901,1,0,0:0:0:0:
256,192,20079,1,8,0:0:0:0:
256,192,20434,1,0,0:0:0:0:
256,192,20611,1,8,0:0:0:0:
256,192,20789,1,0,0:0:0:0:
256,192,20966,1,8,0:0:0:0:
256,192,21144,1,8,0:0:0:0:
256,192,21321,1,0,0:0:0:0:
256,192,21499,1,8,0:0:0:0:
256,192,21854,1,0,0:0:0:0:
256,192,21943,1,0,0:0:0:0:
256,192,22031,1,8,0:0:0:0:
256,192,22209,1,0,0:0:0:0:
256,192,22386,1,8,0:0:0:0:
256,192,22475,1,0,0:0:0:0:
256,192,22564,1,0,0:0:0:0:
256,192,22653,1,0,0:0:0:0:
256,192,22741,1,8,0:0:0:0:
256,192,22919,1,0,0:0:0:0:
256,192,23096,1,8,0:0:0:0:
256,192,23451,1,8,0:0:0:0:
256,192,23628,1,0,0:0:0:0:
256,192,23806,1,0,0:0:0:0:
256,192,23983,1,8,0:0:0:0:
256,192,24161,1,0,0:0:0:0:
256,192,24339,1,8,0:0:0:0:
256,192,24694,1,0,0:0:0:0:
256,192,24871,1,8,0:0:0:0:
256,192,25049,1,0,0:0:0:0:
256,192,25226,1,8,0:0:0:0:
256,192,25404,1,8,0:0:0:0:
256,192,25581,1,0,0:0:0:0:
256,192,25759,1,8,0:0:0:0:
256,192,26114,1,0,0:0:0:0:
256,192,26291,1,8,0:0:0:0:
256,192,26469,1,0,0:0:0:0:
256,192,26646,1,8,0:0:0:0:
256,192,26824,1,8,0:0:0:0:
256,192,27001,1,0,0:0:0:0:
256,192,27179,1,8,0:0:0:0:
256,192,27357,1,0,0:0:0:0:
256,192,27446,1,0,0:0:0:0:
256,192,27534,1,0,0:0:0:0:
256,192,27712,1,8,0:0:0:0:
256,192,27889,1,0,0:0:0:0:
256,192,28067,1,8,0:0:0:0:
256,192,28156,1,8,0:0:0:0:
256,192,28245,1,0,0:0:0:0:
256,192,28333,1,0,0:0:0:0:
256,192,28422,1,8,0:0:0:0:
256,192,28511,1,0,0:0:0:0:
256,192,28599,1,8,0:0:0:0:
256,192,28688,1,8,0:0:0:0:
256,192,28777,1,0,0:0:0:0:
256,192,28954,1,0,0:0:0:0:
256,192,29132,1,8,0:0:0:0:
256,192,29487,1,8,0:0:0:0:
256,192,29664,1,8,0:0:0:0:
256,192,29842,1,0,0:0:0:0:
256,192,30197,1,8,0:0:0:0:
256,192,30375,1,8,0:0:0:0:
256,192,30730,1,8,0:0:0:0:
256,192,31085,1,8,0:0:0:0:
256,192,31262,1,8,0:0:0:0:
256,192,31617,1,0,0:0:0:0:
256,192,31795,1,0,0:0:0:0:
256,192,31972,1,8,0:0:0:0:
256,192,32150,1,0,0:0:0:0:
256,192,32327,1,8,0:0:0:0:
256,192,32505,1,8,0:0:0:0:
256,192,32682,1,0,0:0:0:0:
256,192,33037,1,8,0:0:0:0:
256,192,33215,1,8,0:0:0:0:
256,192,33570,1,0,0:0:0:0:
256,192,33925,1,8,0:0:0:0:
256,192,34102,1,0,0:0:0:0:
256,192,34280,1,8,0:0:0:0:
256,192,34457,1,8,0:0:0:0:
256,192,36232,1,0,0:0:0:0:
256,192,36588,1,8,0:0:0:0:
256,192,36943,1,8,0:0:0:0:
256,192,37298,1,4,0:0:0:0:
256,192,37653,1,0,0:0:0:0:
256,192,37830,1,8,0:0:0:0:
256,192,38185,1,0,0:0:0:0:
256,192,38363,1,8,0:0:0:0:
256,192,38540,1,8,0:0:0:0:
256,192,38718,1,0,0:0:0:0:
256,192,38895,1,8,0:0:0:0:
256,192,38984,1,8,0:0:0:0:
256,192,39073,1,0,0:0:0:0:
256,192,39250,1,0,0:0:0:0:
256,192,39428,1,8,0:0:0:0:
256,192,39517,1,8,0:0:0:0:
256,192,39605,1,0,0:0:0:0:
256,192,39694,1,0,0:0:0:0:
256,192,39783,1,8,0:0:0:0:
256,192,39872,1,0,0:0:0:0:
256,192,39960,1,8,0:0:0:0:
256,192,40049,1,8,0:0:0:0:
256,192,40138,1,0,0:0:0:0:
256,192,40315,1,0,0:0:0:0:
256,192,40493,1,8,0:0:0:0:
256,192,40670,1,0,0:0:0:0:
256,192,40848,1,0,0:0:0:0:
256,192,41025,1,8,0:0:0:0:
256,192,41203,1,0,0:0:0:0:
256,192,41558,1,8,0:0:0:0:
256,192,41736,1,8,0:0:0:0:
256,192,42091,1,8,0:0:0:0:
256,192,42446,1,8,0:0:0:0:
256,192,42623,1,8,0:0:0:0:
256,192,42978,1,0,0:0:0:0:
256,192,43156,1,0,0:0:0:0:
256,192,43333,1,8,0:0:0:0:
256,192,43511,1,0,0:0:0:0:
256,192,43688,1,8,0:0:0:0:
256,192,43866,1,8,0:0:0:0:
256,192,44043,1,0,0:0:0:0:
256,192,44398,1,8,0:0:0:0:
256,192,44576,1,8,0:0:0:0:
256,192,44931,1,0,0:0:0:0:
256,192,45286,1,8,0:0:0:0:
256,192,45463,1,0,0:0:0:0:
256,192,45641,1,4,0:0:0:0:
256,192,47593,1,0,0:0:0:0:
256,192,47949,1,8,0:0:0:0:
256,192,48304,1,8,0:0:0:0:
256,192,48659,1,4,0:0:0:0:
256,192,49014,1,0,0:0:0:0:
256,192,49191,1,8,0:0:0:0:
256,192,49546,1,0,0:0:0:0:
256,192,49724,1,8,0:0:0:0:
256,192,49901,1,8,0:0:0:0:
256,192,50079,1,0,0:0:0:0:
256,192,50256,1,8,0:0:0:0:
256,192,50345,1,8,0:0:0:0:
256,192,50434,1,0,0:0:0:0:
256,192,50611,1,0,0:0:0:0:
256,192,50789,1,8,0:0:0:0:
256,192,50877,1,0,0:0:0:0:
256,192,50966,1,0,0:0:0:0:
256,192,51055,1,0,0:0:0:0:
256,192,51144,1,8,0:0:0:0:
256,192,51233,1,0,0:0:0:0:
256,192,51321,1,8,0:0:0:0:
256,192,51410,1,8,0:0:0:0:
256,192,51499,1,0,0:0:0:0:
256,192,51676,1,0,0:0:0:0:
256,192,51854,1,8,0:0:0:0:
256,192,52031,1,8,0:0:0:0:
256,192,52120,1,8,0:0:0:0:
256,192,52209,1,0,0:0:0:0:
256,192,52386,1,0,0:0:0:0:
256,192,52564,1,8,0:0:0:0:
256,192,52741,1,0,0:0:0:0:
256,192,53096,1,0,0:0:0:0:
256,192,53185,1,0,0:0:0:0:
256,192,53274,1,8,0:0:0:0:
256,192,53451,1,0,0:0:0:0:
256,192,53629,1,8,0:0:0:0:
256,192,53806,1,8,0:0:0:0:
256,192,53984,1,0,0:0:0:0:
256,192,54161,1,0,0:0:0:0:
256,192,54339,1,8,0:0:0:0:
256,192,54694,1,0,0:0:0:0:
256,192,55049,1,8,0:0:0:0:
256,192,55227,1,8,0:0:0:0:
256,192,55404,1,0,0:0:0:0:
256,192,55582,1,8,0:0:0:0:
256,192,55937,1,0,0:0:0:0:
256,192,56026,1,8,0:0:0:0:
256,192,56115,1,8,0:0:0:0:
256,192,56292,1,0,0:0:0:0:
256,192,56469,1,8,0:0:0:0:
256,192,56647,1,8,0:0:0:0:
256,192,56824,1,0,0:0:0:0:
256,192,57002,1,8,0:0:0:0:
256,192,57179,1,0,0:0:0:0:
256,192,57357,1,0,0:0:0:0:
256,192,57534,1,8,0:0:0:0:
256,192,57712,1,0,0:0:0:0:
256,192,58067,1,0,0:0:0:0:
256,192,58244,1,0,0:0:0:0:
256,192,58422,1,8,0:0:0:0:
256,192,58777,1,0,0:0:0:0:
256,192,58954,1,8,0:0:0:0:
256,192,59309,1,0,0:0:0:0:
256,192,59664,1,0,0:0:0:0:
256,192,60019,1,12,0:0:0:0:
256,192,60375,1,8,0:0:0:0:
256,192,60463,1,8,0:0:0:0:
256,192,60552,1,0,0:0:0:0:
256,192,60730,1,8,0:0:0:0:
256,192,60907,1,8,0:0:0:0:
256,192,61085,1,0,0:0:0:0:
256,192,61262,1,8,0:0:0:0:
256,192,61440,1,0,0:0:0:0:
256,192,61617,1,0,0:0:0:0:
256,192,61795,1,4,0:0:0:0:
256,192,62150,1,8,0:0:0:0:
256,192,62238,1,0,0:0:0:0:
256,192,62327,1,8,0:0:0:0:
256,192,62505,1,0,0:0:0:0:
256,192,62593,1,0,0:0:0:0:
256,192,62682,1,8,0:0:0:0:
256,192,62771,1,0,0:0:0:0:
256,192,62860,1,8,0:0:0:0:
256,192,63037,1,0,0:0:0:0:
256,192,63215,1,8,0:0:0:0:
256,192,63392,1,8,0:0:0:0:
256,192,63481,1,8,0:0:0:0:
256,192,63570,1,8,0:0:0:0:
256,192,63747,1,0,0:0:0:0:
256,192,63925,1,8,0:0:0:0:
256,192,64102,1,8,0:0:0:0:
256,192,64457,1,0,0:0:0:0:
256,192,64635,1,8,0:0:0:0:
256,192,64990,1,8,0:0:0:0:
256,192,65345,1,8,0:0:0:0:
256,192,65700,1,4,0:0:0:0:
256,192,66055,1,8,0:0:0:0:
256,192,66144,1,0,0:0:0:0:
256,192,66232,1,8,0:0:0:0:
256,192,66410,1,0,0:0:0:0:
256,192,66588,1,0,0:0:0:0:
256,192,66765,1,8,0:0:0:0:
256,192,66943,1,0,0:0:0:0:
256,192,67298,1,0,0:0:0:0:
256,192,67386,1,0,0:0:0:0:
256,192,67475,1,8,0:0:0:0:
256,192,67653,1,0,0:0:0:0:
256,192,67830,1,8,0:0:0:0:
256,192,67919,1,8,0:0:0:0:
256,192,68008,1,0,0:0:0:0:
256,192,68185,1,8,0:0:0:0:
256,192,68363,1,0,0:0:0:0:
256,192,68540,1,8,0:0:0:0:
256,192,68718,1,0,0:0:0:0:
256,192,68895,1,0,0:0:0:0:
256,192,69250,1,0,0:0:0:0:
256,192,69428,1,8,0:0:0:0:
256,192,69517,1,8,0:0:0:0:
256,192,69605,1,0,0:0:0:0:
256,192,69783,1,0,0:0:0:0:
256,192,69960,1,0,0:0:0:0:
256,192,70138,1,8,0:0:0:0:
256,192,70315,1,0,0:0:0:0:
256,192,70671,1,8,0:0:0:0:
256,192,70760,1,8,0:0:0:0:
256,192,70848,1,0,0:0:0:0:
256,192,71025,1,8,0:0:0:0:
256,192,71203,1,8,0:0:0:0:
256,192,71380,1,12,0:0:0:0:
256,192,71735,1,0,0:0:0:0:
256,192,71913,1,8,0:0:0:0:
256,192,72090,1,0,0:0:0:0:
256,192,72268,1,0,0:0:0:0:
256,192,72446,1,8,0:0:0:0:
256,192,72534,1,8,0:0:0:0:
256,192,72623,1,0,0:0:0:0:
256,192,72978,1,0,0:0:0:0:
256,192,73156,1,8,0:0:0:0:
256,192,73333,1,0,0:0:0:0:
256,192,73511,1,8,0:0:0:0:
256,192,73599,1,0,0:0:0:0:
256,192,73688,1,0,0:0:0:0:
256,192,73777,1,0,0:0:0:0:
256,192,73866,1,8,0:0:0:0:
256,192,73954,1,8,0:0:0:0:
256,192,74043,1,0,0:0:0:0:
256,192,74132,1,8,0:0:0:0:
256,192,74221,1,8,0:0:0:0:
256,192,74398,1,0,0:0:0:0:
256,192,74576,1,8,0:0:0:0:
256,192,74753,1,8,0:0:0:0:
256,192,74842,1,8,0:0:0:0:
256,192,74931,1,8,0:0:0:0:
256,192,75108,1,0,0:0:0:0:
256,192,75286,1,8,0:0:0:0:
256,192,75463,1,8,0:0:0:0:
256,192,75818,1,0,0:0:0:0:
256,192,75996,1,8,0:0:0:0:
256,192,76351,1,8,0:0:0:0:
256,192,76706,1,8,0:0:0:0:
256,192,77061,1,4,0:0:0:0:
256,192,77416,1,8,0:0:0:0:
256,192,77505,1,0,0:0:0:0:
256,192,77593,1,8,0:0:0:0:
256,192,77771,1,0,0:0:0:0:
256,192,77949,1,0,0:0:0:0:
256,192,78126,1,8,0:0:0:0:
256,192,78304,1,0,0:0:0:0:
256,192,78659,1,0,0:0:0:0:
256,192,78747,1,0,0:0:0:0:
256,192,78836,1,8,0:0:0:0:
256,192,79014,1,0,0:0:0:0:
256,192,79191,1,8,0:0:0:0:
256,192,79369,1,8,0:0:0:0:
256,192,79546,1,0,0:0:0:0:
256,192,79724,1,8,0:0:0:0:
256,192,79812,1,8,0:0:0:0:
256,192,79901,1,8,0:0:0:0:
256,192,80079,1,0,0:0:0:0:
256,192,80256,1,0,0:0:0:0:
256,192,80611,1,0,0:0:0:0:
256,192,80789,1,8,0:0:0:0:
256,192,80878,1,8,0:0:0:0:
256,192,80966,1,0,0:0:0:0:
256,192,81144,1,0,0:0:0:0:
256,192,81321,1,0,0:0:0:0:
256,192,81499,1,8,0:0:0:0:
256,192,81676,1,0,0:0:0:0:
256,192,81854,1,8,0:0:0:0:
256,192,81943,1,8,0:0:0:0:
256,192,82031,1,8,0:0:0:0:
256,192,82209,1,0,0:0:0:0:
256,192,82386,1,8,0:0:0:0:
256,192,82564,1,8,0:0:0:0:
256,192,82741,1,12,0:0:0:0:
256,192,83096,1,0,0:0:0:0:
256,192,83274,1,8,0:0:0:0:
256,192,83451,1,0,0:0:0:0:
256,192,83629,1,0,0:0:0:0:
256,192,83807,1,8,0:0:0:0:
256,192,83895,1,8,0:0:0:0:
256,192,83984,1,0,0:0:0:0:
256,192,84339,1,0,0:0:0:0:
256,192,84517,1,8,0:0:0:0:
256,192,84694,1,8,0:0:0:0:
256,192,85049,1,8,0:0:0:0:
256,192,85227,1,8,0:0:0:0:
256,192,85582,1,4,0:0:0:0:
256,192,85937,1,8,0:0:0:0:
256,192,86114,1,8,0:0:0:0:
256,192,86292,1,0,0:0:0:0:
256,192,86469,1,8,0:0:0:0:
256,192,86647,1,8,0:0:0:0:
256,192,86824,1,0,0:0:0:0:
256,192,87179,1,0,0:0:0:0:
256,192,87268,1,0,0:0:0:0:
256,192,87357,1,8,0:0:0:0:
256,192,87534,1,0,0:0:0:0:
256,192,87712,1,8,0:0:0:0:
256,192,87889,1,8,0:0:0:0:
256,192,88422,1,4,0:0:0:0:
