osu file format v13

[General]
AudioFilename: fluff.mp3
AudioLeadIn: 1750
PreviewTime: 5256
Countdown: 0
SampleSet: Soft
StackLeniency: 0.7
Mode: 0
LetterboxInBreaks: 0
WidescreenStoryboard: 0

[Editor]
DistanceSpacing: 0.9
BeatDivisor: 2
GridSize: 4
TimelineZoom: 1.5

[Metadata]
Title:Hishoku no Sora (TV Size)
TitleUnicode:緋色の空(TVサイズ)
Artist:Kawada Mami
ArtistUnicode:川田まみ
Creator:Gaia
Version:Easy
Source:灼眼のシャナ
Tags:Momochikun pan P_A_N Shakugan no Shana opening
BeatmapID:557404
BeatmapSetID:240919

[Difficulty]
HPDrainRate:2.6
CircleSize:3
OverallDifficulty:2
ApproachRate:3
SliderMultiplier:0.9
SliderTickRate:1

[Events]
//Background and Video events
Video,360,"video.avi"
0,0,"3.jpg",0,0
//Break Periods
//Storyboard Layer 0 (Background)
//Storyboard Layer 1 (Fail)
//Storyboard Layer 2 (Pass)
//Storyboard Layer 3 (Foreground)
//Storyboard Sound Samples

[TimingPoints]
375,355.029585798817,4,2,10,70,1,0
28777,-100,4,2,10,60,0,0
51499,-100,4,2,10,70,0,0
62860,-100,4,2,10,80,0,0
88777,-100,4,2,10,70,0,0
89132,-100,4,2,10,60,0,0
89487,-100,4,2,10,50,0,0
89842,-100,4,2,10,40,0,0
90197,-100,4,2,10,30,0,0
90552,-100,4,2,10,20,0,0
90818,-100,4,2,10,10,0,0

[Colours]
Combo1 : 236,19,19
Combo2 : 206,206,206
Combo3 : 255,121,121
Combo4 : 255,255,128
Combo5 : 255,149,43

[HitObjects]
312,328,375,6,0,P|412:316|512:300,2,180,4|8|0,0:0|0:0|0:0,0:0:0:0:
232,340,2150,1,8,0:0:0:0:
152,320,2505,2,0,P|152:256|148:208,1,90,8|8,0:0|0:0,0:0:0:0:
128,152,3215,6,0,B|80:168|40:148|40:148|28:84|88:40,2,180,4|8|0,0:0|0:0|0:0,0:0:0:0:
204,120,4990,1,2,0:0:0:0:
432,40,6055,6,0,P|440:132|448:228,1,180,4|2,0:0|0:0,0:0:0:0:
396,280,7120,2,0,P|360:296|324:292,1,45,8|2,0:0|0:0,0:0:0:0:
236,320,7830,2,0,L|124:352,2,90,8|2|8,0:0|0:0|0:0,0:0:0:0:
252,240,8895,6,0,P|232:156|136:140,1,180,4|2,0:0|0:0,0:0:0:0:
96,192,9960,2,0,L|76:260,1,45,8|2,0:0|0:0,0:0:0:0:
160,260,10493,2,0,L|173:217,1,45,2|8,0:0|0:0,0:0:0:0:
224,152,11025,2,0,B|264:132|264:132|344:148,1,90,2|8,0:0|0:0,0:0:0:0:
376,188,11735,6,0,P|392:140|368:84,2,90,4|8|2,0:0|0:0|0:0,0:0:0:0:
352,268,12801,2,0,L|352:348,1,45,8|4,0:0|0:0,0:0:0:0:
272,296,13333,2,0,L|272:236,1,45,2|8,0:0|0:0,0:0:0:0:
152,144,14221,1,8,0:0:0:0:
148,224,14576,6,0,L|136:344,1,90,6|8,0:0|0:0,0:0:0:0:
60,300,15286,2,0,L|72:168,1,90,2|8,0:0|0:0,0:0:0:0:
72,128,15996,2,0,P|40:96|8:56,2,90,0|0|0,1:0|1:0|1:0,0:0:0:0:
152,144,17061,1,0,1:0:0:0:
228,112,17416,6,0,P|296:96|380:120,2,135,4|0|8,0:0|0:0|0:0,0:0:0:0:
224,192,18836,2,0,L|228:308,1,90,0|8,0:0|0:0,0:0:0:0:
284,340,19546,2,0,P|344:332|404:344,1,90,2|8,0:0|0:0,0:0:0:0:
452,312,20256,6,0,P|452:220|456:164,2,135,4|0|8,0:0|0:0|0:0,0:0:0:0:
372,292,21676,2,0,P|308:292|264:296,1,90,2|8,0:0|0:0,0:0:0:0:
220,348,22386,2,0,P|175:350|130:349,1,90,2|8,0:0|0:0,0:0:0:0:
56,320,23096,6,0,P|0:284|0:196,2,135,4|0|8,0:0|0:0|0:0,0:0:0:0:
68,240,24517,2,0,L|176:228,1,90,0|8,0:0|0:0,0:0:0:0:
208,168,25227,2,0,L|336:176,1,90,2|8,0:0|0:0,0:0:0:0:
372,204,25937,6,0,P|368:132|308:92,2,135,4|0|8,0:0|0:0|0:0,0:0:0:0:
308,252,27357,2,0,L|312:360,1,90,8|8,0:0|0:0,0:0:0:0:
232,340,28067,1,8,0:0:0:0:
156,308,28422,1,8,0:0:0:0:
84,344,28777,6,0,P|8:348|-24:348,2,90,4|0|0,0:0|3:0|0:0,0:0:0:0:
88,264,29842,1,0,3:0:0:0:
160,228,30197,2,0,L|164:180,1,45,0|0,0:0|0:0,0:0:0:0:
128,112,30730,2,0,P|200:112|244:176,1,135,0|0,3:0|3:0,0:0:0:0:
256,236,31617,6,0,P|256:300|260:348,2,90,2|0|0,0:0|3:0|0:0,0:0:0:0:
316,180,32682,1,0,3:0:0:0:
344,104,33037,2,0,L|404:104,1,45,0|0,0:0|0:0,0:0:0:0:
444,44,33570,2,0,P|468:104|412:184,1,135,0|0,3:0|3:0,0:0:0:0:
384,224,34457,6,0,P|388:308|392:348,2,90,2|8|0,0:0|1:0|0:0,0:0:0:0:
320,176,35522,1,8,1:0:0:0:
256,224,35877,1,0,0:0:0:0:
188,176,36232,2,0,P|144:176|56:172,2,90,8|0|8,1:0|0:0|1:0,0:0:0:0:
256,128,37298,6,0,P|336:96|368:108,1,90,6|8,0:0|1:0,0:0:0:0:
400,144,38008,2,0,P|320:176|288:164,1,90,2|8,0:0|1:0,0:0:0:0:
256,224,38718,2,0,B|252:272|252:272|228:312,1,90,2|8,0:0|1:0,0:0:0:0:
164,352,39428,1,8,0:0:0:0:
84,336,39783,1,8,0:0:0:0:
24,280,40138,6,0,P|28:220|28:168,1,90,4|0,0:0|3:0,0:0:0:0:
60,116,40848,2,0,P|124:124|168:120,1,90,0|0,0:0|3:0,0:0:0:0:
212,72,41558,2,0,L|256:74,1,45,0|0,0:0|0:0,0:0:0:0:
332,44,42090,2,0,P|324:120|268:156,1,135,0|0,3:0|3:0,0:0:0:0:
220,204,42978,6,0,P|220:300|216:348,2,135,2|2|0,0:0|0:0|3:0,0:0:0:0:
160,148,44398,2,0,L|20:144,1,135,0|0,3:0|0:0,0:0:0:0:
48,224,45286,2,0,L|140:228,1,90,0|2,3:0|0:0,0:0:0:0:
252,268,46173,6,0,L|400:256,2,135,0|0|0,3:0|3:0|0:0,0:0:0:0:
184,316,47593,2,0,L|94:312,2,90,0|0|0,3:0|0:0|3:0,0:0:0:0:
260,348,48659,6,0,L|372:340,1,90,4|8,0:0|1:0,0:0:0:0:
424,312,49369,2,0,P|424:244|428:192,1,90,2|8,0:0|1:0,0:0:0:0:
452,144,50079,1,12,0:0:0:0:
392,88,50434,2,0,P|320:92|288:84,1,90,8|10,0:0|0:0,0:0:0:0:
232,52,51144,1,10,0:0:0:0:
236,132,51499,6,0,L|232:236,1,90,4|8,0:0|0:0,0:0:0:0:
192,292,52209,2,0,P|140:340|56:320,2,135,2|4|8,0:0|0:0|0:0,0:0:0:0:
116,260,53629,2,0,P|120:204|116:160,1,90,2|8,0:0|0:0,0:0:0:0:
64,108,54339,6,0,P|112:88|172:112,1,90,4|8,0:0|0:0,0:0:0:0:
224,128,55049,1,2,0:0:0:0:
304,148,55404,2,0,L|372:132,1,45,8|6,0:0|0:0,0:0:0:0:
340,220,55937,2,0,L|264:240,1,45,2|8,0:0|0:0,0:0:0:0:
216,240,56469,2,0,B|172:216|132:248|132:248|120:184|60:172,1,180,2|6,0:0|0:0,0:0:0:0:
52,252,57534,6,0,P|64:288|120:328,1,90,8|2,0:0|0:0,0:0:0:0:
184,312,58244,1,8,0:0:0:0:
264,308,58599,2,0,L|356:312,1,90,2|8,0:0|0:0,0:0:0:0:
428,344,59309,1,2,0:0:0:0:
484,288,59664,1,8,0:0:0:0:
444,216,60019,6,0,P|444:128|448:88,2,90,2|8|2,0:0|0:0|0:0,0:0:0:0:
364,228,61085,2,0,L|304:224,1,45,8|2,0:0|0:0,0:0:0:0:
244,256,61617,2,0,L|188:260,1,45,8|8,0:0|0:0,0:0:0:0:
216,96,62505,1,8,0:0:0:0:
160,156,62860,6,0,P|100:160|36:160,2,90,4|8|2,0:0|0:0|0:0,0:0:0:0:
240,168,63925,1,8,0:0:0:0:
292,108,64280,1,0,0:0:0:0:
368,84,64635,2,0,P|424:84|476:104,2,90,8|2|8,0:0|0:0|0:0,0:0:0:0:
388,164,65700,6,0,P|448:188|448:304,1,180,6|2,0:0|0:0,0:0:0:0:
388,248,66765,1,8,0:0:0:0:
352,320,67120,2,0,L|256:324,1,90,0|8,0:0|0:0,0:0:0:0:
224,252,67830,2,0,L|96:240,1,90,2|8,0:0|0:0,0:0:0:0:
92,176,68540,6,0,P|60:212|56:256,1,90,4|8,0:0|0:0,0:0:0:0:
104,316,69250,2,0,P|36:328|-24:264,2,135,2|4|8,0:0|0:0|0:0,0:0:0:0:
172,272,70670,1,2,0:0:0:0:
104,232,71025,1,8,0:0:0:0:
176,192,71380,6,0,B|200:148|240:132|240:132|292:152|304:196,1,180,6|2,0:0|0:0,0:0:0:0:
240,244,72446,1,8,0:0:0:0:
284,312,72801,2,0,P|240:324|196:312,2,90,0|8|0,0:0|0:0|0:0,0:0:0:0:
332,248,73866,1,8,0:0:0:0:
404,212,74221,6,0,L|416:100,2,90,6|8|2,0:0|0:0|0:0,0:0:0:0:
424,292,75286,1,8,0:0:0:0:
352,332,75641,1,0,0:0:0:0:
276,300,75996,2,0,P|212:312|168:288,2,90,8|2|8,0:0|0:0|0:0,0:0:0:0:
228,232,77061,6,0,P|228:144|128:112,1,180,6|2,0:0|0:0,0:0:0:0:
160,188,78126,2,0,L|88:200,1,45,8|2,0:0|0:0,0:0:0:0:
88,272,78659,2,0,L|28:288,1,45,2|8,0:0|0:0,0:0:0:0:
32,204,79191,2,0,P|36:132|32:76,1,90,2|8,0:0|0:0,0:0:0:0:
96,60,79901,6,0,P|168:56|224:56,1,90,6|8,0:0|0:0,0:0:0:0:
256,100,80611,2,0,P|324:104|372:108,1,90,2|8,0:0|0:0,0:0:0:0:
384,180,81321,2,0,P|388:256|408:288,1,90,6|8,0:0|0:0,0:0:0:0:
340,328,82031,2,0,P|296:324|236:328,1,90,2|8,0:0|0:0,0:0:0:0:
168,332,82741,6,0,P|76:324|56:224,1,180,6|2,0:0|0:0,0:0:0:0:
128,260,83806,1,8,0:0:0:0:
184,200,84161,2,0,L|228:208|280:200,1,90,0|8,0:0|0:0,0:0:0:0:
268,120,84872,2,0,L|312:113|356:121,1,90,0|8,0:0|0:0,0:0:0:0:
356,204,85582,6,0,P|344:256|368:312,1,90,6|8,0:0|0:0,0:0:0:0:
424,248,86292,2,0,P|436:196|412:140,1,90,2|8,0:0|0:0,0:0:0:0:
356,120,87002,2,0,P|272:128|240:116,1,90,2|8,0:0|0:0,0:0:0:0:
196,88,87712,2,0,L|124:100,1,45,10|8,0:0|0:0,0:0:0:0:
80,192,88422,5,6,0:0:0:0:
256,192,88599,12,0,90818,0:0:0:0:
