osu file format v9

[General]
AudioFilename: Get my way!.mp3
AudioLeadIn: 2007
PreviewTime: 141326
Countdown: 0
SampleSet: Soft
StackLeniency: 0.7
Mode: 0
LetterboxInBreaks: 1

[Editor]
Bookmarks: 110678,120894,130948,141813,150570,158678
DistanceSpacing: 0.4
BeatDivisor: 4
GridSize: 8

[Metadata]
Title:Get my way!
Artist:Kawada Mami
Creator:Reisyth
Version:rrrrr
Source:Hayate no Gotoku!
Tags:xsrsbsns cRyo[iceeicee] Muya

[Difficulty]
HPDrainRate:6
CircleSize:4
OverallDifficulty:8
ApproachRate:9
SliderMultiplier:1.9
SliderTickRate:1

[Events]
//Background and Video events
0,0,"Konachan.com - 55281 sample.jpg"
//Break Periods
2,71937,110056
2,121072,130326
2,141991,149948
2,158856,166483
//Storyboard Layer 0 (Background)
//Storyboard Layer 1 (Fail)
//Storyboard Layer 2 (Pass)
//Storyboard Layer 3 (Foreground)
//Storyboard Sound Samples
//Background Colour Transformations
3,100,163,162,255

[TimingPoints]
239,324.324324324324,4,2,1,70,1,0
408,324.324324324324,4,2,1,70,1,0
1698,322.58064516129,4,2,1,70,1,0
4278,324.324324324324,4,2,1,70,1,0
43196,-133.333333333333,4,2,1,70,0,0
48223,-100,4,2,1,70,0,0
53088,-100,4,2,1,70,0,1
71737,-100,4,2,1,70,0,0
150548,-133.333333333333,4,2,1,70,0,0
158007,-100,4,2,1,70,0,0
163845,329.67032967033,4,2,1,70,1,0
165163,352.941176470588,4,2,1,70,1,0
165692,357.142857142857,4,2,1,70,1,0
165870,389.61038961039,4,2,1,70,1,0
166064,500,4,2,1,70,1,0
166314,612.244897959184,4,2,1,70,1,0
166620,937.5,4,2,1,70,1,0
167083,324.324324324324,4,2,1,70,1,0
170326,-100,4,2,1,50,0,0
171623,-100,4,2,1,40,0,0
172596,-100,4,2,1,35,0,0
172758,-100,4,2,1,30,0,0
172920,-100,4,2,1,25,0,0
173083,-100,4,2,1,20,0,0
173245,-100,4,2,1,15,0,0
173407,-100,4,2,1,10,0,0
173569,-100,4,2,1,5,0,0

[Colours]
Combo1 : 255,128,192
Combo2 : 255,255,128
Combo3 : 128,255,255

[HitObjects]
120,248,239,1,0
120,248,408,2,0,B|88:280|88:336,2,95
208,208,894,1,0
112,104,1056,1,0
296,160,1218,2,0,B|328:128|328:72,2,95
208,208,1698,5,0
496,376,2343,1,0
400,104,2988,6,0,B|360:192,1,95,8|8
112,280,3310,2,0,B|152:192,1,95,8|8
384,280,3794,5,8
128,104,4117,1,8
208,56,4278,5,0
304,80,4440,2,0,B|392:120|392:240,1,190,8|8
296,240,4926,2,0,B|296:288|263:327,1,95,0|8
263,326,5169,1,0
263,326,5250,1,0
168,168,5413,2,0,B|150:72|248:4,1,190,8|8
240,104,5899,1,0
120,176,6061,1,8
344,256,6223,2,0,B|360:304,2,47.5,0|0|8
120,176,6548,2,0,B|104:128,2,47.5,0|0|8
152,264,6872,5,0
240,288,7034,2,0,B|336:306|404:208,1,190,8|8
344,136,7521,1,0
344,136,7683,2,0,B|366:96|352:42,1,95,8|0
216,8,8007,2,0,B|120:-10|52:88,2,190,8|8|8
104,160,8818,1,0
280,80,8980,1,8
104,160,9142,2,0,B|81:199|95:253,1,95,0|8
184,216,9467,5,0
256,40,9629,1,8
104,160,9791,1,0
328,96,9953,2,0,B|377:180|308:277,1,190,8|8
224,232,10440,1,0
35,270,10602,1,8
184,144,10764,1,0
368,104,10926,1,8
368,104,11250,5,0
488,368,11575,1,0
200,376,11899,1,0
80,112,12223,1,0
368,104,12548,1,0
488,368,12872,1,8
392,376,13034,5,0
384,232,13196,1,8
224,328,13359,5,8
192,312,13440,1,0
168,288,13521,1,8
152,256,13602,1,0
144,216,13683,1,8
160,176,13764,1,0
184,152,13845,1,0
220,140,13926,1,0
256,144,14007,1,8
280,168,14088,1,0
312,184,14169,1,8
352,184,14250,1,0
392,176,14332,1,8
424,152,14413,1,0
440,120,14494,1,8
448,80,14575,1,0
432,48,14656,1,8
352,0,14818,6,0,B|308:-11|259:16,1,95,8|0
56,136,15142,2,0,B|99:147|148:119,1,95,8|0
208,48,15467,1,8
376,136,15629,1,0
184,144,15791,1,8
16,232,15953,2,0,B|-6:271|7:325,2,95,0|8|0
112,232,16440,1,8
152,232,16521,1,0
192,224,16602,1,0
224,200,16683,1,0
248,168,16764,2,0,B|270:128|256:74,2,95,8|0|8
152,176,17250,5,0
168,80,17413,1,8
256,40,17575,1,0
344,80,17737,1,8
360,176,17899,2,0,B|432:240,2,95,0|8|0
264,168,18386,1,8
264,168,18548,1,0
96,256,18710,2,0,B|0:241,2,95,8|0|8
163,325,19196,1,0
144,176,19359,1,8
163,325,19521,1,0
312,280,19683,1,8
163,325,19845,6,0,B|258:308|288:193,1,190
192,176,20332,2,0,B|208:80|323:50,1,190
392,120,20818,2,0,B|435:109|484:137,1,95
496,232,21142,5,8
496,232,21305,1,8
256,192,21629,1,0
256,192,21791,1,8
16,152,22115,1,0
16,152,22277,1,8
16,152,22359,1,0
16,152,22440,1,0
72,232,22602,6,0,B|88:328,2,95,0|8|0
184,144,23088,2,0,B|168:48,2,95,0|0|8
232,224,23575,2,0,B|327:207|357:92,1,190,0|0
264,96,24061,1,8
264,96,24223,1,0
184,144,24386,2,0,B|89:161|59:276,1,190,0|8
232,224,24872,2,0,B|328:200,1,95
392,136,25196,1,0
480,304,25359,1,8
480,304,25683,5,0
400,256,25845,1,0
304,272,26007,1,8
240,344,26169,2,0,B|145:327|115:212,1,190,0|0
88,304,26656,1,8
176,272,26818,2,0,B|249:209|218:95,1,190,0|0
128,136,27305,2,0,B|48:192,2,95,8|0|0
128,136,27953,5,8
208,88,28115,1,0
304,104,28277,1,0
368,176,28440,2,0,B|463:159|493:44,2,190
312,104,29250,2,0,B|269:93|220:121,1,95,8|0
56,296,29575,2,0,B|99:307|148:279,1,95
240,280,29899,1,8
240,280,30223,5,0
368,224,30386,1,0
200,136,30548,1,8
376,64,30710,2,0,B|449:126|418:240,1,190
328,208,31196,1,8
328,208,31359,2,0,B|294:298|176:308,1,190
40,352,31845,2,0,B|29:309|57:260,1,95,8|0
136,216,32169,1,0
136,216,32250,1,0
136,216,32332,1,0
56,40,32494,1,8
56,40,32818,6,0,B|30:76|40:132,1,95,0|8
248,248,33142,2,0,B|273:211|263:155,1,95,0|8
192,88,33467,1,0
168,176,33629,1,8
384,72,33791,1,0
424,304,33953,2,0,B|383:284|364:231,1,95,8|0
288,288,34277,1,8
296,96,34440,1,0
192,312,34602,1,8
200,72,34764,1,0
120,128,34926,2,0,B|32:160,1,95,8|0
56,256,35250,2,0,B|144:224,1,95,8|0
216,160,35575,5,8
312,168,35737,1,0
360,248,35899,1,8
312,328,36061,2,0,B|267:316|219:345,1,95,0|8
416,208,36386,2,0,B|460:219|508:190,2,95,0|8|0
344,144,36872,1,8
232,296,37034,1,0
136,312,37196,2,0,B|170:222|288:212,1,190,8|8
360,272,37683,2,0,B|406:276|448:239,1,95,0|8
400,104,38007,2,0,B|404:57|367:15,1,95,0|8
272,8,38332,5,0
320,144,38494,1,8
184,112,38656,1,0
136,248,38818,1,8
272,280,38980,1,0
320,144,39142,6,0,B|257:71|142:102,1,190,8|8
72,160,39629,1,0
240,248,39791,1,8
160,200,39953,2,0,B|70:234|60:352,1,190
152,312,40440,1,8
240,272,40602,1,0
328,312,40764,1,8
416,280,40926,1,0
416,280,41088,2,0,B|455:192|378:101,1,190,8|8
340,96,41494,5,0
304,72,41575,1,0
269,61,41656,1,0
230,68,41737,1,0
201,90,41818,1,0
183,125,41899,1,0
182,166,41980,1,0
163,194,42061,1,0
132,207,42142,1,0
93,214,42223,1,0
59,204,42305,1,0
30,177,42386,1,0
15,139,42467,1,0
25,104,42548,1,8
52,75,42629,1,0
90,60,42710,1,0
125,71,42791,1,0
152,96,42872,1,8
168,128,42953,1,0
160,168,43034,1,0
144,200,43115,1,0
112,216,43196,6,0,B|64:264|72:352,1,142.499995753169,8|0
152,312,43683,1,0
200,240,43845,1,0
200,240,44007,2,0,B|248:192|240:104,1,142.499995753169,0|0
168,56,44494,1,0
104,112,44656,1,8
120,200,44818,1,0
200,240,44980,2,0,B|261:268|341:231,1,142.499995753169,8|0
288,160,45467,6,0,B|336:111|327:23,2,142.499995753169
200,152,46277,1,0
208,240,46440,1,8
288,280,46602,2,0,B|349:308|429:271,1,142.499995753169,0|0
320,200,47088,1,0
232,216,47250,2,0,B|170:244|147:330,1,142.499995753169,8|0
144,240,47737,2,0,B|115:178|29:155,1,142.499995753169,8|8
16,248,48223,5,0
128,152,48386,1,8
256,208,48548,1,0
496,248,48710,1,8
384,152,48872,1,0
256,208,49034,2,0,B|222:241|224:297,1,95,0|0
456,224,49359,2,0,B|489:190|487:134,1,95,8|0
296,120,49683,2,0,B|233:47|118:78,1,190,0|8
224,176,50169,2,8,B|287:249|402:218,1,190
344,136,50656,5,0
216,272,50818,1,8
160,88,50980,1,0
160,88,51142,1,0
160,88,51305,1,0
160,88,51467,1,0
160,88,51629,1,8
160,88,51791,2,0,B|120:176,1,95,0|8
160,312,52115,2,0,B|200:224,1,95,8|8
224,200,52359,5,0
256,176,52440,1,8
296,168,52521,1,0
336,176,52602,1,8
368,200,52683,2,0,B|384:248,1,47.5,8|8
160,312,53088,5,2
120,224,53250,1,0
152,136,53413,1,2
248,128,53575,2,0,B|281:94|279:38,1,95,4|8
448,208,53899,2,0,B|415:242|417:298,1,95,0|8
360,216,54223,1,0
392,128,54386,1,8
472,296,54548,1,0
288,344,54710,2,0,B|192:359|124:261,1,190,8|8
112,360,55196,1,0
200,208,55359,2,0,B|152:123|221:26,1,190,8|8
304,64,55845,5,0
344,56,55926,1,0
384,64,56007,1,8
416,88,56088,1,0
432,120,56169,2,0,B|456:216,1,95,0|8
384,280,56494,1,0
384,280,56656,2,0,B|452:351,2,95,8|0|8
192,280,57142,5,0
192,280,57305,1,8
360,184,57467,1,0
360,184,57629,1,8
160,56,57791,1,0
264,216,57953,1,8
112,328,58115,1,0
8,168,58277,1,8
8,168,58359,1,0
8,168,58440,1,0
8,168,58521,1,0
8,168,58602,1,8
8,168,58683,1,0
8,168,58764,6,0,B|103:183|171:85,1,190
504,216,59250,2,0,B|408:200|340:298,1,190
440,296,59737,1,0
416,152,59899,1,0
256,56,60061,1,8
256,56,60223,5,8
256,328,60548,1,8
256,56,60872,1,8
256,328,61196,1,0
64,192,61521,1,0
448,192,61845,1,0
256,56,62169,1,8
344,168,62332,5,0
120,96,62494,1,8
64,280,62656,5,8
96,296,62737,1,0
136,304,62818,1,0
176,296,62899,1,0
208,272,62980,1,8
224,240,63061,1,0
224,200,63142,2,0,B|208:152,1,47.5
304,256,63305,2,0,B|320:304,1,47.5,8|0
344,328,63467,1,0
384,336,63548,1,0
424,328,63629,1,8
448,296,63710,1,0
456,256,63791,6,0,B|459:208|421:167,1,95,8|0
328,192,64115,1,8
456,48,64277,1,0
224,0,64440,2,0,B|128:17|97:133,1,190,8|8
80,224,64926,1,0
176,192,65088,2,0,B|158:287|42:318,1,190,8|8
80,224,65575,1,0
216,272,65737,2,0,B|279:198|394:229,1,190,8|8
440,304,66223,1,0
512,128,66386,1,8
424,160,66548,5,0
336,128,66710,1,8
296,40,66872,1,0
336,128,67034,2,0,B|335:225|226:275,1,190,8|8
40,240,67521,1,0
40,240,67683,2,0,B|13:280|25:334,1,95,8|0
240,224,68007,2,0,B|266:183|254:129,1,95,8|0
312,208,68332,1,8
184,144,68494,5,0
408,64,68656,1,8
504,280,68818,1,0
280,360,68980,1,8
208,112,69142,6,0,B|173:203|54:213,1,190,8|8
304,272,69629,2,0,B|338:180|457:170,1,190,8|8
200,200,70115,1,0
128,320,70277,1,8
16,232,70440,5,8
16,232,70602,1,8
256,192,70926,1,0
256,192,71088,1,8
496,152,71413,1,0
496,152,71575,1,8
496,152,71656,1,0
496,152,71737,1,0
48,248,110656,6,0,B|16:280|16:336,1,95
144,264,110980,1,0
208,192,111142,2,0,B|240:160|296:160,1,95,0|0
384,200,111467,1,0
384,200,111791,2,0,B|299:151|310:31,1,190
480,200,112277,2,0,B|512:296,1,95
416,264,112602,1,0
240,192,112764,1,0
240,192,113088,5,0
152,160,113250,1,0
88,232,113413,1,0
144,312,113575,1,0
232,288,113737,1,0
240,192,113899,2,0,B|251:148|223:99,1,95,0|0
144,312,114223,1,0
232,288,114386,2,0,B|281:373|401:362,1,190
288,208,114872,1,0
288,208,115034,2,0,B|239:123|119:134,1,190
104,224,115521,2,0,B|40:296,1,95
136,320,115845,5,0
264,176,116007,1,0
320,312,116169,1,0
489,220,116332,1,0
336,112,116494,2,0,B|325:68|353:19,2,95
440,208,116980,2,0,B|473:300|388:385,1,190
256,328,117467,2,0,B|212:339|163:311,1,95,0|0
72,320,117791,1,0
112,232,117953,1,0
256,112,118115,2,0,B|300:101|349:129,1,95,0|0
440,120,118440,5,0
400,208,118602,1,0
400,208,118764,2,0,B|389:252|417:301,1,95,0|0
488,360,119088,1,8
312,288,119250,2,0,B|224:248,2,95,0|8|0
408,288,119737,1,8
432,264,119818,1,0
448,232,119899,1,8
448,192,119980,1,0
432,160,120061,1,8
400,144,120142,1,0
360,152,120223,2,0,B|328:119|328:62,1,95,8|0
416,32,120548,5,8
336,208,120710,1,8
120,112,120872,1,0
312,304,130926,6,0,B|294:207|393:138,1,190
480,160,131413,1,0
368,248,131575,1,0
312,64,131737,1,0
224,104,131899,2,0,B|127:86|58:185,1,190,0|0
200,200,132386,1,0
296,176,132548,2,0,B|381:127|371:7,1,190,0|0
248,88,133034,1,0
192,168,133196,2,0,B|144:216|184:256|184:256|184:304|136:328,1,190
48,296,133683,5,0
112,120,133845,1,0
304,96,134007,1,0
384,320,134169,1,0
384,320,134494,6,0,B|432:272|392:232|392:232|392:184|440:160,1,190
512,224,134980,1,0
438,160,135142,2,0,B|389:74|269:84,1,190,0|0
224,168,135629,1,0
224,168,135791,2,0,B|126:185|57:87,1,190,0|0
264,256,136277,5,0
224,168,136440,1,0
128,192,136602,2,0,B|80:240|120:280|120:280|120:328|72:352,1,190,0|0
384,192,137088,2,0,B|432:144|392:104|392:104|392:56|440:32,1,190,0|0
216,224,137575,1,0
296,160,137737,1,0
152,152,137899,1,0
360,232,138061,1,0
88,80,138386,5,0
424,304,138710,1,0
88,304,139034,1,0
424,80,139359,1,0
256,192,139683,1,0
256,192,140007,2,0,B|256:288,2,95
344,80,140494,5,0
376,96,140575,1,0
392,128,140656,1,0
392,160,140737,1,0
376,192,140818,1,0
352,216,140899,1,0
320,224,140980,1,0
288,208,141061,1,0
272,184,141142,1,0
240,168,141223,1,0
208,168,141305,1,0
176,176,141386,1,0
152,200,141467,1,0
144,232,141548,1,0
152,264,141629,2,0,B|160:312,2,47.5
100,320,150548,6,0,B|108:248,1,71.2499978765846
36,200,150872,2,0,B|64:138|150:115,1,142.499995753169,0|0
296,40,151521,1,0
296,40,151683,1,0
296,40,152007,2,0,B|408:80|408:204,1,213.749993629754
256,288,152818,1,0
256,288,153142,6,0,B|200:240,1,71.2499978765846
120,272,153467,2,0,B|28:196|70:79,1,213.749993629754
152,120,154115,1,0
152,120,154278,1,0
152,120,154602,2,0,B|180:58|266:35,1,142.499995753169,0|0
256,192,155413,5,0
256,192,155737,1,0
256,192,156061,1,0
256,192,156142,12,0,157845
160,320,158007,1,0
184,296,158088,1,0
200,264,158169,1,0
200,224,158250,1,0
184,192,158332,1,0
152,176,158413,1,0
112,176,158494,1,0
80,152,158575,1,0
72,112,158656,1,0
256,192,167083,5,0
256,192,167164,12,0,173569
