osu file format v13

[General]
AudioFilename: Fixed Star.mp3
AudioLeadIn: 0
PreviewTime: 50428
Countdown: 1
SampleSet: Soft
StackLeniency: 0.7
Mode: 0
LetterboxInBreaks: 1
WidescreenStoryboard: 0

[Editor]
Bookmarks: 61545
DistanceSpacing: 0.5
BeatDivisor: 4
GridSize: 4
TimelineZoom: 1

[Metadata]
Title:Fixed Star
TitleUnicode:Fixed Star
Artist:Kawada Mami
ArtistUnicode:Kawada Mami
Creator:xSiRix
Version:Insane
Source:To Aru Majutsu no Index Endymion no Kiseki
Tags:
BeatmapID:431956
BeatmapSetID:179698

[Difficulty]
HPDrainRate:6
CircleSize:5
OverallDifficulty:6
ApproachRate:9
SliderMultiplier:1.8
SliderTickRate:2

[Events]
//Background and Video events
0,0,"Fixed Star v1.jpg",0,0
//Break Periods
2,74010,79034
//Storyboard Layer 0 (Background)
//Storyboard Layer 1 (Fail)
//Storyboard Layer 2 (Pass)
//Storyboard Layer 3 (Foreground)
//Storyboard Sound Samples
//Background Colour Transformations
3,100,163,162,255

[TimingPoints]
575.221449072609,352.941176470588,4,2,0,100,1,0
51394,-80,4,2,0,100,0,1
73104,-80,4,2,0,5,0,0
73281,-80,4,2,0,100,0,0
73457,-80,4,2,0,5,0,0
73634,-80,4,2,0,100,0,0
79634,-100,4,2,0,100,0,0
107869,-80,4,2,0,100,0,1
119163,-80,4,2,0,100,0,0

[HitObjects]
436,100,11869,6,0,B|404:132|404:132|344:152,1,90
304,68,12222,1,0,0:0:0:0:
216,44,12398,1,0,0:0:0:0:
128,108,12575,2,0,P|148:180|180:204,2,90
256,160,13104,1,0,0:0:0:0:
304,248,13281,1,0,0:0:0:0:
404,288,13457,6,0,B|416:244|416:244|400:192,2,90
304,248,13986,1,0,0:0:0:0:
224,312,14163,2,0,B|252:348|252:348|296:360,2,90
204,288,14604,1,0,0:0:0:0:
188,264,14692,6,0,B|152:244|152:244|100:244,1,90
28,168,15045,2,0,L|108:108,1,90
84,32,15398,1,0,0:0:0:0:
176,28,15575,2,0,B|208:60|208:60|256:72,1,90
332,128,15928,1,0,0:0:0:0:
408,68,16104,6,0,B|436:104|436:104|448:168,2,90
316,28,16634,1,0,0:0:0:0:
272,152,16810,1,0,0:0:0:0:
364,196,16986,1,0,0:0:0:0:
256,72,17163,2,0,B|216:56|216:56|136:68,1,90
144,136,17428,1,0,0:0:0:0:
144,136,17516,6,0,B|165:179|165:179|204:195,2,90
104,224,18045,1,0,0:0:0:0:
124,316,18222,2,0,B|87:342|87:342|38:348,1,90
8,252,18575,1,0,0:0:0:0:
72,136,18751,6,0,B|104:100|104:100|160:84,2,90
104,224,19281,1,0,0:0:0:0:
192,228,19457,1,0,0:0:0:0:
256,300,19634,2,0,B|280:336|280:336|348:356,1,90
384,268,19986,1,0,0:0:0:0:
440,188,20163,2,0,L|460:144,1,45
384,148,20339,6,0,B|368:104|368:104|316:72,1,90
276,136,20692,1,0,0:0:0:0:
196,68,20869,1,0,0:0:0:0:
128,148,21045,2,0,L|160:252,1,90
154,234,21310,1,0,0:0:0:0:
154,234,21398,1,0,0:0:0:0:
440,346,21575,6,0,L|433:292,1,45
481,234,21751,2,0,B|451:197|451:197|394:168,1,90
288,168,22016,1,0,0:0:0:0:
288,168,22104,2,0,B|312:206|312:206|372:241,1,90
400,296,22369,1,0,0:0:0:0:
400,296,22457,2,0,B|424:288|424:288|440:252,2,45
320,304,22722,1,0,0:0:0:0:
244,288,22810,1,0,0:0:0:0:
176,244,22898,1,0,0:0:0:0:
136,176,22986,2,0,L|120:124,1,45
156,48,23163,6,0,B|188:60|188:60|232:112,1,90
292,232,23516,2,0,B|296:200|296:200|280:128,1,90
344,72,23781,1,0,0:0:0:0:
344,72,23869,2,0,B|304:48|304:48|252:56,2,90
420,144,24398,2,0,L|452:104,1,45
460,148,24575,6,0,L|400:236,1,90
324,172,24928,1,0,0:0:0:0:
236,196,25104,1,0,0:0:0:0:
184,272,25281,2,0,L|92:240,1,90
100,104,25634,2,0,L|152:124,1,45
204,192,25810,2,0,L|136:164,1,45
236,128,25986,6,0,B|280:152|280:152|328:152,1,90
408,92,26339,1,0,0:0:0:0:
308,268,26516,1,0,0:0:0:0:
280,288,26604,1,0,0:0:0:0:
248,292,26692,2,0,B|204:304|204:304|156:352,2,90
324,240,27222,1,0,0:0:0:0:
256,152,27398,5,0,0:0:0:0:
400,196,27575,1,0,0:0:0:0:
428,272,27751,1,0,0:0:0:0:
448,128,27928,1,0,0:0:0:0:
324,76,28104,1,0,0:0:0:0:
324,76,28192,2,0,L|236:112,1,90
164,116,28457,1,0,0:0:0:0:
156,152,28545,1,0,0:0:0:0:
148,188,28634,2,0,L|136:236,1,45
192,292,28810,6,0,B|224:256|224:256|280:236,1,90
312,332,29163,2,0,B|356:344|356:344|392:380,2,90
332,212,29692,1,0,0:0:0:0:
332,212,29781,1,0,0:0:0:0:
332,212,29869,2,0,B|376:196|376:196|408:136,1,90
336,104,30134,5,0,0:0:0:0:
336,104,30222,2,0,B|324:60|324:60|270:35,1,90
452,164,30575,2,0,L|476:264,1,90
296,348,30928,2,0,L|268:248,1,90
376,284,31281,1,0,0:0:0:0:
376,284,31369,1,0,0:0:0:0:
256,184,31545,5,0,0:0:0:0:
256,184,31634,2,0,B|224:216|224:216|176:216,1,90
64,192,31986,2,0,B|76:236|76:236|128:280,1,90
180,376,32339,2,0,B|188:332|188:332|180:276,1,90
144,88,32692,2,0,B|144:128|144:128|160:200,1,90
232,212,32957,5,0,0:0:0:0:
232,212,33045,2,0,B|256:256|256:264|256:264|260:304,1,90
336,240,33398,1,0,0:0:0:0:
300,352,33575,1,0,0:0:0:0:
424,288,33751,1,0,0:0:0:0:
448,256,33839,1,0,0:0:0:0:
460,216,33928,1,0,0:0:0:0:
460,176,34016,1,0,0:0:0:0:
452,136,34104,2,0,L|424:72,1,45
288,144,34281,2,0,L|308:192,1,45
424,144,34457,6,0,B|404:100|404:100|344:72,2,90
436,320,34986,1,0,0:0:0:0:
272,308,35163,1,0,0:0:0:0:
372,220,35339,1,0,0:0:0:0:
356,368,35516,1,0,0:0:0:0:
224,348,35692,5,0,0:0:0:0:
248,328,35781,1,0,0:0:0:0:
272,308,35869,2,0,B|268:260|268:260|288:216,1,90
208,192,36222,1,0,0:0:0:0:
356,280,36398,2,0,B|420:296|420:296|484:272|492:176,1,180
396,184,36839,2,0,L|444:136,1,45
504,72,37016,2,0,L|468:112,1,45
420,48,37192,5,0,0:0:0:0:
420,48,37281,2,0,L|332:128,1,90
288,40,37634,1,0,0:0:0:0:
316,184,37810,1,0,0:0:0:0:
224,168,37986,2,0,B|216:212|216:212|244:280,1,90
340,268,38339,1,0,0:0:0:0:
340,376,38516,1,0,0:0:0:0:
416,236,38692,6,0,B|432:188|432:188|416:128,1,90
232,224,39045,2,0,B|224:264|224:264|240:324,1,90
416,236,39398,1,0,0:0:0:0:
232,224,39575,1,0,0:0:0:0:
421,149,39751,1,0,0:0:0:0:
421,149,39928,2,0,L|460:124,1,45
424,112,40104,6,0,L|344:172,1,90
248,128,40457,2,0,B|232:172|232:172|252:232,1,90
392,52,40810,2,0,L|312:112,1,90
316,212,41163,1,0,0:0:0:0:
316,212,41339,5,0,0:0:0:0:
316,212,41428,1,0,0:0:0:0:
316,212,41516,2,0,B|272:228|272:228|252:268,2,90
396,152,42045,2,0,B|436:112|436:112|420:72|420:72|368:76|320:40,1,180
260,88,42486,1,0,0:0:0:0:
260,88,42575,2,0,L|240:36,2,45
196,152,42839,1,0,0:0:0:0:
196,152,42928,6,0,B|184:196|184:196|140:228,1,90
104,140,43281,2,0,L|28:196,1,90
111,353,43634,2,0,L|184:300,1,90
116,156,43986,2,0,L|40:212,1,90
68,280,44251,5,0,0:0:0:0:
68,280,44339,2,0,L|160:212,1,90
228,300,44692,1,0,0:0:0:0:
256,216,44869,1,0,0:0:0:0:
170,157,45045,1,0,0:0:0:0:
357,171,45222,1,0,0:0:0:0:
339,362,45398,1,0,0:0:0:0:
152,348,45575,5,0,0:0:0:0:
152,348,45663,1,0,0:0:0:0:
152,348,45751,2,0,B|128:308|128:308|136:256,2,90
228,300,46281,1,0,0:0:0:0:
296,352,46457,1,0,0:0:0:0:
396,280,46634,1,0,0:0:0:0:
296,352,46810,1,0,0:0:0:0:
368,204,46986,1,0,0:0:0:0:
216,140,47163,6,0,B|260:152|260:152|320:192,2,90
348,112,47692,1,0,0:0:0:0:
348,112,47781,1,0,0:0:0:0:
348,112,47869,2,0,B|392:100|392:100|436:64,2,90
192,48,48398,1,0,0:0:0:0:
140,268,48575,6,0,B|120:208|120:208|116:228|100:240,1,90
24,277,48928,2,0,B|28:324|28:324|52:360,1,90
260,288,49281,2,0,B|252:240|252:240|216:200,1,90
192,48,49634,1,0,0:0:0:0:
292,180,49810,1,0,0:0:0:0:
336,80,49986,5,0,0:0:0:0:
376,224,50163,1,0,0:0:0:0:
336,80,50339,1,0,0:0:0:0:
284,272,50516,1,0,0:0:0:0:
384,360,50692,2,0,B|424:336|424:336|440:288,1,90
444,264,50957,1,0,0:0:0:0:
456,236,51045,2,0,B|460:212|460:212|456:176,1,45
284,272,51222,2,0,B|280:292|280:292|284:328,1,45
376,224,51398,6,0,B|392:168|392:168|376:100,2,112.5,0|0|0,0:0|0:0|0:0,0:0:0:0:
280,48,51928,2,0,L|312:160,2,112.5
256,224,52457,2,0,B|221:210|221:210|222:187|238:174|238:174|224:122,1,112.5
160,124,52722,5,0,0:0:0:0:
160,124,52810,2,0,B|144:164|144:164|104:168|64:236,1,112.5
180,252,53163,1,0,0:0:0:0:
256,324,53339,2,0,B|216:352|216:352|184:336|112:368,1,112.5
356,280,53692,1,0,0:0:0:0:
452,196,53869,2,0,L|456:136,1,56.25
312,200,54045,2,0,L|320:264,1,56.25
384,152,54222,6,0,B|376:124|376:124|400:116|412:84|412:84|400:48,2,112.5,0|0|0,0:0|0:0|0:0,0:0:0:0:
128,152,54751,2,0,B|136:124|136:124|112:116|100:84|100:84|112:48,2,112.5,0|0|0,0:0|0:0|0:0,0:0:0:0:
176,288,55281,2,0,L|208:228,1,56.25
309,238,55457,2,0,L|336:288,1,56.25
416,340,55634,6,0,P|448:288|452:212,1,112.5
420,120,55986,1,0,0:0:0:0:
368,240,56163,2,0,P|356:144|320:112,2,112.5
348,268,56604,1,0,0:0:0:0:
320,288,56692,2,0,P|272:320|232:304,1,56.25
164,180,56869,2,0,P|196:156|236:148,1,56.25
276,152,57045,6,0,P|360:148|392:116,1,112.5
436,184,57310,2,0,L|476:228,1,56.25
308,84,57575,2,0,P|252:68|176:108,1,112.5
124,112,57839,2,0,L|72:64,1,56.25
48,208,58104,1,0,0:0:0:0:
124,320,58281,5,0,0:0:0:0:
124,320,58369,1,0,0:0:0:0:
124,320,58457,2,0,B|156:296|156:296|156:300|160:260|136:228,1,112.5
87,154,58722,2,0,L|124:112,1,56.25
256,172,58986,5,0,0:0:0:0:
232,304,59163,2,0,B|248:336|248:336|288:344|304:320|304:320|364:324,1,112.5
352,308,59428,1,0,0:0:0:0:
376,284,59516,1,0,0:0:0:0:
388,252,59604,1,0,0:0:0:0:
384,220,59692,1,0,0:0:0:0:
368,192,59781,1,0,0:0:0:0:
376,160,59869,6,0,B|396:136|396:136|424:136|444:108|444:108|428:84,1,112.5
360,64,60134,2,0,L|376:4,1,56.25
200,48,60398,2,0,B|216:84|260:100|260:100|272:152,1,112.5
266,130,60663,1,0,0:0:0:0:
266,130,60751,1,0,0:0:0:0:
112,144,60928,2,0,P|156:188|212:216,1,112.5
228,288,61192,5,0,0:0:0:0:
228,288,61281,2,0,L|262:344,1,56.25
360,364,61457,2,0,L|332:308,1,56.25
272,200,61634,2,0,L|300:256,1,56.25
364,204,61810,2,0,L|336:152,1,56.25
376,80,61986,2,0,L|344:16,1,56.25
252,8,62163,2,0,L|180:44,1,56.25
148,80,62339,1,0,0:0:0:0:
116,148,62428,1,0,0:0:0:0:
116,224,62516,1,0,0:0:0:0:
156,288,62604,1,0,0:0:0:0:
224,320,62692,6,0,B|264:332|292:304|292:304|284:228,1,112.5
340,216,62957,2,0,L|328:148,1,56.25
196,172,63222,2,0,P|208:132|304:88,1,112.5
376,108,63575,2,0,L|396:40,1,56.25
420,96,63751,2,0,P|392:192|416:244,1,112.5
324,256,64016,5,0,0:0:0:0:
324,256,64104,2,0,B|280:248|280:248|260:228|260:204|260:204|276:164,1,112.5
180,228,64457,2,0,B|166:251|166:251|133:273|77:268,1,112.5
56,148,64810,1,0,0:0:0:0:
56,148,64986,2,0,L|24:208,1,56.25
76,184,65163,2,0,B|104:132|104:132|144:136|180:96,1,112.5
180,228,65516,6,0,B|224:240|224:240|236:256|260:264|248:308|248:308|228:320,1,112.5
212,359,65781,2,0,P|188:344|176:320,1,56.25
328,248,66045,2,0,B|320:212|292:188|292:188|320:136,1,112.5
420,188,66398,1,0,0:0:0:0:
420,188,66486,1,0,0:0:0:0:
420,188,66575,1,0,0:0:0:0:
224,152,66751,1,0,0:0:0:0:
180,228,66928,6,0,B|144:204|144:204|120:164|144:108,1,112.5
188,80,67192,2,0,P|212:104|216:144,1,56.25
200,352,67457,1,0,0:0:0:0:
116,320,67634,1,0,0:0:0:0:
272,288,67810,2,0,L|316:240,2,56.25
124,208,68163,5,0,0:0:0:0:
28,148,68339,2,0,P|48:80|96:56,1,112.5
124,208,68692,1,0,0:0:0:0:
176,144,68869,2,0,P|220:208|208:268,1,112.5
160,332,69222,1,0,0:0:0:0:
124,208,69398,1,0,0:0:0:0:
160,332,69575,1,0,0:0:0:0:
284,288,69751,5,0,0:0:0:0:
256,168,69928,1,0,0:0:0:0:
204,248,70104,1,0,0:0:0:0:
212,80,70281,1,0,0:0:0:0:
352,176,70457,1,0,0:0:0:0:
204,248,70634,1,0,0:0:0:0:
148,160,70810,1,0,0:0:0:0:
304,248,70986,1,0,0:0:0:0:
392,104,71163,5,0,0:0:0:0:
392,104,71251,1,0,0:0:0:0:
392,104,71339,2,0,L|444:156,1,56.25
396,240,71516,1,0,0:0:0:0:
396,240,71604,1,0,0:0:0:0:
396,240,71692,2,0,L|352:304,1,56.25
288,188,71869,1,0,0:0:0:0:
288,188,71957,1,0,0:0:0:0:
288,188,72045,2,0,L|332:124,1,56.25
256,88,72222,1,0,0:0:0:0:
256,88,72310,1,0,0:0:0:0:
256,88,72398,1,0,0:0:0:0:
88,228,72928,6,0,B|120:236|120:236|132:276|132:276|184:312|248:288,1,168.75
221,295,73281,2,0,B|272:264|272:264|292:292|320:296|320:296|384:256,1,168.75
412,196,73634,2,0,P|464:244|476:296,1,112.5
124,268,79634,6,0,B|104:228|104:228|104:168,1,90
184,128,79986,1,0,0:0:0:0:
172,28,80163,1,0,0:0:0:0:
88,80,80339,2,0,B|44:76|44:76|0:92,1,90
184,128,80692,2,0,B|228:144|228:144|292:140,1,90
368,60,81045,1,0,0:0:0:0:
372,308,81222,2,0,B|328:320|328:320|256:312,2,90
432,120,81751,2,0,B|468:92|468:92|512:76,2,90
412,140,82192,1,0,0:0:0:0:
380,152,82281,1,0,0:0:0:0:
352,152,82369,1,0,0:0:0:0:
320,136,82457,6,0,B|280:116|280:116|208:120,2,90
360,240,82986,1,0,0:0:0:0:
448,184,83163,1,0,0:0:0:0:
256,232,83339,2,0,B|216:208|216:208|176:144,1,90
360,240,83692,1,0,0:0:0:0:
256,232,83869,2,0,B|216:208|216:208|176:144,1,90
196,296,84222,2,0,B|156:272|156:272|116:208,1,90
300,104,84575,1,0,0:0:0:0:
376,64,84752,1,0,0:0:0:0:
404,176,84928,1,0,0:0:0:0:
216,124,85104,2,0,L|240:188,1,45
300,104,85281,6,0,B|304:60|304:60|296:8,1,90
108,264,85634,2,0,L|136:304,1,45
204,264,85810,2,0,L|216:200,1,45
268,324,85986,2,0,B|316:348|316:348|376:340,1,90
448,296,86251,2,0,L|400:284,1,45
296,188,86516,5,0,0:0:0:0:
84,128,86692,1,0,0:0:0:0:
200,120,86869,2,0,L|224:40,1,45
296,116,87045,2,0,P|352:176|400:180,2,90
444,200,87575,2,0,L|400:240,1,45
392,352,87751,2,0,L|388:292,1,45
320,248,87928,2,0,B|276:240|276:240|208:256,1,90
40,296,88281,6,0,L|32:248,1,45
128,332,88457,1,0,0:0:0:0:
160,188,88634,2,0,L|148:244,1,45
76,264,88810,1,0,0:0:0:0:
64,232,88898,1,0,0:0:0:0:
52,200,88986,1,0,0:0:0:0:
40,168,89075,1,0,0:0:0:0:
28,136,89163,2,0,L|64:84,1,45
140,136,89339,2,0,L|168:176,1,45
260,124,89516,5,0,0:0:0:0:
284,104,89604,1,0,0:0:0:0:
296,76,89692,2,0,L|304:32,1,45
376,136,89869,1,0,0:0:0:0:
408,192,89957,1,0,0:0:0:0:
412,260,90045,2,0,L|392:316,1,45
336,360,90222,2,0,L|388:384,2,45
272,344,90486,1,0,0:0:0:0:
212,328,90575,1,0,0:0:0:0:
152,304,90663,1,0,0:0:0:0:
92,284,90751,1,0,0:0:0:0:
32,264,90839,1,0,0:0:0:0:
0,196,90928,6,0,B|32:164|32:164|56:104,1,90
144,184,91281,1,0,0:0:0:0:
32,264,91458,1,0,0:0:0:0:
48,122,91634,2,0,B|96:112|96:112|160:144,1,90
272,256,91986,2,0,B|312:232|312:232|352:176,2,90
240,272,92428,1,0,0:0:0:0:
208,272,92516,1,0,0:0:0:0:
392,184,92692,1,0,0:0:0:0:
368,152,92781,1,0,0:0:0:0:
336,136,92869,2,0,B|296:104|296:104|272:48,1,90
56,192,93222,6,0,L|96:216,1,45
216,240,93398,2,0,L|144:200,1,45
72,256,93575,2,0,L|136:288,1,45
208,272,93751,2,0,B|256:256|264:248|304:192,1,90
240,120,94104,1,0,0:0:0:0:
208,272,94281,1,0,0:0:0:0:
360,312,94457,1,0,0:0:0:0:
400,152,94634,1,0,0:0:0:0:
216,144,94810,1,0,0:0:0:0:
232,312,94986,1,0,0:0:0:0:
384,288,95163,6,0,B|376:264|376:264|344:232,1,45
272,240,95339,2,0,B|256:224|256:224|248:192,1,45
320,152,95516,2,0,B|332:176|332:176|336:208,1,45
312,300,95692,2,0,B|292:316|292:316|248:324,1,45
176,284,95869,1,0,0:0:0:0:
360,312,96045,1,0,0:0:0:0:
176,284,96222,2,0,L|280:300,1,90
360,344,96486,2,0,L|404:320,1,45
212,228,96751,6,0,L|236:280,1,45
168,172,96928,1,0,0:0:0:0:
400,148,97104,2,0,L|368:216,1,45
432,80,97281,1,0,0:0:0:0:
312,284,97457,2,0,L|304:340,1,45
304,212,97634,2,0,B|300:168|300:168|276:104,2,90
355,278,98075,6,0,B|331:286|331:286|312:284,1,45
164,248,98339,1,0,0:0:0:0:
355,278,98516,2,0,B|312:284|312:284|244:260,2,90
416,216,98957,1,0,0:0:0:0:
400,224,99045,2,0,B|444:208|444:208|496:148,1,90
496,80,99398,5,0,0:0:0:0:
344,120,99575,1,0,0:0:0:0:
256,4,99751,1,0,0:0:0:0:
296,192,99928,1,0,0:0:0:0:
256,4,100104,2,0,B|248:48|248:48|204:120,1,90
0,236,100457,1,0,0:0:0:0:
132,212,100634,1,0,0:0:0:0:
144,68,100810,2,0,B|184:100|184:100|248:112|264:144,1,135
232,232,101163,2,0,B|188:256|188:256|160:316,1,90
368,68,101516,2,0,B|328:100|328:100|264:112|248:144,1,135
280,232,101869,2,0,B|324:256|324:256|352:316,1,90
256,88,102222,5,0,0:0:0:0:
184,152,102398,1,0,0:0:0:0:
80,44,102575,2,0,B|124:28|124:28|176:-12,1,90
316,236,102928,2,0,B|272:252|272:252|220:292,2,90
448,184,103457,1,0,0:0:0:0:
184,152,103634,2,0,B|160:192|160:192|148:272,1,90
411,263,103986,2,0,B|440:228|440:228|448:184,1,90
168,240,104339,1,0,0:0:0:0:
411,263,104516,2,0,B|440:228|440:228|448:184,1,90
168,240,104869,1,0,0:0:0:0:
24,284,105045,6,0,B|60:320|60:320|112:332,1,90
472,316,105398,2,0,B|436:284|436:284|376:272,1,90
32,160,105751,2,0,B|64:132|64:132|116:116,1,90
496,24,106104,2,0,B|460:44|460:44|392:56,1,90
328,216,106457,1,0,0:0:0:0:
144,292,106634,1,0,0:0:0:0:
328,216,106810,1,0,0:0:0:0:
76,144,106986,1,0,0:0:0:0:
236,96,107163,2,0,L|256:136,1,45
368,288,107339,2,0,L|328:232,1,45
276,32,107516,2,0,L|284:96,1,45
320,336,107692,2,0,L|308:272,1,45
328,216,107869,6,0,B|272:204|272:204|204:208,2,112.5
76,308,108398,2,0,B|88:248|88:248|144:176,2,112.5
248,320,108928,2,0,B|272:304|272:304|316:260,1,56.25
448,200,109104,2,0,B|416:204|416:204|380:216,1,56.25
288,184,109281,2,0,B|244:160|244:160|228:128|228:128|160:92,1,112.5
76,164,109634,1,0,0:0:0:0:
384,136,109810,2,0,B|424:144|436:184|436:184|424:256|388:248,1,112.5
312,312,110163,2,0,L|248:340,1,56.25
200,308,110339,1,0,0:0:0:0:
200,308,110428,1,0,0:0:0:0:
200,308,110516,2,0,L|120:312,1,56.25
48,260,110692,6,0,P|128:228|180:184,2,112.5
464,124,111222,6,0,P|384:156|332:200,2,112.5
484,156,111663,1,0,0:0:0:0:
492,200,111751,2,0,P|488:220|452:276,1,56.25
304,248,111928,2,0,P|292:208|292:172,1,56.25
384,80,112104,2,0,P|388:156|408:224,2,112.5
252,124,112634,1,0,0:0:0:0:
140,92,112810,1,0,0:0:0:0:
56,176,112986,1,0,0:0:0:0:
72,200,113075,1,0,0:0:0:0:
88,224,113163,1,0,0:0:0:0:
104,248,113251,1,0,0:0:0:0:
120,272,113339,1,0,0:0:0:0:
136,296,113428,1,0,0:0:0:0:
152,320,113516,6,0,B|200:352|200:352|288:360,2,112.5
232,248,114045,2,0,B|288:240|288:240|392:272,2,112.5
168,168,114486,1,0,0:0:0:0:
168,168,114574,2,0,L|112:144,1,56.25
152,72,114751,2,0,L|112:16,1,56.25
224,96,114928,2,0,B|248:152|248:152|304:192,1,112.5
440,120,115281,2,0,L|408:56,1,56.25
336,80,115457,2,0,B|304:128|304:128|288:192,1,112.5
152,304,115810,5,0,0:0:0:0:
344,352,115986,1,0,0:0:0:0:
320,336,116075,1,0,0:0:0:0:
296,320,116163,1,0,0:0:0:0:
272,304,116251,1,0,0:0:0:0:
248,288,116339,2,0,L|144:216,2,112.5
320,224,116869,2,0,B|352:176|352:176|448:136,2,112.5
168,160,117398,1,0,0:0:0:0:
344,256,117575,1,0,0:0:0:0:
312,344,117751,6,0,P|280:336|240:336,1,56.25
168,256,117928,2,0,P|160:200|152:176,1,56.25
280,136,118104,2,0,P|312:144|336:144,1,56.25
448,224,118281,2,0,P|448:280|464:304,1,56.25
317,384,118457,2,0,P|277:371|227:368,1,56.25
143,260,118634,2,0,P|138:189|130:158,1,56.25
295,119,118810,2,0,P|335:132|365:134,1,56.25
499,245,118987,2,0,P|494:315|512:347,1,56.25
280,368,119163,6,0,P|256:312|248:232,2,112.5
384,288,119692,2,0,B|408:224|408:224|376:176|376:136|376:136|416:48,1,225
440,80,120134,1,0,0:0:0:0:
472,104,120222,2,0,B|480:136|480:136|472:192,1,56.25
324,224,120398,2,0,P|312:200|304:160,1,56.25
256,88,120575,6,0,L|184:192,1,112.5
272,304,120839,1,0,0:0:0:0:
272,304,120928,2,0,L|192:264,1,56.25
80,232,121104,2,0,L|200:232,2,112.5
256,192,121634,1,0,0:0:0:0:
432,152,121810,2,0,L|312:152,1,112.5
176,88,122163,1,0,0:0:0:0:
228,268,122339,1,0,0:0:0:0:
104,208,122516,2,0,B|144:168|144:168|208:144,1,112.5
228,268,122781,2,0,L|140:236,1,56.25
332,232,123045,1,0,0:0:0:0:
356,144,123222,5,0,0:0:0:0:
252,64,123398,2,0,P|224:116|224:200,1,112.5
408,112,123751,1,0,0:0:0:0:
348,300,123928,2,0,B|400:272|400:272|432:208,1,112.5
308,88,124281,2,0,B|256:112|256:112|224:188,2,112.5
348,300,124810,6,0,L|244:256,1,112.5
16,212,125163,2,0,L|120:256,1,112.5
353,252,125516,2,0,L|241:238,1,112.5
10,259,125869,2,0,L|122:273,1,112.5
352,204,126222,1,0,0:0:0:0:
192,236,126398,1,0,0:0:0:0:
44,136,126575,1,0,0:0:0:0:
168,328,126751,1,0,0:0:0:0:
112,148,126928,1,0,0:0:0:0:
308,204,127104,1,0,0:0:0:0:
380,292,127281,2,0,B|328:320|328:320|256:320,1,112.5
192,156,127634,6,0,L|176:92,3,56.25
252,232,127986,2,0,L|268:288,3,56.25
228,112,128339,2,0,L|208:32,3,56.25
276,200,128692,1,0,0:0:0:0:
276,200,128781,1,0,0:0:0:0:
276,200,128869,1,0,0:0:0:0:
168,264,129398,6,0,P|120:232|104:176,1,112.5
408,181,129751,2,0,P|390:234|344:264,1,112.5
104,344,130104,1,0,0:0:0:0:
408,344,130281,1,0,0:0:0:0:
316,292,130457,6,0,B|348:248|348:248|408:224,1,112.5
196,292,130810,2,0,B|164:248|164:248|104:224,1,112.5
60,296,131163,1,0,0:0:0:0:
256,220,131339,1,0,0:0:0:0:
136,140,131516,6,0,P|140:200|168:248,1,112.5,0|0,0:0|0:0,0:0:0:0:
346,236,131869,2,0,P|373:187|376:132,1,112.5
112,128,132222,2,0,P|116:188|144:236,1,112.5
376,256,132575,2,0,P|402:206|405:151,1,112.5
336,56,132928,1,0,0:0:0:0:
192,296,133104,2,0,L|216:224,1,56.25
236,164,133281,5,0,0:0:0:0:
356,140,133457,1,0,0:0:0:0:
208,152,133634,1,0,0:0:0:0:
384,152,133810,1,0,0:0:0:0:
176,136,133986,1,0,0:0:0:0:
416,164,134163,1,0,0:0:0:0:
152,124,134339,1,0,0:0:0:0:
444,176,134516,1,0,0:0:0:0:
256,284,134692,5,0,0:0:0:0:
320,32,134869,1,0,0:0:0:0:
308,252,135045,1,0,0:0:0:0:
264,56,135222,1,0,0:0:0:0:
344,200,135398,1,0,0:0:0:0:
224,108,135575,1,0,0:0:0:0:
356,136,135751,2,0,B|348:76|348:76|316:28,1,112.5
216,60,136104,5,0,0:0:0:0:
152,160,136281,1,0,0:0:0:0:
412,328,136634,1,0,0:0:0:0:
400,212,136810,1,0,0:0:0:0:
80,124,137163,1,0,0:0:0:0:
108,268,137339,1,0,0:0:0:0:
364,340,137692,1,0,0:0:0:0:
480,136,137869,1,0,0:0:0:0:
340,200,138045,1,0,0:0:0:0:
340,200,138134,1,0,0:0:0:0:
340,200,138222,1,0,0:0:0:0:
448,280,138398,1,0,0:0:0:0:
224,296,138575,1,0,0:0:0:0:
380,112,138751,2,0,B|352:104|352:104|304:120,1,56.25
232,144,138928,5,0,0:0:0:0:
232,144,139104,2,0,P|172:176|20:152,1,225
168,280,139634,2,0,P|240:244|396:252,1,225
452,324,140163,5,0,0:0:0:0:
428,320,140339,1,0,0:0:0:0:
400,312,140516,1,0,0:0:0:0:
364,288,140692,1,0,0:0:0:0:
340,228,140869,1,0,0:0:0:0:
348,152,141045,2,0,L|392:96,1,56.25
260,172,141222,2,0,L|216:228,1,56.25
260,80,141398,2,0,L|304:24,1,56.25
172,104,141575,2,0,L|128:160,1,56.25
48,96,141751,5,0,0:0:0:0:
152,232,141928,1,0,0:0:0:0:
164,52,142104,1,0,0:0:0:0:
44,196,142281,2,0,P|128:148|264:172,2,225
96,284,143163,5,0,0:0:0:0:
200,244,143339,1,0,0:0:0:0:
96,284,143516,1,0,0:0:0:0:
192,160,143692,1,0,0:0:0:0:
96,284,143869,2,0,B|88:224|88:224|108:152,1,112.5
416,284,144222,2,0,B|424:224|424:224|404:152,1,112.5
184,84,144575,6,0,L|260:296,1,225
328,300,145104,2,0,L|252:88,1,225
152,168,145634,2,0,L|192:276,1,112.5
84,148,145986,2,0,L|124:256,1,112.5
388,253,146339,2,0,L|428:148,1,112.5
344,104,146692,1,0,0:0:0:0:
472,296,146869,1,0,0:0:0:0:
264,232,147045,1,0,0:0:0:0:
80,264,147222,2,0,P|116:244|136:216,1,56.25
208,152,147398,6,0,B|264:120|328:144|364:200|364:200|408:196,1,225
440,108,147928,1,0,0:0:0:0:
384,272,148104,1,0,0:0:0:0:
408,88,148281,2,0,B|360:120|360:120|304:128,1,112.5
352,252,148634,2,0,B|400:216|400:216|480:204,1,112.5
256,200,148986,2,0,P|192:176|152:96,2,112.5
272,328,149516,5,0,0:0:0:0:
112,284,149692,1,0,0:0:0:0:
240,56,149869,1,0,0:0:0:0:
400,100,150045,2,0,P|416:112|460:120,1,56.25
424,208,150222,6,0,B|368:216|368:216|300:144|196:172,1,225
112,284,150751,2,0,B|168:276|168:276|236:348|340:320,1,225
168,204,151281,2,0,P|112:152|96:96,1,112.5
240,284,151634,2,0,P|304:328|340:372,2,112.5
300,112,152163,2,0,P|336:64|348:0,2,112.5
160,48,152692,1,0,0:0:0:0:
424,128,152869,2,0,L|372:184,1,56.25
427,279,153045,6,0,B|436:276|356:308|356:308|288:292|288:292|212:312,1,225
72,344,153575,2,0,P|132:292|200:276,1,112.5
284,164,153928,2,0,P|224:216|156:232,1,112.5
36,248,154281,2,0,P|96:196|164:180,1,112.5
400,236,154634,5,0,0:0:0:0:
224,296,154810,1,0,0:0:0:0:
256,120,154986,1,0,0:0:0:0:
400,236,155163,2,0,B|380:288|380:288|312:328,1,112.5
284,312,155428,1,0,0:0:0:0:
224,296,155516,2,0,L|308:200,1,112.5
284,164,155781,1,0,0:0:0:0:
256,120,155869,2,0,B|207:148|207:148|187:200,2,112.5
324,280,156398,2,0,B|356:232|356:232|428:236|460:144,1,168.75
368,144,156751,1,0,0:0:0:0:
173,217,156928,6,0,B|229:209|229:209|269:121|368:144,1,225
360,232,157457,1,0,0:0:0:0:
468,164,157634,1,0,0:0:0:0:
388,332,157810,1,0,0:0:0:0:
368,144,157986,1,0,0:0:0:0:
472,340,158163,1,0,0:0:0:0:
268,192,158339,1,0,0:0:0:0:
512,260,158516,5,0,0:0:0:0:
512,260,158604,1,0,0:0:0:0:
512,260,158692,2,0,B|456:268|456:268|388:256,1,112.5
