osu file format v13

[General]
AudioFilename: eclipse.mp3
AudioLeadIn: 0
PreviewTime: 61483
Countdown: 0
SampleSet: Normal
StackLeniency: 0.7
Mode: 3
LetterboxInBreaks: 0
SpecialStyle: 0
WidescreenStoryboard: 0

[Editor]
DistanceSpacing: 2
BeatDivisor: 4
GridSize: 4
TimelineZoom: 1

[Metadata]
Title:Eclipse
TitleUnicode:Eclipse
Artist:Kawada Mami
ArtistUnicode:Kawada Mami
Creator:CrazyStar
Version:Insane
Source:燐月-リンゲツ-
Tags:I've Selen ringetsu
BeatmapID:542778
BeatmapSetID:233942

[Difficulty]
HPDrainRate:8
CircleSize:4
OverallDifficulty:8
ApproachRate:5
SliderMultiplier:1.4
SliderTickRate:1

[Events]
//Background and Video events
0,0,"Ring.jpg",0,0
//Break Periods
//Storyboard Layer 0 (Background)
//Storyboard Layer 1 (Fail)
//Storyboard Layer 2 (Pass)
//Storyboard Layer 3 (Foreground)
//Storyboard Sound Samples
//Background Colour Transformations
3,100,163,162,255

[TimingPoints]
160,441.176470588235,4,1,0,23,1,0

[HitObjects]
448,192,160,5,0,0:0:0:0:
320,192,601,1,0,0:0:0:0:
192,192,1042,1,0,0:0:0:0:
320,192,1262,1,0,0:0:0:0:
192,192,1483,1,0,0:0:0:0:
64,192,1704,1,0,0:0:0:0:
448,192,2145,1,0,0:0:0:0:
192,192,2365,1,0,0:0:0:0:
192,192,2807,1,0,0:0:0:0:
320,192,3027,1,0,0:0:0:0:
192,192,3248,1,0,0:0:0:0:
448,192,3468,1,0,0:0:0:0:
64,192,3689,1,0,0:0:0:0:
192,192,3909,1,0,0:0:0:0:
64,192,4130,1,0,0:0:0:0:
448,192,4351,1,0,0:0:0:0:
320,192,4461,1,0,0:0:0:0:
64,192,4571,1,0,0:0:0:0:
64,192,4792,1,0,0:0:0:0:
448,192,5012,1,0,0:0:0:0:
192,192,5233,1,0,0:0:0:0:
448,192,5454,1,0,0:0:0:0:
320,192,5674,1,0,0:0:0:0:
64,192,5895,1,0,0:0:0:0:
448,192,6115,1,0,0:0:0:0:
64,192,6336,1,0,0:0:0:0:
320,192,6777,1,0,0:0:0:0:
448,192,6998,1,0,0:0:0:0:
64,192,7218,1,0,0:0:0:0:
192,192,7439,1,0,0:0:0:0:
320,192,7659,1,0,0:0:0:0:
448,192,8101,1,0,0:0:0:0:
192,192,8321,1,0,0:0:0:0:
64,192,8542,1,0,0:0:0:0:
320,192,8762,1,0,0:0:0:0:
64,192,8983,1,0,0:0:0:0:
64,192,9204,1,0,0:0:0:0:
192,192,9424,1,0,0:0:0:0:
320,192,9865,1,0,0:0:0:0:
448,192,10086,1,0,0:0:0:0:
64,192,10307,1,0,0:0:0:0:
320,192,10527,1,0,0:0:0:0:
448,192,10748,128,0,11630:0:0:0:0:
192,192,11189,1,0,0:0:0:0:
64,192,11409,1,0,0:0:0:0:
320,192,11630,128,0,12292:0:0:0:0:
64,192,11851,1,0,0:0:0:0:
448,192,12071,1,0,0:0:0:0:
64,192,12292,128,0,15380:0:0:0:0:
192,192,12512,1,0,0:0:0:0:
448,192,12733,1,0,0:0:0:0:
320,192,12954,1,0,0:0:0:0:
192,192,13174,1,0,0:0:0:0:
320,192,13395,1,0,0:0:0:0:
448,192,13615,1,0,0:0:0:0:
192,192,13836,1,0,0:0:0:0:
320,192,14057,1,0,0:0:0:0:
448,192,14718,128,0,15380:0:0:0:0:
192,192,14718,1,0,0:0:0:0:
320,192,14829,1,0,0:0:0:0:
192,192,14939,1,0,0:0:0:0:
320,192,15049,1,0,0:0:0:0:
192,192,15159,1,0,0:0:0:0:
320,192,15270,1,0,0:0:0:0:
192,192,15380,1,0,0:0:0:0:
320,192,15490,1,0,0:0:0:0:
64,192,15601,1,0,0:0:0:0:
192,192,15656,1,0,0:0:0:0:
320,192,15711,1,0,0:0:0:0:
448,192,15766,1,0,0:0:0:0:
64,192,15821,1,0,0:0:0:0:
192,192,15876,1,0,0:0:0:0:
320,192,15932,1,0,0:0:0:0:
448,192,15987,1,0,0:0:0:0:
192,192,16042,1,0,0:0:0:0:
64,192,16042,1,0,0:0:0:0:
320,192,16152,1,0,0:0:0:0:
192,192,16262,1,0,0:0:0:0:
320,192,16373,1,0,0:0:0:0:
448,192,16483,1,0,0:0:0:0:
64,192,16483,1,0,0:0:0:0:
64,192,16704,1,0,0:0:0:0:
192,192,16704,1,0,0:0:0:0:
448,192,16814,1,0,0:0:0:0:
320,192,16924,1,0,0:0:0:0:
192,192,17034,1,0,0:0:0:0:
448,192,17145,1,0,0:0:0:0:
320,192,17145,1,0,0:0:0:0:
64,192,17255,1,0,0:0:0:0:
320,192,17365,1,0,0:0:0:0:
192,192,17476,1,0,0:0:0:0:
448,192,17586,1,0,0:0:0:0:
64,192,17586,1,0,0:0:0:0:
320,192,17696,1,0,0:0:0:0:
448,192,17807,1,0,0:0:0:0:
320,192,17917,1,0,0:0:0:0:
192,192,18027,1,0,0:0:0:0:
64,192,18027,1,0,0:0:0:0:
448,192,18137,1,0,0:0:0:0:
320,192,18248,1,0,0:0:0:0:
192,192,18248,1,0,0:0:0:0:
448,192,18468,1,0,0:0:0:0:
64,192,18468,1,0,0:0:0:0:
320,192,18579,1,0,0:0:0:0:
192,192,18689,1,0,0:0:0:0:
448,192,18799,1,0,0:0:0:0:
320,192,18909,1,0,0:0:0:0:
64,192,18909,1,0,0:0:0:0:
448,192,19020,1,0,0:0:0:0:
192,192,19130,1,0,0:0:0:0:
64,192,19130,1,0,0:0:0:0:
64,192,19351,1,0,0:0:0:0:
448,192,19351,1,0,0:0:0:0:
320,192,19461,1,0,0:0:0:0:
192,192,19461,1,0,0:0:0:0:
448,192,19571,1,0,0:0:0:0:
64,192,19571,1,0,0:0:0:0:
320,192,19682,1,0,0:0:0:0:
64,192,19792,1,0,0:0:0:0:
320,192,19902,1,0,0:0:0:0:
448,192,20012,1,0,0:0:0:0:
192,192,20012,1,0,0:0:0:0:
64,192,20233,1,0,0:0:0:0:
192,192,20233,1,0,0:0:0:0:
320,192,20343,1,0,0:0:0:0:
448,192,20454,1,0,0:0:0:0:
192,192,20564,1,0,0:0:0:0:
320,192,20674,1,0,0:0:0:0:
64,192,20674,1,0,0:0:0:0:
192,192,20784,1,0,0:0:0:0:
448,192,20895,1,0,0:0:0:0:
320,192,20895,1,0,0:0:0:0:
192,192,21115,1,0,0:0:0:0:
64,192,21115,1,0,0:0:0:0:
448,192,21336,1,0,0:0:0:0:
320,192,21446,1,0,0:0:0:0:
448,192,21557,1,0,0:0:0:0:
192,192,21557,1,0,0:0:0:0:
320,192,21777,1,0,0:0:0:0:
192,192,21998,1,0,0:0:0:0:
64,192,21998,1,0,0:0:0:0:
320,192,22108,1,0,0:0:0:0:
64,192,22218,1,0,0:0:0:0:
320,192,22329,1,0,0:0:0:0:
448,192,22439,1,0,0:0:0:0:
192,192,22439,1,0,0:0:0:0:
320,192,22549,1,0,0:0:0:0:
192,192,22659,1,0,0:0:0:0:
64,192,22659,1,0,0:0:0:0:
192,192,22880,1,0,0:0:0:0:
448,192,22880,1,0,0:0:0:0:
64,192,22990,1,0,0:0:0:0:
320,192,22990,1,0,0:0:0:0:
192,192,23101,1,0,0:0:0:0:
448,192,23101,1,0,0:0:0:0:
320,192,23211,1,0,0:0:0:0:
64,192,23321,1,0,0:0:0:0:
448,192,23432,1,0,0:0:0:0:
192,192,23542,1,0,0:0:0:0:
320,192,23542,1,0,0:0:0:0:
64,192,23762,1,0,0:0:0:0:
320,192,23762,1,0,0:0:0:0:
192,192,23873,1,0,0:0:0:0:
448,192,23983,1,0,0:0:0:0:
64,192,24093,1,0,0:0:0:0:
192,192,24204,1,0,0:0:0:0:
448,192,24204,1,0,0:0:0:0:
320,192,24314,1,0,0:0:0:0:
64,192,24424,1,0,0:0:0:0:
320,192,24534,1,0,0:0:0:0:
448,192,24645,1,0,0:0:0:0:
192,192,24645,1,0,0:0:0:0:
64,192,24755,1,0,0:0:0:0:
320,192,24865,1,0,0:0:0:0:
448,192,24976,1,0,0:0:0:0:
64,192,25086,1,0,0:0:0:0:
192,192,25086,1,0,0:0:0:0:
320,192,25196,1,0,0:0:0:0:
448,192,25307,1,0,0:0:0:0:
192,192,25307,1,0,0:0:0:0:
320,192,25527,1,0,0:0:0:0:
64,192,25527,1,0,0:0:0:0:
192,192,25637,1,0,0:0:0:0:
448,192,25748,1,0,0:0:0:0:
320,192,25858,1,0,0:0:0:0:
192,192,25968,1,0,0:0:0:0:
448,192,25968,1,0,0:0:0:0:
64,192,26079,1,0,0:0:0:0:
448,192,26189,1,0,0:0:0:0:
320,192,26189,1,0,0:0:0:0:
192,192,26409,1,0,0:0:0:0:
64,192,26409,1,0,0:0:0:0:
320,192,26520,1,0,0:0:0:0:
448,192,26520,1,0,0:0:0:0:
192,192,26630,1,0,0:0:0:0:
64,192,26630,1,0,0:0:0:0:
320,192,26685,1,0,0:0:0:0:
448,192,26740,1,0,0:0:0:0:
64,192,26851,1,0,0:0:0:0:
448,192,26961,1,0,0:0:0:0:
64,192,27071,1,0,0:0:0:0:
320,192,27071,1,0,0:0:0:0:
448,192,27182,1,0,0:0:0:0:
64,192,27292,1,0,0:0:0:0:
192,192,27292,1,0,0:0:0:0:
448,192,27402,1,0,0:0:0:0:
320,192,27512,1,0,0:0:0:0:
192,192,27568,1,0,0:0:0:0:
64,192,27623,1,0,0:0:0:0:
448,192,27733,1,0,0:0:0:0:
320,192,27733,1,0,0:0:0:0:
64,192,27843,1,0,0:0:0:0:
448,192,27954,1,0,0:0:0:0:
192,192,27954,1,0,0:0:0:0:
64,192,28064,1,0,0:0:0:0:
448,192,28174,1,0,0:0:0:0:
320,192,28174,1,0,0:0:0:0:
448,192,28395,1,0,0:0:0:0:
320,192,28505,1,0,0:0:0:0:
192,192,28615,1,0,0:0:0:0:
64,192,28615,1,0,0:0:0:0:
320,192,28726,1,0,0:0:0:0:
448,192,28836,1,0,0:0:0:0:
320,192,29057,1,0,0:0:0:0:
192,192,29057,1,0,0:0:0:0:
64,192,29167,1,0,0:0:0:0:
448,192,29277,128,0,29498:0:0:0:0:
192,192,29608,1,0,0:0:0:0:
320,192,29718,1,0,0:0:0:0:
192,192,29939,1,0,0:0:0:0:
320,192,30049,1,0,0:0:0:0:
64,192,30159,1,0,0:0:0:0:
192,192,30159,1,0,0:0:0:0:
320,192,30380,1,0,0:0:0:0:
448,192,30601,1,0,0:0:0:0:
64,192,30821,1,0,0:0:0:0:
192,192,30932,1,0,0:0:0:0:
64,192,31042,1,0,0:0:0:0:
192,192,31262,1,0,0:0:0:0:
320,192,31373,1,0,0:0:0:0:
192,192,31483,1,0,0:0:0:0:
320,192,31704,1,0,0:0:0:0:
192,192,31814,1,0,0:0:0:0:
64,192,31924,1,0,0:0:0:0:
448,192,31924,1,0,0:0:0:0:
