osu file format v12

[General]
AudioFilename: (01)Break a spell.mp3
AudioLeadIn: 0
PreviewTime: 201015
Countdown: 0
SampleSet: Normal
StackLeniency: 0.7
Mode: 0
LetterboxInBreaks: 1
WidescreenStoryboard: 0

[Editor]
Bookmarks: 171187
DistanceSpacing: 0.6
BeatDivisor: 4
GridSize: 4
TimelineZoom: 3.599998

[Metadata]
Title:Break a spell
TitleUnicode:Break a spell
Artist:Kawada Mami
ArtistUnicode:川田まみ
Creator:KiyoshiX101
Version:Insane
Source:Tokyo Ravens
Tags:ending
BeatmapID:377415
BeatmapSetID:153578

[Difficulty]
HPDrainRate:7
CircleSize:5
OverallDifficulty:7
ApproachRate:9
SliderMultiplier:1.6
SliderTickRate:1

[Events]
//Background and Video events
0,0,"ssss.jpg",0,0
//Break Periods
2,160415,170587
//Storyboard Layer 0 (Background)
//Storyboard Layer 1 (Fail)
//Storyboard Layer 2 (Pass)
//Storyboard Layer 3 (Foreground)
//Storyboard Sound Samples
//Background Colour Transformations
3,100,163,162,255

[TimingPoints]
1130,342.857142857143,4,1,1,70,1,0
69358,-100,4,1,1,10,0,0
69702,-100,4,1,3,70,0,1
69788,-100,4,1,1,70,0,1
91645,-100,4,1,1,70,0,0
105359,-133.333333333333,4,1,1,70,0,0
116330,-100,4,1,1,70,0,0
121988,-200,4,1,1,70,0,0
123016,-100,4,1,1,70,0,0
135530,-83.3333333333333,4,1,3,70,0,1
135615,-83.3333333333333,4,1,1,70,0,1
157472,-100,4,1,1,70,0,0
171187,-133.333333333333,4,1,4,70,0,0
179758,-133.333333333333,4,1,1,70,0,0
180058,-133.333333333333,4,1,4,70,0,0
180444,-133.333333333333,4,1,1,70,0,0
180744,-133.333333333333,4,1,4,70,0,0
181130,-133.333333333333,4,1,1,70,0,0
181430,-133.333333333333,4,1,4,70,0,0
181815,-133.333333333333,4,1,1,70,0,0
182115,-100,4,1,4,70,0,0
182244,-100,4,1,1,70,0,0
201358,-90.9090909090909,4,2,1,10,0,0
204101,-90.9090909090909,4,1,3,70,0,1
204187,-90.9090909090909,4,1,1,70,0,1
223301,-90.9090909090909,4,1,1,70,0,0
225358,-90.9090909090909,4,1,1,10,0,0
225444,-90.9090909090909,4,1,1,20,0,0
225530,-90.9090909090909,4,1,1,30,0,0
225615,-90.9090909090909,4,1,1,40,0,0
225701,-90.9090909090909,4,1,1,50,0,0
225787,-90.9090909090909,4,1,1,60,0,0
225872,-90.9090909090909,4,1,1,70,0,0
238044,-90.9090909090909,4,1,1,60,0,0
238387,-90.9090909090909,4,1,1,50,0,0
238730,-90.9090909090909,4,1,1,40,0,0
239072,-90.9090909090909,4,1,1,30,0,0
239415,-90.9090909090909,4,1,1,20,0,0
239758,-90.9090909090909,4,1,1,10,0,0

[Colours]
Combo1 : 64,128,128
Combo2 : 0,64,128
Combo3 : 0,128,192
Combo4 : 128,0,0
Combo5 : 128,0,64
Combo6 : 255,128,64
Combo7 : 255,128,0
Combo8 : 64,0,128

[HitObjects]
360,92,28559,6,0,L|284:124,1,80,4|0,3:2|0:0,0:0:0:0:
212,76,28902,1,8,0:0:0:0:
125,53,29073,1,0,0:0:0:0:
144,148,29245,1,0,0:0:0:0:
125,53,29416,1,8,0:0:0:0:
65,129,29588,2,0,P|44:176|80:288,1,160,8|0,3:2|3:2,0:0:0:0:
149,333,30102,5,0,0:0:0:0:
169,237,30273,1,8,0:0:0:0:
241,305,30445,2,0,P|308:333|381:292,1,160,0|8,0:0|0:0,0:0:0:0:
465,341,30959,1,8,0:0:0:0:
380,293,31130,1,8,3:2:0:0:
465,241,31302,6,0,L|468:156,1,80,0|0,3:2|0:0,0:0:0:0:
477,73,31645,1,8,0:0:0:0:
389,113,31816,2,0,P|304:140|228:84,1,160,0|8,0:0|0:0,0:0:0:0:
173,45,32330,1,8,3:2:0:0:
173,45,32673,5,0,3:2:0:0:
157,141,32845,1,0,0:0:0:0:
88,76,33016,1,8,0:0:0:0:
68,168,33188,2,0,P|40:248|88:328,1,160,0|8,0:0|0:0,0:0:0:0:
132,236,33702,1,0,0:0:0:0:
69,312,33872,1,8,0:0:0:0:
177,309,34045,6,0,L|258:304,1,80,0|0,3:2|0:0,0:0:0:0:
317,237,34388,1,8,0:0:0:0:
341,333,34559,1,0,0:0:0:0:
317,237,34730,1,0,0:0:0:0:
341,333,34902,1,8,0:0:0:0:
452,252,35073,2,0,B|441:197|441:197|382:183|363:110,1,160,8|0,3:2|3:2,0:0:0:0:
292,84,35588,5,8,0:0:0:0:
376,36,35759,1,0,0:0:0:0:
292,84,35930,2,0,B|248:104|248:104|204:60|140:72,1,160,0|8,0:0|0:0,0:0:0:0:
56,108,36445,1,8,3:2:0:0:
76,12,36616,1,8,0:0:0:0:
128,172,36788,6,0,L|100:248,1,80,0|0,3:2|0:0,0:0:0:0:
124,340,37130,1,8,0:0:0:0:
212,296,37302,2,0,B|244:288|244:288|312:316|368:264,1,160,0|8,0:0|0:0,0:0:0:0:
444,324,37816,1,8,3:2:0:0:
444,324,38159,5,0,3:2:0:0:
424,228,38330,1,0,0:0:0:0:
504,272,38502,1,8,0:0:0:0:
504,272,38673,2,0,B|492:260|492:260|508:148|508:148|500:112,1,160,0|8,0:0|0:0,0:0:0:0:
502,119,39188,1,0,0:0:0:0:
502,119,39530,6,0,B|462:138|462:138|410:82|334:110,1,160,4|8,3:2|0:0,0:0:0:0:
268,120,40045,2,0,B|240:120|240:120|172:168|120:112,1,160,0|8,0:0|0:0,0:0:0:0:
44,160,40559,2,0,L|32:64,2,80
128,212,41073,1,0,0:0:0:0:
40,260,41245,1,8,0:0:0:0:
124,304,41416,2,0,B|160:316|160:316|192:316|216:288|216:288|272:300,1,160,0|8,0:0|0:0,0:0:0:0:
340,236,41930,1,8,3:2:0:0:
446,198,42102,2,0,P|452:238|440:276,1,80,0|0,3:2|0:0,0:0:0:0:
360,332,42445,5,8,0:0:0:0:
424,104,42616,1,8,0:0:0:0:
324,96,42788,2,0,P|248:124|168:88,1,160,0|8,0:0|0:0,0:0:0:0:
92,56,43302,6,0,L|176:4,2,80
28,132,43816,1,0,0:0:0:0:
124,152,43988,1,8,0:0:0:0:
124,152,44159,2,0,B|160:184|160:184|108:220|120:292,1,160,0|8,0:0|0:0,0:0:0:0:
24,308,44673,1,0,3:2:0:0:
119,281,44845,1,8,0:0:0:0:
188,356,45016,6,0,B|224:324|248:332|248:332|280:348|329:336|348:312,1,160,0|8,3:2|0:0,0:0:0:0:
284,252,45530,2,0,B|308:220|296:188|296:188|388:232,1,160,0|8,0:0|0:0,0:0:0:0:
424,304,46045,2,0,P|464:253|420:148,1,160,8|0,3:2|3:2,0:0:0:0:
408,68,46559,5,0,0:0:0:0:
352,148,46730,1,8,0:0:0:0:
352,148,46902,2,0,P|288:184|208:156,1,160,0|8,0:0|0:0,0:0:0:0:
128,104,47416,1,8,3:2:0:0:
93,13,47588,6,0,P|36:70|41:148,1,160
40,145,48102,1,8,0:0:0:0:
120,204,48273,2,0,P|92:284|18:289,1,160,0|8,0:0|0:0,0:0:0:0:
52,224,48788,1,8,3:2:0:0:
168,320,48959,1,0,0:0:0:0:
232,364,49130,6,0,L|280:300,1,80,0|0,3:2|0:0,0:0:0:0:
380,308,49473,1,8,0:0:0:0:
380,308,49645,2,0,P|384:220|420:140,1,160,0|8,0:0|0:0,0:0:0:0:
352,80,50159,1,8,3:2:0:0:
296,160,50330,1,8,0:0:0:0:
256,72,50502,6,0,P|188:104|116:64,1,160,4|8,3:2|0:0,0:0:0:0:
20,52,51016,1,0,0:0:0:0:
20,52,51359,1,8,0:0:0:0:
4,148,51530,2,0,P|4:216|20:320,1,160,8|0,2:0|3:2,0:0:0:0:
104,348,52045,5,0,0:0:0:0:
200,312,52216,1,8,0:0:0:0:
200,312,52302,1,0,0:0:0:0:
200,312,52388,2,0,B|240:332|240:332|312:280|368:348,1,160,0|8,0:0|0:0,0:0:0:0:
436,292,52902,1,8,3:2:0:0:
436,292,52988,1,0,0:0:0:0:
436,292,53073,1,8,0:0:0:0:
464,200,53245,6,0,B|452:164|452:164|488:116|452:40,1,160,0|8,3:2|0:0,0:0:0:0:
360,32,53759,1,0,0:0:0:0:
344,128,53930,1,0,0:0:0:0:
360,32,54102,1,8,0:0:0:0:
344,128,54273,1,8,0:1:0:0:
280,56,54445,1,0,0:0:0:0:
268,152,54616,6,0,P|228:160|192:148,1,80,0|0,0:0|0:0,0:0:0:0:
100,100,54959,1,8,0:0:0:0:
100,100,55045,1,0,0:0:0:0:
100,100,55130,2,0,P|130:185|92:236,1,160,0|8,0:0|0:0,0:0:0:0:
36,304,55645,1,0,0:0:0:0:
15,283,55730,1,0,0:0:0:0:
8,260,55816,1,8,0:0:0:0:
136,324,55988,5,4,3:2:0:0:
192,244,56159,1,0,0:0:0:0:
232,332,56330,1,8,0:0:0:0:
232,332,56502,2,0,B|268:356|268:356|312:296|376:336,1,160,0|8,0:0|0:0,0:0:0:0:
444,272,57016,1,8,3:2:0:0:
488,360,57188,1,0,0:0:0:0:
444,272,57359,5,0,3:2:0:0:
356,228,57530,1,0,0:0:0:0:
436,168,57702,1,8,0:0:0:0:
436,168,57788,1,0,0:0:0:0:
436,168,57873,2,0,P|444:96|428:32,1,140,0|8,0:0|0:0,0:0:0:0:
280,88,58388,1,0,0:0:0:0:
272,104,58473,1,0,0:0:0:0:
264,120,58559,1,0,0:0:0:0:
144,68,58730,6,0,P|104:80|72:64,1,80,0|0,3:2|0:0,0:0:0:0:
32,152,59073,1,8,0:0:0:0:
32,152,59245,2,0,P|24:224|32:320,1,160,0|8,0:0|0:0,0:0:0:0:
116,356,59759,1,8,3:2:0:0:
124,268,59930,1,0,3:2:0:0:
200,292,60102,6,0,L|184:340,4,40
216,312,60530,1,0,0:0:0:0:
232,332,60616,1,0,0:0:0:0:
252,340,60702,1,0,0:0:0:0:
276,336,60788,1,0,0:0:0:0:
292,316,60873,1,0,0:0:0:0:
304,296,60959,6,0,L|316:333,4,40
252,220,61473,5,0,0:0:0:0:
224,128,61645,1,0,0:0:0:0:
148,72,61816,1,0,0:0:0:0:
156,160,61988,2,0,B|120:184|120:184|117:241|84:271|40:264,1,160
48,192,62502,2,0,P|132:240|136:300,1,160
208,352,63016,1,0,0:0:0:0:
256,164,63359,1,0,0:0:0:0:
304,352,63702,5,0,0:0:0:0:
388,304,63873,1,0,0:0:0:0:
440,224,64045,1,0,0:0:0:0:
440,128,64216,1,0,0:0:0:0:
264,204,64559,1,0,0:0:0:0:
300,116,64730,1,0,0:0:0:0:
224,64,64902,6,0,B|176:68|176:68|120:44|92:116|92:116|140:224,1,240
220,192,65588,2,0,P|212:280|136:296,1,160
125,189,66102,1,0,0:0:0:0:
220,192,66273,1,8,0:0:0:0:
244,184,66359,1,8,0:0:0:0:
268,176,66445,1,8,0:0:0:0:
316,92,66616,1,8,0:0:0:0:
328,112,66702,1,8,0:0:0:0:
340,132,66788,1,8,0:0:0:0:
352,152,66873,1,8,0:0:0:0:
364,172,66959,6,0,P|400:144|412:96,1,80,4|0,0:0|0:0,0:0:0:0:
464,32,67302,1,0,0:0:0:0:
472,128,67473,2,0,B|488:188|488:188|444:216|436:288,1,160
340,240,67988,1,0,0:0:0:0:
256,196,68159,1,0,0:0:0:0:
172,240,68330,5,0,0:0:0:0:
172,240,68502,1,0,0:0:0:0:
256,352,69016,5,0,0:0:0:0:
256,352,69188,1,0,0:0:0:0:
388,312,69358,5,0,0:0:0:0:
388,312,69530,1,0,0:0:0:0:
388,312,69702,6,2,P|420:336|464:324,1,80,4|0,0:0|0:0,0:2:0:0:
292,252,70045,1,8,0:0:0:0:
192,196,70216,2,0,P|112:224|84:288,1,160,0|8,0:0|0:0,0:0:0:0:
292,252,70730,2,0,P|312:208|304:168,1,80,8|0,0:0|0:0,0:0:0:0:
192,312,71073,6,0,P|221:351|260:364,1,80,0|0,0:0|0:0,0:0:0:0:
292,252,71416,1,8,0:0:0:0:
192,196,71588,1,0,0:0:0:0:
124,164,71759,2,0,L|116:64,1,80,0|8,0:0|0:0,0:0:0:0:
192,312,72102,1,8,0:0:0:0:
288,140,72273,1,8,0:0:0:0:
420,284,72445,6,0,P|464:272|492:244,1,80
512,160,72788,1,8,0:0:0:0:
352,232,72959,2,0,P|336:272|396:368,1,160,0|8,0:0|0:0,0:0:0:0:
512,160,73473,2,0,L|496:68,1,80,8|0,0:0|0:0,0:0:0:0:
339,154,73816,6,0,L|352:232,1,80,4|0,0:0|0:0,0:0:0:0:
404,72,74158,1,8,0:0:0:0:
312,36,74330,2,0,L|234:50,1,80,4|0,0:0|0:0,0:0:0:0:
339,154,74673,1,8,0:0:0:0:
404,72,74845,1,4,0:0:0:0:
420,84,74930,1,0,0:0:0:0:
440,92,75016,1,8,0:0:0:0:
460,88,75102,1,0,0:0:0:0:
480,76,75188,6,0,P|488:124|480:156,1,80,4|0,0:0|0:0,0:0:0:0:
416,224,75530,1,8,0:0:0:0:
324,196,75702,2,0,P|264:188|208:264,1,160,0|8,0:0|0:0,0:0:0:0:
284,344,76216,2,0,P|296:312|272:248,1,80,8|0,0:0|0:0,0:0:0:0:
216,216,76559,5,0,0:0:0:0:
200,128,76730,2,0,L|108:140,1,80,0|8,0:0|0:0,0:0:0:0:
248,36,77073,2,0,L|408:48,1,160,0|8,0:0|0:0,0:0:0:0:
472,200,77588,1,8,0:0:0:0:
308,188,77759,1,8,0:0:0:0:
408,48,77930,6,0,P|412:88|404:128,1,80,0|0,0:0|0:0,0:0:0:0:
308,188,78273,1,8,0:0:0:0:
208,132,78445,2,0,P|132:136|92:208,1,160,0|8,0:0|0:0,0:0:0:0:
120,300,78959,2,0,P|156:324|204:328,1,80,8|0,0:0|0:0,0:0:0:0:
344,312,79302,6,0,P|308:288|260:284,1,80,4|0,0:0|0:0,0:0:0:0:
191,330,79645,1,8,0:0:0:0:
344,312,79816,2,0,L|324:152,1,160,4|8,0:0|0:0,0:0:0:0:
376,80,80330,1,4,0:0:0:0:
362,56,80416,1,0,0:0:0:0:
341,40,80502,1,0,0:0:0:0:
316,36,80588,1,0,0:0:0:0:
292,44,80673,5,6,0:0:0:0:
208,76,80845,1,0,0:0:0:0:
120,108,81016,2,0,L|124:24,1,80,10|0,0:0|0:0,0:0:0:0:
188,168,81359,2,0,L|184:252,1,80,2|8,0:0|0:0,0:0:0:0:
132,328,81702,1,10,0:0:0:0:
272,276,81873,6,0,P|344:268|416:316,1,160,2|2,0:0|0:0,0:0:0:0:
504,356,82388,1,10,0:0:0:0:
494,261,82559,1,0,0:0:0:0:
414,313,82730,6,0,P|386:333|334:337,1,80,2|8,0:0|0:0,0:0:0:0:
236,196,83073,2,0,P|270:189|320:206,1,80,10|8,0:0|0:0,0:0:0:0:
272,276,83416,5,4,0:0:0:0:
188,128,83588,1,2,0:0:0:0:
188,128,83673,1,0,0:0:0:0:
188,128,83759,2,0,L|192:32,1,80,10|4,0:0|0:0,0:0:0:0:
128,196,84102,2,0,P|95:204|45:187,1,80,2|8,0:0|0:0,0:0:0:0:
4,124,84445,1,14,0:0:0:0:
236,196,84616,6,0,P|292:188|360:260,1,160,2|2,0:0|0:0,0:0:0:0:
324,348,85130,1,10,0:0:0:0:
228,352,85302,1,0,0:0:0:0:
236,196,85473,6,8,L|244:108,1,80,2|10,0:0|0:0,0:0:0:0:
152,128,85816,2,8,L|144:216,1,80,2|10,0:0|0:0,0:0:0:0:
164,44,86159,6,0,P|120:48|84:72,1,80,4|0,0:2|0:0,0:0:0:0:
260,108,86502,2,0,P|304:104|340:80,1,80,10|0,0:0|0:0,0:0:0:0:
408,0,86845,1,2,0:0:0:0:
500,64,87016,1,8,0:0:0:0:
432,236,87188,2,0,L|425:157,1,80,10|2,0:0|0:0,0:0:0:0:
320,156,87530,6,0,L|328:236,1,80,4|2,0:0|0:0,0:0:0:0:
376,312,87873,1,10,0:0:0:0:
344,76,88045,2,0,P|276:80|240:160,1,160,2|8,0:0|0:0,0:0:0:0:
372,220,88559,1,10,0:0:0:0:
344,76,88730,1,10,0:0:0:0:
428,136,88902,5,4,0:0:0:0:
320,156,89073,1,0,0:0:0:0:
212,180,89245,2,0,L|112:200,1,80,10|2,0:0|0:0,0:0:0:0:
321,157,89588,5,8,0:0:0:0:
249,75,89759,1,4,0:0:0:0:
134,196,89930,2,0,L|212:180,1,80,10|6,0:0|0:0,0:0:0:0:
428,136,90273,5,0,0:0:0:0:
321,157,90445,1,0,0:0:0:0:
216,72,90616,5,14,0:0:0:0:
346,48,90788,1,2,0:0:0:0:
212,180,90959,5,2,0:0:0:0:
208,196,91045,1,0,0:0:0:0:
204,212,91130,1,0,0:0:0:0:
200,228,91216,1,0,0:0:0:0:
196,244,91302,1,0,0:0:0:0:
192,260,91388,1,0,0:0:0:0:
188,276,91473,1,0,0:0:0:0:
184,292,91559,1,0,0:0:0:0:
180,308,91645,5,4,0:0:0:0:
256,364,91816,1,0,0:0:0:0:
332,308,91988,2,0,P|348:272|400:248,1,80
416,340,92330,1,0,0:0:0:0:
304,192,92502,1,0,0:0:0:0:
212,160,92673,1,0,0:0:0:0:
136,100,92845,1,0,0:0:0:0:
67,168,93016,2,0,L|27:120,6,40
79,184,93615,5,0,0:0:0:0:
86,195,93702,1,0,0:0:0:0:
94,207,93788,1,0,0:0:0:0:
102,219,93873,1,0,0:0:0:0:
110,231,93959,1,0,0:0:0:0:
118,243,94045,1,0,0:0:0:0:
126,255,94130,1,0,0:0:0:0:
134,267,94216,1,0,0:0:0:0:
142,279,94302,1,0,0:0:0:0:
152,292,94388,6,0,L|312:304,1,160,4|8,3:2|0:0,0:0:0:0:
387,331,94902,1,0,0:0:0:0:
368,236,95073,1,0,0:0:0:0:
387,331,95245,1,8,0:0:0:0:
447,255,95416,2,0,P|468:208|432:96,1,160,8|0,3:2|3:2,0:0:0:0:
363,51,95930,5,0,0:0:0:0:
343,147,96102,1,8,0:0:0:0:
271,79,96273,2,0,P|204:51|131:92,1,160,0|8,0:0|0:0,0:0:0:0:
47,43,96788,1,8,0:0:0:0:
132,91,96959,1,8,3:2:0:0:
47,143,97130,6,0,L|44:228,1,80,0|0,3:2|0:0,0:0:0:0:
35,311,97473,1,8,0:0:0:0:
123,271,97645,2,0,L|288:276,1,160,0|8,0:0|0:0,0:0:0:0:
339,339,98159,1,8,3:2:0:0:
339,339,98502,5,0,3:2:0:0:
355,243,98673,1,0,0:0:0:0:
431,303,98845,1,8,0:0:0:0:
440,217,99016,2,0,P|461:138|420:57,1,160,0|8,0:0|0:0,0:0:0:0:
380,140,99530,1,0,0:0:0:0:
432,69,99702,1,8,0:0:0:0:
335,75,99873,6,0,L|254:80,1,80,0|0,3:2|0:0,0:0:0:0:
195,147,100216,1,8,0:0:0:0:
171,51,100388,1,0,0:0:0:0:
195,147,100559,1,0,0:0:0:0:
171,51,100730,1,8,0:0:0:0:
99,119,100902,2,0,B|72:168|72:168|108:216|76:284,1,160,8|0,3:2|3:2,0:0:0:0:
136,348,101416,5,0,0:0:0:0:
220,300,101588,1,8,0:0:0:0:
220,300,101759,2,0,B|264:280|264:280|308:324|372:312,1,160,0|8,0:0|0:0,0:0:0:0:
440,252,102273,1,8,3:2:0:0:
444,348,102445,1,8,0:0:0:0:
368,200,102616,6,0,L|396:124,1,80,0|0,3:2|0:0,0:0:0:0:
388,44,102959,1,8,0:0:0:0:
300,88,103130,2,0,B|268:96|268:96|200:68|144:120,1,160,0|8,0:0|0:0,0:0:0:0:
68,60,103645,1,8,3:2:0:0:
68,60,103988,5,0,0:0:0:0:
68,76,104073,1,0,0:0:0:0:
68,92,104159,1,8,0:0:0:0:
148,192,104330,1,8,0:0:0:0:
256,260,104502,1,8,0:0:0:0:
364,192,104673,5,8,0:0:0:0:
392,220,104758,1,0,0:0:0:0:
388,260,104844,1,8,0:0:0:0:
364,192,105016,5,8,0:0:0:0:
456,148,105188,1,8,0:0:0:0:
388,124,105359,6,0,P|336:96|312:24,1,120.000004577637,4|0,0:0|0:0,0:0:0:0:
200,42,106045,2,0,P|175:96|124:124,1,120.000004577637,4|0,0:0|0:0,0:0:0:0:
64,84,106559,1,0,0:0:0:0:
48,152,106730,2,0,P|100:203|160:196,1,120.000004577637,4|0,0:0|0:0,0:0:0:0:
200,248,107245,1,0,0:0:0:0:
256,292,107416,2,0,L|212:352,1,60.0000022888184,4|0,0:0|0:0,0:0:0:0:
308,336,107759,2,0,L|344:284,1,60.0000022888184
412,296,108102,6,0,B|428:268|428:268|476:264|492:200,1,120.000004577637,4|0,0:0|0:0,0:0:0:0:
480,68,108788,2,0,B|464:96|464:96|416:100|400:164,1,120.000004577637,4|0,0:0|0:0,0:0:0:0:
264,192,109473,2,0,P|216:184|184:116,1,120.000004577637,4|0,0:0|0:0,0:0:0:0:
256,116,109988,1,0,0:0:0:0:
256,116,110159,2,0,P|216:60|154:59,1,120.000004577637,4|0,0:0|0:0,0:0:0:0:
188,124,110673,1,0,0:0:0:0:
120,100,110845,5,4,0:0:0:0:
100,168,111016,1,0,0:0:0:0:
168,192,111188,1,0,0:0:0:0:
200,256,111359,2,0,L|196:296,1,30.0000011444092
200,256,111530,2,0,L|312:200,1,120.000004577637,4|0,0:0|0:0,0:0:0:0:
344,264,112045,1,0,0:0:0:0:
384,204,112216,1,4,0:0:0:0:
412,272,112388,2,0,L|432:344,1,60.0000022888184
496,352,112730,2,0,L|460:220,1,120.000004577637
288,44,113416,6,0,L|324:176,1,120.000004577637
256,196,113930,1,0,0:0:0:0:
192,159,114102,2,0,L|224:44,2,120.000004577637
124,140,114959,1,4,0:0:0:0:
76,196,115130,2,0,L|48:144,2,60.0000022888184
120,252,115645,1,4,0:0:0:0:
136,256,115730,1,0,0:0:0:0:
148,268,115816,1,0,0:0:0:0:
156,284,115902,1,0,0:0:0:0:
164,300,115988,1,0,0:0:0:0:
176,312,116073,1,0,0:0:0:0:
192,320,116159,1,0,0:0:0:0:
208,324,116245,1,0,0:0:0:0:
224,324,116330,5,0,0:0:0:0:
300,264,116502,1,0,0:0:0:0:
360,188,116673,2,0,L|400:272,1,80,8|0,0:0|0:0,0:0:0:0:
484,296,117016,1,0,0:0:0:0:
484,296,117188,2,8,L|414:151,1,160,8|8,0:0|0:0,0:0:0:0:
424,60,117702,2,0,L|472:140,1,80,0|8,0:0|0:0,0:0:0:0:
360,48,118045,6,8,L|320:28,2,40
304,124,118388,1,0,0:0:0:0:
208,124,118559,1,0,0:0:0:0:
152,48,118730,6,8,L|192:28,2,40
120,140,119073,2,0,P|100:184|60:208,1,80,8|8,0:0|0:0,0:0:0:0:
96,296,119416,2,0,P|116:252|156:228,1,80,8|0,0:0|0:0,0:0:0:0:
184,320,119759,1,8,0:0:0:0:
228,236,119930,1,0,0:0:0:0:
272,320,120102,1,0,0:0:0:0:
316,236,120273,2,0,P|384:224|428:302,1,160,4|0,0:0|0:0,0:0:0:0:
360,290,120788,6,0,L|336:333,2,40
416,164,121130,2,0,P|452:144|472:100,1,80,8|8,0:0|0:0,0:0:0:0:
384,68,121473,5,0,0:0:0:0:
360,60,121559,1,0,0:0:0:0:
336,52,121645,1,0,0:0:0:0:
312,144,121816,1,4,0:0:0:0:
312,144,121988,6,0,P|256:228|200:140,1,240
255,166,123359,1,0,0:0:0:0:
196,240,123530,6,0,P|176:252|148:248,2,40
255,166,123873,1,0,0:0:0:0:
256,68,124045,1,0,0:0:0:0:
316,240,124216,6,0,P|336:252|364:248,2,40
368,160,124559,2,0,P|384:120|376:76,1,80
464,36,124902,2,0,P|448:76|456:120,1,80,8|0,0:0|0:0,0:0:0:0:
440,208,125245,1,0,0:0:0:0:
480,296,125416,1,0,0:0:0:0:
504,204,125587,1,8,0:0:0:0:
416,296,125759,1,0,0:0:0:0:
340,352,125930,6,0,P|324:320|324:300,1,40
256,268,126102,2,0,L|256:312,1,40
172,351,126273,2,0,P|183:335|188:316,1,40,8|0,0:0|0:0,0:0:0:0:
148,248,126445,2,0,P|136:264|131:283,1,40
68,332,126616,2,0,L|24:304,1,40
40,208,126788,2,0,L|56:244,1,40
108,192,126959,2,0,L|128:144,3,40
196,152,127302,6,0,P|220:116|232:60,1,80
384,128,127645,1,8,0:0:0:0:
324,52,127816,2,0,P|293:96|319:201,1,160
404,224,128330,2,0,P|436:256|476:264,1,80,8|0,0:0|0:0,0:0:0:0:
480,360,128673,2,0,P|448:328|408:320,1,80
328,276,129016,1,8,0:0:0:0:
256,340,129188,1,0,0:0:0:0:
184,276,129359,2,0,P|136:272|84:364,1,160,0|8,0:0|0:0,0:0:0:0:
152,344,129873,1,0,0:0:0:0:
152,344,130044,6,0,L|68:208,1,160,0|8,0:0|0:0,0:0:0:0:
152,160,130559,1,0,0:0:0:0:
236,112,130730,1,0,0:0:0:0:
236,16,130902,2,0,P|300:40|325:146,1,160
236,112,131416,1,0,0:0:0:0:
331,120,131588,2,0,B|372:108|404:136|404:136|468:72,1,160
456,176,132102,5,8,0:0:0:0:
468,196,132188,1,8,0:0:0:0:
480,216,132273,1,8,0:0:0:0:
448,304,132445,1,8,0:0:0:0:
436,284,132530,1,8,0:0:0:0:
424,264,132616,1,8,0:0:0:0:
412,244,132702,1,8,0:0:0:0:
400,224,132788,6,0,P|348:204|284:240,1,120,4|0,0:0|0:0,0:0:0:0:
308,248,133130,2,0,L|256:160,1,80,8|0,0:0|0:0,0:0:0:0:
244,272,133472,1,0,0:0:0:0:
244,272,133644,2,0,L|192:188,2,80,0|8|0,0:0|0:0|0:0,0:0:0:0:
300,348,134158,1,8,0:0:0:0:
300,348,134330,1,8,0:0:0:0:
60,192,134844,5,8,0:0:0:0:
148,156,135015,1,0,0:0:0:0:
136,252,135187,1,8,0:0:0:0:
140,348,135358,1,0,0:0:0:0:
256,350,135530,6,0,P|211:304|241:179,1,191.999994140625,4|8,0:0|0:0,0:0:0:0:
295,261,136045,1,0,0:0:0:0:
125,203,136216,2,0,L|14:214,1,95.9999970703126
53,120,136559,1,8,0:0:0:0:
149,121,136730,2,0,P|203:167|167:279,1,191.999994140625
342,375,137245,6,0,P|288:329|324:217,1,191.999994140625,8|0,0:0|0:0,0:0:0:0:
480,181,137759,1,0,0:0:0:0:
458,273,137930,2,0,L|354:295,1,95.9999970703126,8|0,0:0|0:0,0:0:0:0:
237,192,138273,5,0,0:0:0:0:
164,131,138445,1,0,0:0:0:0:
73,164,138617,1,8,0:0:0:0:
57,259,138787,1,0,0:0:0:0:
134,318,138959,2,0,L|230:311,1,95.9999970703126
349,106,139302,2,0,L|253:113,1,95.9999970703126,8|0,0:0|0:0,0:0:0:0:
98,221,139645,6,0,P|144:204|194:214,1,95.9999970703126
208,188,139901,1,0,0:0:0:0:
232,172,139988,2,0,P|232:116|196:68,1,95.9999970703126,8|0,0:0|0:0,0:0:0:0:
50,100,140330,1,0,0:0:0:0:
134,53,140502,1,0,0:0:0:0:
168,140,140672,1,8,0:0:0:0:
152,164,140758,1,8,0:0:0:0:
136,188,140844,1,8,0:0:0:0:
120,212,140930,1,8,0:0:0:0:
108,233,141016,6,0,L|313:225,1,191.999994140625,4|8,0:0|0:0,0:0:0:0:
368,160,141530,1,0,0:0:0:0:
393,251,141702,2,0,P|411:306|398:345,1,95.9999970703126
313,302,142045,1,8,0:0:0:0:
306,208,142216,2,0,P|365:158|467:188,1,191.999994140625
393,251,142730,5,8,0:0:0:0:
291,114,142902,2,0,L|230:33,1,95.9999970703126
502,9,143245,2,0,L|458:107,1,95.9999970703126,0|8,0:0|0:0,0:0:0:0:
385,182,143588,1,0,0:0:0:0:
291,114,143759,6,0,P|234:104|187:132,1,95.9999970703126
250,203,144102,1,8,0:0:0:0:
327,49,144273,1,0,0:0:0:0:
154,58,144445,1,0,0:0:0:0:
334,148,144616,1,0,0:0:0:0:
239,4,144787,1,8,0:0:0:0:
160,159,144959,1,0,0:0:0:0:
327,50,145130,6,0,P|373:54|414:89,1,95.9999970703126
160,158,145473,2,0,P|114:154|73:119,1,95.9999970703126,8|0,0:0|0:0,0:0:0:0:
253,106,145816,1,8,0:0:0:0:
280,146,145901,1,8,0:0:0:0:
289,193,145987,1,0,0:0:0:0:
278,239,146073,1,0,0:0:0:0:
250,278,146159,2,0,P|204:301|151:297,1,95.9999970703126,8|8,0:0|0:0,0:0:0:0:
280,146,146501,6,0,P|338:118|449:169,1,191.999994140625,4|8,0:0|0:0,0:0:0:0:
353,233,147015,1,0,0:0:0:0:
238,243,147187,2,0,L|160:175,1,95.9999970703126
91,268,147529,1,8,0:0:0:0:
180,343,147701,2,0,P|255:358|345:288,1,191.999994140625
166,180,148215,6,0,P|108:173|64:195,1,95.9999970703126,8|0,0:0|0:0,0:0:0:0:
297,240,148558,2,0,P|355:247|399:225,1,95.9999970703126
284,133,148901,2,0,L|174:298,1,191.999994140625,8|0,0:0|0:0,0:0:0:0:
20,319,149415,5,0,0:0:0:0:
20,319,149501,1,0,0:0:0:0:
20,319,149587,1,8,0:0:0:0:
0,227,149758,1,0,0:0:0:0:
34,139,149929,1,0,0:0:0:0:
112,85,150101,1,0,0:0:0:0:
206,84,150272,2,0,L|306:109,1,95.9999970703126,8|0,0:0|0:0,0:0:0:0:
367,282,150615,6,0,L|267:257,1,95.9999970703126
119,152,150958,2,0,L|219:177,1,95.9999970703126,8|0,0:0|0:0,0:0:0:0:
280,350,151301,2,0,L|180:325,1,95.9999970703126
320,174,151644,1,8,0:0:0:0:
365,157,151729,1,0,0:0:0:0:
412,161,151815,1,0,0:0:0:0:
453,185,151901,1,0,0:0:0:0:
480,225,151987,6,0,P|483:277|459:322,1,95.9999970703126
221,219,152329,1,8,0:0:0:0:
267,376,152501,1,0,0:0:0:0:
380,257,152672,1,0,0:0:0:0:
199,311,152844,1,0,0:0:0:0:
358,350,153016,1,8,0:0:0:0:
221,219,153187,6,0,P|133:243|107:333,1,191.999994140625,0|0,0:0|0:0,0:0:0:0:
408,310,153701,1,8,0:0:0:0:
448,224,153872,1,0,0:0:0:0:
438,130,154043,1,0,0:0:0:0:
380,55,154215,1,0,0:0:0:0:
292,20,154386,1,8,0:0:0:0:
198,37,154558,1,0,0:0:0:0:
123,99,154729,6,0,P|112:148|136:191,1,95.9999970703126
389,285,155072,2,0,P|400:236|376:193,1,95.9999970703126,8|0,0:0|0:0,0:0:0:0:
163,325,155415,2,0,P|212:336|255:312,1,95.9999970703126
349,59,155758,2,0,P|300:48|257:72,1,95.9999970703126,8|0,0:0|0:0,0:0:0:0:
155,229,156101,6,0,L|163:329,1,95.9999970703126
219,91,156444,2,0,L|124:99,1,95.9999970703126
212,172,156787,1,0,0:0:0:0:
232,192,156872,1,0,0:0:0:0:
252,212,156958,1,0,0:0:0:0:
272,232,157044,1,0,0:0:0:0:
292,252,157130,1,0,0:0:0:0:
312,272,157215,1,0,0:0:0:0:
332,292,157301,1,0,0:0:0:0:
424,268,157472,6,0,P|362:230|348:140,1,160
166,148,158158,2,0,P|153:225|88:268,1,160
256,192,158844,12,0,160215,0:0:0:0:
96,160,171187,6,0,P|64:152|36:128,1,60.0000022888184,4|0,0:0|0:0,0:0:0:0:
36,64,171530,2,0,P|64:68|96:92,1,60.0000022888184
160,104,171872,2,0,P|204:76|232:8,2,120.000004577637,0|0|4,0:0|0:0|0:0,0:0:0:0:
160,248,172901,1,0,0:0:0:0:
268,344,173244,1,8,0:0:0:0:
332,308,173415,2,0,P|344:320|360:328,2,30.0000011444092
328,236,173758,1,0,0:0:0:0:
324,164,173930,6,0,P|264:203|261:265,1,120.000004577637,4|0,0:0|0:0,0:0:0:0:
128,312,174615,2,0,P|188:273|191:211,1,120.000004577637,8|0,0:0|0:0,0:0:0:0:
56,192,175301,5,4,0:0:0:0:
48,176,175387,1,0,0:0:0:0:
40,160,175472,1,0,0:0:0:0:
80,100,175644,1,0,0:0:0:0:
112,36,175815,1,0,0:0:0:0:
148,96,175987,2,0,L|188:160,1,60.0000022888184,8|0,0:0|0:0,0:0:0:0:
216,84,176330,2,0,L|252:144,1,60.0000022888184
288,76,176672,6,0,L|360:192,1,120.000004577637,4|0,0:0|0:0,0:0:0:0:
224,308,177358,2,0,L|152:192,1,120.000004577637,8|0,0:0|0:0,0:0:0:0:
72,92,178044,2,0,L|40:220,1,120.000004577637,4|0,0:0|0:0,0:0:0:0:
92,264,178558,1,0,0:0:0:0:
152,304,178730,2,0,L|92:356,1,60.0000022888184,8|0,0:0|0:0,0:0:0:0:
224,308,179072,2,0,L|284:252,1,60.0000022888184
332,240,179415,6,0,P|376:240|408:264,1,60.0000022888184,4|0,0:0|0:0,0:0:0:0:
460,252,179758,1,8,0:0:0:0:
464,236,179844,1,8,0:0:0:0:
460,220,179930,1,8,0:0:0:0:
452,204,180015,1,8,0:0:0:0:
440,192,180101,1,8,0:0:0:0:
396,136,180272,1,0,0:0:0:0:
404,64,180444,5,8,0:0:0:0:
388,60,180530,1,8,0:0:0:0:
372,64,180616,1,8,0:0:0:0:
356,72,180701,1,8,0:0:0:0:
344,84,180787,1,4,0:0:0:0:
292,136,180958,1,0,0:0:0:0:
244,84,181130,6,0,P|220:68|208:44,4,30.0000011444092,8|0|8|0|8,0:0|0:0|0:0|0:0|0:0,0:0:0:0:
220,152,181644,1,0,0:0:0:0:
148,144,181815,2,0,L|108:160,1,30.0000011444092,8|0,0:0|0:0,0:0:0:0:
108,240,181987,2,0,L|156:220,1,30.0000011444092,8|0,0:0|0:0,0:0:0:0:
204,228,182158,5,4,0:0:0:0:
268,300,182330,2,0,P|304:312|352:296,1,80
428,344,182672,2,0,B|400:280|444:244|412:176,1,160
300,32,183358,2,0,B|328:96|284:132|316:200,1,160
256,268,183872,5,8,0:0:0:0:
236,280,183958,1,8,0:0:0:0:
216,292,184044,1,8,0:0:0:0:
236,200,184215,1,0,0:0:0:0:
140,184,184387,1,0,0:0:0:0:
116,276,184558,1,8,0:0:0:0:
104,255,184644,1,8,0:0:0:0:
92,236,184730,1,8,0:0:0:0:
60,144,184901,6,0,L|24:56,2,80,0|0|8,0:0|0:0|0:0,0:0:0:0:
136,84,185415,1,0,0:0:0:0:
224,124,185587,2,0,L|288:48,1,80
372,64,185930,1,8,0:0:0:0:
372,64,186101,2,0,L|264:192,1,160
344,248,186615,5,8,0:0:0:0:
360,268,186701,1,8,0:0:0:0:
376,288,186787,1,8,0:0:0:0:
256,352,186958,2,0,L|256:264,1,80
168,248,187301,1,8,0:0:0:0:
152,268,187387,1,8,0:0:0:0:
136,288,187473,1,8,0:0:0:0:
48,256,187644,5,0,0:0:0:0:
116,188,187815,1,0,0:0:0:0:
64,108,187987,2,0,L|24:24,2,80,8|0|0,0:0|0:0|0:0,0:0:0:0:
160,96,188501,2,0,P|208:68|268:120,1,120,8|0,0:0|0:0,0:0:0:0:
244,116,188844,2,0,B|288:112|312:68|312:68|344:48|408:88,1,160,8|0,0:0|0:0,0:0:0:0:
364,168,189358,5,8,0:0:0:0:
380,188,189444,1,8,0:0:0:0:
396,208,189530,1,8,0:0:0:0:
300,192,189701,1,0,0:0:0:0:
300,287,189872,1,0,0:0:0:0:
212,324,190044,1,8,0:0:0:0:
188,332,190130,1,8,0:0:0:0:
164,340,190215,1,8,0:0:0:0:
68,320,190387,6,0,L|28:224,1,80
132,256,190730,2,0,L|132:144,1,80,8|0,0:0|0:0,0:0:0:0:
208,232,191072,2,0,L|252:156,2,80,0|0|8,0:0|0:0|0:0,0:0:0:0:
256,316,191587,1,0,0:0:0:0:
344,348,191758,5,8,0:0:0:0:
356,328,191844,1,0,0:0:0:0:
368,308,191930,1,0,0:0:0:0:
380,288,192015,1,0,0:0:0:0:
392,268,192101,1,8,0:0:0:0:
404,248,192187,1,0,0:0:0:0:
416,228,192272,1,0,0:0:0:0:
428,208,192358,1,0,0:0:0:0:
440,188,192444,6,0,L|488:176,8,40,8|0|0|0|8|0|0|0|4,0:0|0:0|0:0|0:0|0:0|0:0|0:0|0:0|0:0,0:0:0:0:
372,120,193301,5,0,0:0:0:0:
300,56,193472,1,8,0:0:0:0:
256,140,193644,2,0,P|200:144|180:244,1,160
232,204,194158,2,0,P|176:168|108:232,1,160,8|0,0:0|0:0,0:0:0:0:
44,264,194672,2,0,L|109:218,1,80,0|8,0:0|0:0,0:0:0:0:
108,316,195015,6,0,P|140:340|160:384,1,80
404,316,195358,2,0,P|372:340|352:384,1,80,0|8,0:0|0:0,0:0:0:0:
256,356,195701,1,0,0:0:0:0:
256,356,195872,2,0,L|256:256,1,80
340,228,196215,1,8,0:0:0:0:
340,228,196387,1,0,0:0:0:0:
340,228,196558,6,0,P|300:164|300:64,1,160,0|8,0:0|0:0,0:0:0:0:
256,20,197072,1,0,0:0:0:0:
216,80,197244,2,0,P|212:159|172:228,1,160,0|8,0:0|0:0,0:0:0:0:
84,192,197758,1,0,0:0:0:0:
24,116,197930,1,0,0:0:0:0:
40,96,198015,1,0,0:0:0:0:
56,76,198101,1,0,0:0:0:0:
136,28,198272,1,8,0:0:0:0:
140,52,198358,1,0,0:0:0:0:
144,76,198444,1,0,0:0:0:0:
148,100,198530,1,0,0:0:0:0:
152,124,198615,5,0,0:0:0:0:
168,220,198787,2,0,L|116:316,1,80,0|8,0:0|0:0,0:0:0:0:
224,272,199130,2,0,L|236:376,1,80
296,280,199472,2,0,L|352:352,2,80,0|8|0,0:0|0:0|0:0,0:0:0:0:
252,196,199987,1,8,0:0:0:0:
339,62,200158,2,0,L|252:196,1,160,0|8,0:0|0:0,0:0:0:0:
252,196,200672,5,8,0:0:0:0:
156,212,200843,1,8,0:0:0:0:
176,116,201015,1,8,0:0:0:0:
268,84,201187,1,8,0:0:0:0:
356,135,201358,6,0,B|391:106|391:106|404:63,1,88.000002685547,4|0,0:0|0:0,0:0:0:0:
352,223,201701,1,0,0:0:0:0:
379,319,201873,2,0,B|336:346|298:358|298:358|250:355|200:340,1,176.000005371094,0|2,0:0|0:0,0:0:0:0:
117,170,202387,1,0,0:0:0:0:
244,250,202558,1,0,0:0:0:0:
74,294,202730,6,0,B|116:267|116:267|162:264,1,88.000002685547,2|0,0:0|0:0,0:0:0:0:
268,108,203073,1,0,0:0:0:0:
240,208,203244,1,0,0:0:0:0:
344,180,203416,1,0,0:0:0:0:
262,107,203587,5,0,0:0:0:0:
246,209,203758,1,0,0:0:0:0:
345,170,203930,1,0,0:0:0:0:
180,151,204101,6,0,B|210:119|210:119|255:107,1,88.000002685547,4|0,0:0|0:0,0:0:0:0:
302,186,204444,1,8,0:0:0:0:
126,238,204616,2,0,B|154:276|154:276|161:325,1,88.000002685547,2|0,0:0|0:0,0:0:0:0:
63,304,204958,1,2,0:0:0:0:
253,252,205130,2,0,L|334:287,1,88.000002685547,8|0,0:0|0:0,0:0:0:0:
478,150,205473,6,0,B|440:177|440:177|394:183,1,88.000002685547,2|0,0:0|0:0,0:0:0:0:
397,183,205730,1,0,0:0:0:0:
397,183,205816,1,8,0:0:0:0:
295,75,205987,2,0,P|268:117|261:159,1,88.000002685547,2|0,0:0|0:0,0:0:0:0:
268,180,206244,1,0,0:0:0:0:
280,204,206330,1,0,0:0:0:0:
120,268,206501,1,0,0:0:0:0:
104,248,206587,1,0,0:0:0:0:
88,228,206672,1,0,0:0:0:0:
72,208,206758,1,0,0:0:0:0:
57,188,206844,6,0,B|58:138|76:101|76:101|114:73|168:69,1,176.000005371094,2|8,0:0|0:0,0:0:0:0:
295,75,207358,1,0,0:0:0:0:
392,36,207530,1,0,0:0:0:0:
368,140,207701,1,2,0:0:0:0:
225,226,207873,1,8,0:0:0:0:
190,134,208044,1,0,0:0:0:0:
286,160,208216,6,0,B|312:196|312:250,1,88.000002685547,2|0,0:0|0:0,0:0:0:0:
178,348,208558,2,0,B|152:312|152:258,1,88.000002685547,8|0,0:0|0:0,0:0:0:0:
213,78,208901,6,0,B|200:122|173:161,1,88.000002685547,0|2,0:0|0:0,0:0:0:0:
294,69,209244,1,8,0:0:0:0:
100,144,209416,1,0,0:0:0:0:
236,205,209587,6,0,B|269:235|269:235|282:280,1,88.000002685547,2|0,0:0|0:0,0:0:0:0:
359,341,209930,1,8,0:0:0:0:
451,190,210101,2,0,B|451:234|451:234|432:274,1,88.000002685547,2|0,0:0|0:0,0:0:0:0:
400,103,210444,1,2,0:0:0:0:
301,108,210616,2,0,B|260:89|260:89|231:52,1,88.000002685547,8|0,0:0|0:0,0:0:0:0:
135,68,210958,5,2,0:0:0:0:
212,196,211130,1,0,0:0:0:0:
212,196,211216,1,0,0:0:0:0:
212,196,211301,1,8,0:0:0:0:
147,329,211473,1,0,0:0:0:0:
212,196,211644,1,0,0:0:0:0:
262,190,211730,1,0,0:0:0:0:
311,202,211816,1,2,0:0:0:0:
345,239,211901,1,0,0:0:0:0:
355,288,211987,2,0,L|304:369,1,88.000002685547,8|0,0:0|0:0,0:0:0:0:
256,280,212330,5,4,0:0:0:0:
125,212,212501,2,0,B|134:168|134:168|164:127,1,88.000002685547,0|8,0:0|0:0,0:0:0:0:
273,34,212844,2,0,P|312:117|393:131,1,176.000005371094,0|2,0:0|0:0,0:0:0:0:
371,35,213358,1,8,0:0:0:0:
256,196,213530,1,0,0:0:0:0:
367,344,213701,5,2,0:0:0:0:
472,344,213872,1,0,0:0:0:0:
468,235,214044,1,8,0:0:0:0:
424,140,214216,1,0,0:0:0:0:
360,224,214387,2,0,P|329:193|313:152,1,88.000002685547,0|2,0:0|0:0,0:0:0:0:
196,159,214730,1,8,0:0:0:0:
116,96,214901,1,0,0:0:0:0:
75,266,215073,6,0,B|111:228|152:220|152:220|191:219|242:247,1,176.000005371094,2|8,0:0|0:0,0:0:0:0:
367,344,215587,2,0,P|321:341|277:320,1,88.000002685547,0|0,0:0|0:0,0:0:0:0:
342,135,215930,5,2,0:0:0:0:
196,159,216101,1,8,0:0:0:0:
355,41,216273,1,0,0:0:0:0:
227,253,216444,2,0,B|263:225|263:225|280:182,1,88.000002685547,2|0,0:0|0:0,0:0:0:0:
257,88,216787,1,8,0:0:0:0:
337,278,216958,2,0,B|379:259|379:259|407:222,1,88.000002685547,2|0,0:0|0:0,0:0:0:0:
438,131,217301,1,2,0:0:0:0:
257,88,217473,5,8,0:0:0:0:
166,126,217644,1,0,0:0:0:0:
77,169,217816,2,0,P|46:254|107:306,1,176.000005371094,2|8,0:0|0:0,0:0:0:0:
296,360,218330,2,0,P|327:275|266:223,1,176.000005371094,2|2,0:0|0:0,0:0:0:0:
166,126,218844,5,8,0:0:0:0:
311,94,219016,1,0,0:0:0:0:
341,240,219187,2,0,L|370:149,1,88.000002685547
248,204,219530,2,0,L|223:289,1,88.000002685547,8|0,0:0|0:0,0:0:0:0:
104,339,219873,2,0,L|136:245,1,88.000002685547,0|2,0:0|0:0,0:0:0:0:
166,126,220216,1,8,0:0:0:0:
166,126,220387,1,0,0:0:0:0:
420,160,220558,6,0,P|347:105|262:101,1,176.000005371094,2|8,0:0|0:0,0:0:0:0:
209,192,221073,1,0,0:0:0:0:
234,298,221244,1,0,0:0:0:0:
317,175,221416,1,2,0:0:0:0:
367,247,221587,2,0,L|325:324,1,88.000002685547,8|0,0:0|0:0,0:0:0:0:
132,296,221930,5,0,0:0:0:0:
152,280,222016,1,0,0:0:0:0:
172,264,222101,1,0,0:0:0:0:
192,248,222187,1,0,0:0:0:0:
212,232,222273,1,0,0:0:0:0:
232,216,222358,1,0,0:0:0:0:
252,200,222444,1,0,0:0:0:0:
272,184,222530,1,0,0:0:0:0:
297,180,222616,6,0,L|339:199,1,44.0000013427735
433,169,222787,2,0,L|391:144,1,44.0000013427735
368,70,222958,2,0,L|270:80,1,88.000002685547,8|0,0:0|0:0,0:0:0:0:
184,32,223301,1,0,0:0:0:0:
203,278,225358,6,0,L|172:320,6,44.0000013427735
203,278,226044,5,4,0:0:0:0:
335,309,226216,1,2,0:0:0:0:
297,180,226387,1,2,0:0:0:0:
213,284,226559,5,0,0:0:0:0:
347,301,226730,1,2,0:0:0:0:
296,176,226901,1,2,0:0:0:0:
223,288,227073,5,0,0:0:0:0:
358,291,227244,1,2,0:0:0:0:
304,168,227416,1,2,0:0:0:0:
243,49,227587,5,0,0:0:0:0:
378,61,227759,1,2,0:0:0:0:
302,172,227930,1,2,0:0:0:0:
253,47,228101,5,0,0:0:0:0:
386,73,228273,1,2,0:0:0:0:
299,175,228444,1,2,0:0:0:0:
264,47,228616,1,0,0:0:0:0:
123,279,228787,6,0,P|98:242|87:196,1,88.000002685547,2|0,0:0|0:0,0:0:0:0:
94,51,229129,2,0,P|128:80|145:122,1,88.000002685547,2|0,0:0|0:0,0:0:0:0:
123,279,229472,2,0,P|155:245|204:231,1,88.000002685547,2|0,0:0|0:0,0:0:0:0:
389,279,229815,2,0,P|357:245|308:231,1,88.000002685547,2|0,0:0|0:0,0:0:0:0:
244,284,230158,5,2,0:0:0:0:
101,176,230329,2,0,L|160:106,1,88.000002685547,0|2,0:0|0:0,0:0:0:0:
246,269,230672,5,2,0:0:0:0:
103,161,230844,2,0,L|162:91,1,88.000002685547,0|2,0:0|0:0,0:0:0:0:
407,237,231187,2,0,L|350:304,1,88.000002685547,2|2,0:0|0:0,0:0:0:0:
251,72,231530,5,2,0:0:0:0:
339,92,231701,1,0,0:0:0:0:
429,108,231873,1,2,0:0:0:0:
308,123,232044,5,2,0:0:0:0:
346,205,232215,1,0,0:0:0:0:
391,284,232387,1,2,0:0:0:0:
266,235,232558,5,0,0:0:0:0:
432,192,232730,1,0,0:0:0:0:
432,192,232815,1,0,0:0:0:0:
432,192,232901,1,0,0:0:0:0:
401,315,233073,2,0,B|358:341|321:355|321:355|267:355|228:346,1,176.000005371094
123,252,233587,1,0,0:0:0:0:
123,252,233758,1,0,0:0:0:0:
137,55,233930,6,0,L|184:135,1,88.000002685547
183,133,234273,1,2,0:0:0:0:
375,55,234444,6,0,L|328:135,1,88.000002685547
330,133,234787,1,2,0:0:0:0:
256,32,234958,6,0,L|256:128,1,88.000002685547
256,122,235301,1,2,0:0:0:0:
461,161,235473,6,0,L|370:192,1,88.000002685547
377,189,235730,1,0,0:0:0:0:
376,191,235815,1,2,0:0:0:0:
51,161,235987,6,0,L|137:191,1,88.000002685547
137,191,236330,1,2,0:0:0:0:
256,224,236501,2,0,L|256:320,2,88.000002685547
256,12,237187,5,0,0:0:0:0:
256,12,237530,1,4,0:0:0:0:
256,192,237701,12,0,245244,0:0:0:0:
