osu file format v12

[General]
AudioFilename: (01)Break a spell.mp3
AudioLeadIn: 0
PreviewTime: 201015
Countdown: 0
SampleSet: Normal
StackLeniency: 0.7
Mode: 0
LetterboxInBreaks: 1
WidescreenStoryboard: 1

[Editor]
Bookmarks: 171187
DistanceSpacing: 1
BeatDivisor: 4
GridSize: 4
TimelineZoom: 1.9

[Metadata]
Title:Break a spell
TitleUnicode:Break a spell
Artist:Kawada Mami
ArtistUnicode:川田まみ
Creator:KiyoshiX101
Version:Hard
Source:Tokyo Ravens
Tags:ending
BeatmapID:389551
BeatmapSetID:153578

[Difficulty]
HPDrainRate:6
CircleSize:4
OverallDifficulty:5
ApproachRate:8
SliderMultiplier:1.6
SliderTickRate:1

[Events]
//Background and Video events
0,0,"ssss.jpg",0,0
//Break Periods
2,40215,44265
2,91844,104608
2,127501,132037
2,160244,170437
2,182358,192380
//Storyboard Layer 0 (Background)
//Storyboard Layer 1 (Fail)
//Storyboard Layer 2 (Pass)
//Storyboard Layer 3 (Foreground)
//Storyboard Sound Samples
//Background Colour Transformations
3,100,163,162,255

[TimingPoints]
1130,342.857142857143,4,1,1,70,1,0
69358,-100,4,1,1,10,0,0
69702,-100,4,1,3,70,0,1
69788,-100,4,1,1,70,0,1
91645,-100,4,1,1,70,0,0
105359,-100,4,1,1,70,0,0
116330,-100,4,1,1,70,0,0
135530,-100,4,1,3,70,0,1
135615,-100,4,1,1,70,0,1
157472,-100,4,1,1,70,0,0
171187,-100,4,1,4,70,0,0
179758,-100,4,1,1,70,0,0
180058,-100,4,1,4,70,0,0
180444,-100,4,1,1,70,0,0
180744,-100,4,1,4,70,0,0
181130,-100,4,1,1,70,0,0
181430,-100,4,1,4,70,0,0
181815,-100,4,1,1,70,0,0
182115,-100,4,1,4,70,0,0
182244,-100,4,1,1,70,0,0
201358,-100,4,2,1,10,0,0
204101,-100,4,1,3,70,0,1
204187,-100,4,1,1,70,0,1
223301,-100,4,1,1,70,0,0
225358,-100,4,1,1,10,0,0
225444,-100,4,1,1,20,0,0
225530,-100,4,1,1,30,0,0
225615,-100,4,1,1,40,0,0
225701,-100,4,1,1,50,0,0
225787,-100,4,1,1,60,0,0
225872,-100,4,1,1,70,0,0
238044,-100,4,1,1,60,0,0
238387,-100,4,1,1,50,0,0
238730,-100,4,1,1,40,0,0
239072,-100,4,1,1,30,0,0
239415,-100,4,1,1,20,0,0
239758,-100,4,1,1,10,0,0

[Colours]
Combo1 : 64,128,128
Combo2 : 0,64,128
Combo3 : 0,128,192
Combo4 : 128,0,0
Combo5 : 128,0,64
Combo6 : 255,128,64
Combo7 : 255,128,0
Combo8 : 64,0,128

[HitObjects]
212,340,28558,6,0,B|168:356|128:316|148:284|148:284|172:240,1,160,4|8,3:2|0:0,0:0:0:0:
340,240,29072,2,0,B|364:284|364:284|384:316|344:356|300:340,1,160,0|8,0:0|0:0,0:0:0:0:
256,272,29587,1,8,3:2:0:0:
272,192,29758,1,0,0:0:0:0:
344,156,29930,1,0,3:2:0:0:
416,192,30101,1,0,0:0:0:0:
276,112,30444,6,0,P|220:64|140:84,1,160,0|8,0:0|0:0,0:0:0:0:
196,144,30958,2,0,P|172:176|136:192,1,80,8|8,3:2|0:0,0:0:0:0:
68,152,31301,2,0,P|32:172|12:204,1,80,0|0,3:2|0:0,0:0:0:0:
124,324,31815,2,0,P|192:344|206:273,1,160,0|8,0:0|0:0,0:0:0:0:
307,273,32330,2,0,P|320:344|388:324,1,160,8|0,3:2|3:2,0:0:0:0:
256,32,33015,1,8,0:0:0:0:
256,32,33187,5,0,0:0:0:0:
188,176,33530,1,8,0:0:0:0:
256,132,33701,1,0,0:0:0:0:
324,176,33872,1,8,0:0:0:0:
256,220,34044,1,0,3:2:0:0:
464,340,34387,5,8,0:0:0:0:
464,340,34558,2,0,B|404:304|416:244|416:244|400:192,1,160,0|8,0:0|0:0,0:0:0:0:
484,196,35072,2,0,L|460:120,1,80,8|0,3:2|0:0,0:0:0:0:
396,72,35415,2,0,P|360:60|316:72,1,80,0|8,3:2|0:0,0:0:0:0:
180,140,35930,6,0,P|112:148|120:76,1,160,0|8,0:0|0:0,0:0:0:0:
196,60,36444,2,0,P|236:80|256:112,1,80,8|8,3:2|0:0,0:0:0:0:
236,188,36787,2,0,P|180:228|92:220,1,160,0|8,3:2|0:0,0:0:0:0:
96,320,37301,2,0,P|184:312|236:356,1,160,0|8,0:0|0:0,0:0:0:0:
316,340,37815,1,8,3:2:0:0:
396,336,37987,1,0,0:0:0:0:
256,192,38158,12,4,39530,3:2:0:0:
304,156,45015,6,0,L|296:316,1,160,0|8,3:2|0:0,0:0:0:0:
216,316,45530,2,0,L|208:156,1,160,0|8,0:0|0:0,0:0:0:0:
228,80,46044,2,0,P|268:84|304:68,1,80,8|0,3:2|0:0,0:0:0:0:
152,64,46387,2,0,P|110:65|78:85,1,80,0|0,3:2|0:0,0:0:0:0:
128,148,46730,1,8,0:0:0:0:
88,220,46901,1,0,0:0:0:0:
244,252,47244,5,8,0:0:0:0:
246,332,47415,1,8,3:2:0:0:
323,355,47587,1,0,0:0:0:0:
368,288,47758,1,0,0:0:0:0:
319,225,47930,1,0,0:0:0:0:
456,308,48272,6,0,P|480:236|424:172,1,160,0|8,0:0|0:0,0:0:0:0:
356,148,48787,2,0,P|344:184|352:224,1,80,8|0,3:2|0:0,0:0:0:0:
432,88,49130,2,0,P|388:40|304:68,1,160,0|8,3:2|0:0,0:0:0:0:
206,66,49644,2,0,P|124:40|80:88,1,160,0|8,0:0|0:0,0:0:0:0:
136,148,50158,2,0,P|116:184|80:204,1,80,8|8,3:2|0:0,0:0:0:0:
108,280,50501,6,0,P|180:240|216:172,1,160,4|8,3:2|0:0,0:0:0:0:
296,172,51015,2,0,P|331:239|403:279,1,160,0|8,0:0|0:0,0:0:0:0:
472,236,51530,1,8,2:0:0:0:
420,176,51701,1,0,0:0:0:0:
480,116,51872,2,0,P|468:80|436:52,1,80,0|0,3:2|0:0,0:0:0:0:
360,76,52215,5,8,0:0:0:0:
308,16,52387,1,0,0:0:0:0:
100,136,52730,1,8,0:0:0:0:
100,136,52901,2,0,P|64:156|44:188,1,80,8|8,3:2|0:0,0:0:0:0:
120,216,53244,5,0,3:2:0:0:
120,216,53415,2,0,P|176:168|160:76,2,160,0|0|8,0:0|0:0|0:0,0:0:0:0:
44,192,54272,1,8,3:2:0:0:
24,116,54444,1,0,0:0:0:0:
80,60,54615,1,0,3:2:0:0:
192,176,54958,5,8,0:0:0:0:
256,224,55130,2,0,B|340:209|340:209|372:236|428:220,1,160,0|8,0:0|0:0,0:0:0:0:
392,144,55644,2,0,P|408:108|400:64,1,80,0|8,0:0|0:0,0:0:0:0:
344,12,55987,6,0,B|296:-16|268:11|240:40|188:12,1,160,4|8,3:2|0:0,0:0:0:0:
124,56,56501,2,0,P|76:104|100:188,1,160,0|8,0:0|0:0,0:0:0:0:
204,172,57015,2,0,P|183:141|143:129,1,80,8|0,3:2|0:0,0:0:0:0:
160,240,57358,5,0,3:2:0:0:
256,268,57530,1,0,0:0:0:0:
352,240,57701,1,8,0:0:0:0:
332,316,57872,2,0,B|304:360|252:372|252:372|180:364,1,160,0|0,0:0|0:0,0:0:0:0:
128,316,58387,2,0,L|64:268,1,80,0|0,0:0|0:0,0:0:0:0:
60,188,58730,6,0,L|124:140,1,80,0|0,3:2|0:0,0:0:0:0:
188,92,59072,1,8,0:0:0:0:
256,48,59244,2,0,B|300:20|300:20|336:4|384:40|384:68,1,160,0|8,0:0|0:0,0:0:0:0:
392,143,59758,2,0,P|353:138|324:112,1,80,8|0,3:2|3:2,0:0:0:0:
464,108,60101,1,0,0:0:0:0:
480,192,60272,2,0,P|448:216|408:224,1,80,0|0,0:0|0:0,0:0:0:0:
340,260,60615,5,0,0:0:0:0:
300,328,60787,1,0,0:0:0:0:
212,328,60958,1,0,0:0:0:0:
168,260,61130,1,0,0:0:0:0:
256,260,61301,1,0,0:0:0:0:
188,176,61472,6,0,P|256:144|328:184,1,160,0|0,0:0|0:0,0:0:0:0:
360,108,61987,2,0,L|396:32,1,80,0|0,0:0|0:0,0:0:0:0:
456,128,62330,2,0,L|420:200,1,80,0|0,0:0|0:0,0:0:0:0:
388,272,62672,1,0,0:0:0:0:
464,296,62844,6,0,P|440:332|400:348,1,80,0|0,0:0|0:0,0:0:0:0:
332,324,63187,1,0,0:0:0:0:
312,248,63358,2,8,P|240:224|192:284,1,160,0|0,0:0|0:0,0:0:0:0:
112,272,63872,2,0,L|40:236,1,80,0|0,0:0|0:0,0:0:0:0:
20,160,64215,5,0,0:0:0:0:
72,100,64387,1,0,0:0:0:0:
148,80,64558,1,0,0:0:0:0:
224,108,64730,2,0,P|236:188|220:268,1,160,0|0,0:0|0:0,0:0:0:0:
180,332,65244,5,0,0:0:0:0:
100,348,65415,1,0,0:0:0:0:
28,316,65587,2,0,L|52:212,1,80,0|0,0:0|0:0,0:0:0:0:
112,284,65930,2,0,L|132:200,1,80,0|0,0:0|0:0,0:0:0:0:
96,116,66272,1,8,0:0:0:0:
256,32,66444,5,8,0:0:0:0:
188,100,66615,1,8,0:0:0:0:
256,168,66787,1,8,0:0:0:0:
323,100,66958,1,4,0:0:0:0:
340,196,67130,2,0,P|316:240|284:260,1,80
196,252,67472,1,0,0:0:0:0:
64,288,67644,6,0,B|124:280|124:280|156:344|224:328,1,160,0|0,0:0|0:0,0:0:0:0:
196,252,68158,2,0,P|240:240|272:248,1,80,0|0,0:0|0:0,0:0:0:0:
352,304,68501,1,0,0:0:0:0:
448,136,68844,1,0,0:0:0:0:
392,80,69015,2,0,P|336:56|248:96,1,160,0|0,0:0|0:0,0:0:0:0:
196,152,69530,1,0,0:0:0:0:
144,92,69701,6,0,L|80:152,1,80
32,84,70044,1,0,0:0:0:0:
32,84,70215,1,0,0:0:0:0:
85,147,70387,2,0,L|64:228,1,80
96,296,70730,1,0,0:0:0:0:
172,312,70901,6,0,P|228:276|340:292,1,160
288,160,71415,1,8,0:0:0:0:
352,112,71587,1,0,0:0:0:0:
432,108,71758,1,0,0:0:0:0:
432,108,71930,2,0,L|404:192,1,80,8|8,0:0|0:0,0:0:0:0:
336,224,72272,1,8,0:0:0:0:
288,160,72444,6,0,B|248:196|217:165|184:136|128:164,1,160,0|8,0:0|0:0,0:0:0:0:
64,76,72958,2,0,B|104:40|135:71|168:100|224:72,1,160,0|8,0:0|0:0,0:0:0:0:
256,144,73472,1,8,0:0:0:0:
256,144,73644,1,0,0:0:0:0:
296,76,73815,2,0,B|343:101|376:71|407:41|447:77,1,160,4|8,0:0|0:0,0:0:0:0:
408,144,74330,1,4,0:0:0:0:
336,176,74501,2,0,B|356:224|400:224|400:224|408:264|456:264,1,160,0|4,0:0|0:0,0:0:0:0:
312,336,75187,6,0,B|288:300|256:280|256:280|224:296|196:336,1,160,4|8,0:0|0:0,0:0:0:0:
116,324,75701,1,0,0:0:0:0:
57,264,75872,2,0,B|104:264|112:224|112:224|156:224|176:176,1,160,0|8,0:0|0:0,0:0:0:0:
100,144,76387,1,0,0:0:0:0:
164,100,76558,2,0,P|240:128|252:200,1,160,0|8,0:0|0:0,0:0:0:0:
316,52,77244,2,0,B|356:28|384:72|384:72|408:32|452:52,1,160,0|8,0:0|0:0,0:0:0:0:
438,236,77930,6,0,P|360:220|332:148,1,160,0|8,0:0|0:0,0:0:0:0:
492,176,78444,1,0,0:0:0:0:
416,156,78615,2,0,L|324:292,1,160,0|8,0:0|0:0,0:0:0:0:
185,289,79301,2,0,L|96:156,1,160,4|8,0:0|0:0,0:0:0:0:
176,144,79815,1,4,0:0:0:0:
256,144,79987,2,0,L|256:224,2,80,0|8|4,0:0|0:0|0:0,0:0:0:0:
200,88,80501,1,0,0:0:0:0:
132,44,80672,6,0,P|60:44|48:124,1,160,6|10,0:0|0:0,0:0:0:0:
76,192,81187,1,0,0:0:0:0:
44,266,81358,2,0,P|60:340|132:340,1,160,2|10,0:0|0:0,0:0:0:0:
156,264,81872,1,2,0:0:0:0:
192,192,82044,2,0,B|224:148|256:192|256:192|292:148|320:192,1,160,0|10,0:0|0:0,0:0:0:0:
356,260,82558,1,0,0:0:0:0:
380,340,82730,2,0,P|452:340|467:266,1,160,2|10,0:0|0:0,0:0:0:0:
388,124,83415,6,0,B|360:60|296:80|296:80|256:120|216:80|216:80|144:60|124:124,1,320,4|2,0:0|0:0,0:0:0:0:
120,200,84272,1,0,0:0:0:0:
120,280,84444,2,0,B|160:308|204:280|204:240|204:240|196:196,1,160,14|0,0:0|0:0,0:0:0:0:
392,280,85130,2,0,B|352:308|308:280|308:240|308:240|316:196,1,160,10|2,0:0|0:0,0:0:0:0:
256,20,85815,1,2,0:0:0:0:
288,92,85987,1,10,0:0:0:0:
364,112,86158,2,0,P|336:160|232:152,1,160,4|10,0:2|0:0,0:0:0:0:
80,168,86844,5,2,0:0:0:0:
80,168,87015,2,0,L|24:236,1,80,8|10,0:0|0:0,0:0:0:0:
128,240,87358,2,0,B|184:176|184:176|268:176,1,160,0|2,0:0|0:0,0:0:0:0:
256,272,87872,1,10,0:0:0:0:
332,248,88044,2,0,L|380:328,2,80,2|0|8,0:0|0:0|0:0,0:0:0:0:
388,192,88558,1,10,0:0:0:0:
388,192,88730,1,10,0:0:0:0:
256,192,88901,12,4,91644,0:0:0:0:
344,172,105358,6,0,B|304:192|296:232|296:232|296:312,1,160,4|0,0:0|0:0,0:0:0:0:
216,312,105873,2,0,B|216:232|216:232|208:192|168:172,1,160,0|0,0:0|0:0,0:0:0:0:
136,248,106387,2,0,L|72:300,1,80,0|0,0:0|0:0,0:0:0:0:
28,232,106730,2,0,L|88:180,1,80,4|0,0:0|0:0,0:0:0:0:
144,28,107244,6,0,P|184:84|268:72,1,160,0|0,0:0|0:0,0:0:0:0:
336,32,107758,2,0,P|380:32|412:48,1,80,0|0,0:0|0:0,0:0:0:0:
432,124,108101,2,0,P|388:124|356:108,1,80,4|0,0:0|0:0,0:0:0:0:
171,122,108616,2,0,P|196:153|204:191,1,80,0|0,0:0|0:0,0:0:0:0:
181,276,108959,2,0,B|224:288|256:260|256:260|292:288|331:272,1,160,0|0,0:0|0:0,0:0:0:0:
136,52,109473,1,4,0:0:0:0:
72,200,109815,1,0,0:0:0:0:
72,280,109987,6,0,P|140:320|192:272,1,160,0|0,0:0|0:0,0:0:0:0:
264,240,110501,2,0,P|300:224|336:240,1,80,0|0,0:0|0:0,0:0:0:0:
300,312,110844,1,4,0:0:0:0:
460,80,111358,6,0,P|392:40|340:88,1,160,0|0,0:0|0:0,0:0:0:0:
264,60,111873,2,0,P|228:44|184:60,1,80,0|0,0:0|0:0,0:0:0:0:
149,129,112216,2,0,P|184:144|220:128,1,80,4|0,0:0|0:0,0:0:0:0:
332,244,112730,6,0,P|272:284|184:284,1,160,0|0,0:0|0:0,0:0:0:0:
108,260,113244,2,0,P|180:296|184:368,1,160,0|0,0:0|0:0,0:0:0:0:
112,336,113758,1,0,0:0:0:0:
272,344,114101,2,0,P|348:312|424:304,1,160,0|0,0:0|0:0,0:0:0:0:
460,232,114616,2,0,P|428:216|405:181,1,80,0|0,0:0|0:0,0:0:0:0:
480,156,114958,1,4,0:0:0:0:
64,48,116330,6,0,B|108:68|108:68|128:48|188:48|208:88,1,160,0|8,0:0|0:0,0:0:0:0:
144,136,116844,2,0,B|116:164|116:164|80:156|44:204|64:252,1,160,0|8,0:0|0:0,0:0:0:0:
144,240,117358,2,0,P|140:284|114:304,1,80,0|8,0:0|0:0,0:0:0:0:
180,352,117701,6,0,P|224:280|212:208,1,160,0|8,0:0|0:0,0:0:0:0:
308,132,118216,2,0,P|296:204|340:276,1,160,8|0,0:0|0:0,0:0:0:0:
400,224,118730,2,0,P|376:196|380:152,1,80,8|8,0:0|0:0,0:0:0:0:
456,128,119073,6,0,B|456:80|408:52|368:64|368:64|360:32,1,160,8|8,0:0|0:0,0:0:0:0:
280,48,119587,2,0,L|120:48,1,160,0|0,0:0|0:0,0:0:0:0:
76,116,120101,1,0,0:0:0:0:
52,192,120273,1,4,0:0:0:0:
132,184,120444,6,0,B|180:152|212:188|240:220|284:188,1,160,0|0,0:0|0:0,0:0:0:0:
364,189,120958,2,0,P|332:120|256:112,1,160,0|8,0:0|0:0,0:0:0:0:
281,191,121473,1,0,0:0:0:0:
324,260,121644,1,0,0:0:0:0:
365,189,121816,6,0,P|404:232|376:328,1,160,4|0,0:0|0:0,0:0:0:0:
278,328,122330,2,0,P|245:280|280:192,1,160,0|0,0:0|0:0,0:0:0:0:
320,112,122844,2,0,P|284:100|240:112,1,80,0|0,0:0|0:0,0:0:0:0:
184,164,123187,5,0,0:0:0:0:
108,144,123358,1,0,0:0:0:0:
68,212,123530,1,0,0:0:0:0:
124,264,123701,2,0,B|184:264|184:264|204:312|268:312,1,160,0|0,0:0|0:0,0:0:0:0:
272,232,124216,2,0,P|312:248|336:280,1,80,0|0,0:0|0:0,0:0:0:0:
404,240,124558,6,0,P|352:176|280:144,1,160,0|8,0:0|0:0,0:0:0:0:
204,136,125073,2,0,P|156:84|200:12,1,160,0|0,0:0|0:0,0:0:0:0:
252,68,125587,2,0,P|292:60|332:68,1,80,8|0,0:0|0:0,0:0:0:0:
408,92,125930,2,0,P|468:156|476:232,1,160,0|8,0:0|0:0,0:0:0:0:
484,304,126444,1,0,0:0:0:0:
328,272,126787,21,0,0:0:0:0:
256,336,126958,1,8,0:0:0:0:
184,272,127130,1,0,0:0:0:0:
256,208,127301,1,0,0:0:0:0:
256,192,132787,12,8,134159,0:0:0:0:
328,44,135530,6,0,B|340:100|340:100|352:148|296:184,1,160,4|8,0:0|0:0,0:0:0:0:
216,184,136044,2,0,B|160:148|172:100|172:100|184:44,1,160,0|0,0:0|0:0,0:0:0:0:
104,44,136559,2,0,L|84:132,1,80,8|0,0:0|0:0,0:0:0:0:
116,200,136901,2,0,P|144:232|156:272,1,80,0|0,0:0|0:0,0:0:0:0:
76,276,137244,5,8,0:0:0:0:
124,340,137416,1,0,0:0:0:0:
204,336,137587,1,0,0:0:0:0:
236,264,137759,2,0,P|284:268|312:288,1,80,0|8,0:0|0:0,0:0:0:0:
384,256,138101,1,0,0:0:0:0:
404,176,138272,6,0,P|371:108|296:108,1,160,0|0,0:0|0:0,0:0:0:0:
216,108,138787,2,0,P|148:104|112:196,1,160,0|0,0:0|0:0,0:0:0:0:
188,184,139301,2,0,L|208:268,2,80,8|0|0,0:0|0:0|0:0,0:0:0:0:
328,264,139987,1,8,0:0:0:0:
336,344,140159,5,0,0:0:0:0:
256,328,140330,1,0,0:0:0:0:
180,348,140501,1,0,0:0:0:0:
112,308,140673,2,0,P|80:280|68:244,1,80,8|8,0:0|0:0,0:0:0:0:
60,164,141016,6,0,B|108:144|108:144|136:96|208:112,1,160,4|8,0:0|0:0,0:0:0:0:
268,164,141530,2,0,P|292:112|236:32,1,160,0|0,0:0|0:0,0:0:0:0:
203,110,142044,2,0,P|183:146|191:190,1,80,8|0,0:0|0:0,0:0:0:0:
132,240,142387,6,0,P|152:276|196:292,1,80,0|0,0:0|0:0,0:0:0:0:
256,332,142730,1,8,0:0:0:0:
325,292,142901,2,0,P|360:276|380:240,1,80,0|0,0:0|0:0,0:0:0:0:
360,168,143244,2,0,P|368:128|404:104,1,80,0|8,0:0|0:0,0:0:0:0:
448,168,143587,1,0,0:0:0:0:
480,88,143759,6,0,P|448:28|356:32,1,160,0|8,0:0|0:0,0:0:0:0:
284,24,144273,2,0,P|199:26|167:86,1,160,0|0,0:0|0:0,0:0:0:0:
248,96,144787,1,8,0:0:0:0:
200,160,144959,1,0,0:0:0:0:
124,188,145130,6,0,B|140:240|208:260|256:220,1,160,0|8,0:0|0:0,0:0:0:0:
292,292,145644,2,0,P|260:312|216:316,2,80,0|8|0,0:0|0:0|0:0,0:0:0:0:
368,268,146159,1,8,0:0:0:0:
388,344,146330,1,8,0:0:0:0:
448,292,146501,6,0,P|480:232|404:204,1,160,4|8,0:0|0:0,0:0:0:0:
412,120,147016,2,0,L|397:26,1,80,0|0,0:0|0:0,0:0:0:0:
324,36,147359,2,0,L|336:116,1,80,0|0,0:0|0:0,0:0:0:0:
256,132,147701,1,0,0:0:0:0:
208,196,147873,6,0,B|164:168|132:192|100:224|52:196,1,160,0|8,0:0|0:0,0:0:0:0:
84,124,148387,2,0,B|136:152|121:192|108:228|156:260,1,160,0|0,0:0|0:0,0:0:0:0:
176,336,148901,1,8,0:0:0:0:
256,348,149073,1,0,0:0:0:0:
336,336,149244,6,0,P|416:328|476:276,1,160,0|8,0:0|0:0,0:0:0:0:
404,244,149759,2,0,P|428:168|396:96,1,160,0|0,0:0|0:0,0:0:0:0:
336,148,150273,2,0,P|292:164|256:152,1,80,8|0,0:0|0:0,0:0:0:0:
296,84,150616,1,0,0:0:0:0:
216,92,150787,2,0,P|180:116|168:156,1,80,0|8,0:0|0:0,0:0:0:0:
160,228,151130,5,0,0:0:0:0:
256,288,151301,1,0,0:0:0:0:
352,228,151473,1,0,0:0:0:0:
256,172,151644,1,8,0:0:0:0:
160,228,151816,1,0,0:0:0:0:
172,308,151987,6,0,P|196:348|300:356,1,160,0|8,0:0|0:0,0:0:0:0:
364,308,152501,2,0,B|404:316|404:316|444:304,1,80,0|0,0:0|0:0,0:0:0:0:
440,224,152844,2,0,L|440:140,1,80,0|8,0:0|0:0,0:0:0:0:
440,64,153187,2,0,B|402:53|402:53|362:61,1,80,0|0,0:0|0:0,0:0:0:0:
284,64,153530,5,0,0:0:0:0:
232,124,153701,1,8,0:0:0:0:
280,188,153873,1,0,0:0:0:0:
400,292,154216,2,0,L|320:296,1,80,0|0,0:0|0:0,0:0:0:0:
240,312,154559,2,0,P|200:296|176:264,1,80,0|0,0:0|0:0,0:0:0:0:
136,200,154901,2,0,P|132:168|104:124,2,80,0|8|0,0:0|0:0|0:0,0:0:0:0:
56,60,155587,6,0,B|84:36|84:36|126:33,1,80,0|8,0:0|0:0,0:0:0:0:
208,36,155930,1,0,0:0:0:0:
256,100,156101,1,0,0:0:0:0:
400,312,156787,5,0,0:0:0:0:
296,352,156959,1,0,0:0:0:0:
192,316,157130,1,0,0:0:0:0:
84,344,157301,1,0,0:0:0:0:
52,272,157473,6,0,P|16:208|36:128,1,160,0|0,0:0|0:0,0:0:0:0:
92,188,157987,2,0,B|132:244|132:244|180:260|224:232,1,160,0|0,0:0|0:0,0:0:0:0:
256,164,158501,1,0,0:0:0:0:
296,232,158673,1,0,0:0:0:0:
332,304,158844,2,0,L|412:324,1,80,0|0,0:0|0:0,0:0:0:0:
472,272,159187,1,0,0:0:0:0:
452,196,159359,6,0,P|468:128|396:112,1,160,0|0,0:0|0:0,0:0:0:0:
320,92,159873,2,0,L|240:112,1,80,0|0,0:0|0:0,0:0:0:0:
388,20,171187,6,0,P|424:68|392:156,1,160,4|0,0:0|0:0,0:0:0:0:
468,196,171701,6,0,P|424:264|448:336,1,160,0|0,0:0|0:0,0:0:0:0:
368,344,172216,2,0,L|298:306,1,80,0|0,0:0|0:0,0:0:0:0:
228,268,172559,1,4,0:0:0:0:
152,288,172730,1,0,0:0:0:0:
132,212,172901,1,0,0:0:0:0:
208,188,173073,6,0,P|268:168|296:76,1,160,0|0,0:0|0:0,0:0:0:0:
220,104,173587,2,0,P|197:77|152:72,1,80,0|0,0:0|0:0,0:0:0:0:
84,108,173930,2,0,P|36:176|40:252,1,160,4|0,0:0|0:0,0:0:0:0:
72,324,174444,6,0,P|148:360|224:352,1,160,0|0,0:0|0:0,0:0:0:0:
268,288,174959,2,0,P|284:248|316:232,1,80,0|0,0:0|0:0,0:0:0:0:
368,292,175301,1,4,0:0:0:0:
448,284,175473,2,0,P|496:228|480:148,1,160,0|0,0:0|0:0,0:0:0:0:
412,108,175987,5,8,0:0:0:0:
356,52,176159,1,0,0:0:0:0:
276,56,176330,2,0,P|248:84|240:128,1,80,0|0,0:0|0:0,0:0:0:0:
256,192,176673,12,4,178044,0:0:0:0:
256,192,178387,5,0,0:0:0:0:
228,40,178730,2,0,L|192:120,1,80,8|0,0:0|0:0,0:0:0:0:
100,124,179072,2,0,L|136:44,1,80,0|0,0:0|0:0,0:0:0:0:
100,124,179415,2,0,B|80:164|120:216|120:216|120:280,1,160,4|8,0:0|0:0,0:0:0:0:
256,192,180101,2,0,B|276:152|236:100|236:100|236:36,1,160,8|8,0:0|0:0,0:0:0:0:
312,68,180615,1,8,0:0:0:0:
388,96,180787,6,0,L|420:180,1,80,4|0,0:0|0:0,0:0:0:0:
484,104,181130,2,0,L|516:192,1,80,8|8,0:0|0:0,0:0:0:0:
508,276,181472,6,0,L|480:351,1,80,8|8,0:0|0:0,0:0:0:0:
413,284,181815,2,0,L|384:358,1,80,4|0,0:0|0:0,0:0:0:0:
324,284,182158,1,4,0:0:0:0:
188,208,193130,6,0,P|256:240|328:200,1,160,4|8,0:0|0:0,0:0:0:0:
360,276,193645,2,0,L|396:352,1,80,0|0,0:0|0:0,0:0:0:0:
456,256,193988,2,0,L|420:184,1,80,0|0,0:0|0:0,0:0:0:0:
388,112,194330,1,0,0:0:0:0:
464,88,194502,6,0,P|440:52|400:36,1,80,0|0,0:0|0:0,0:0:0:0:
332,60,194845,1,8,0:0:0:0:
312,136,195016,2,8,P|240:160|192:100,1,160,0|0,0:0|0:0,0:0:0:0:
112,112,195530,2,0,L|40:148,1,80,8|0,0:0|0:0,0:0:0:0:
20,224,195873,5,0,0:0:0:0:
72,284,196045,1,0,0:0:0:0:
148,304,196216,1,8,0:0:0:0:
224,276,196388,2,0,P|236:196|220:116,1,160,0|0,0:0|0:0,0:0:0:0:
180,52,196902,5,8,0:0:0:0:
100,36,197073,1,0,0:0:0:0:
28,68,197245,2,0,L|52:172,1,80,0|0,0:0|0:0,0:0:0:0:
112,100,197588,2,0,L|132:184,1,80,8|0,0:0|0:0,0:0:0:0:
96,268,197930,1,0,0:0:0:0:
256,352,198102,5,0,0:0:0:0:
188,284,198273,1,8,0:0:0:0:
256,216,198445,1,0,0:0:0:0:
323,284,198616,1,0,0:0:0:0:
64,96,199302,6,0,B|144:116|144:116|156:88|200:64,1,160,0|8,0:0|0:0,0:0:0:0:
228,140,199816,2,0,P|272:152|304:144,1,80,0|8,0:0|0:0,0:0:0:0:
376,108,200159,1,8,0:0:0:0:
476,164,200672,1,8,0:0:0:0:
476,164,200844,1,8,0:0:0:0:
476,280,201358,6,0,B|410:265|410:265|336:192,1,160,4|0,0:0|0:0,0:0:0:0:
264,192,201873,1,0,0:0:0:0:
172,192,202044,1,0,0:0:0:0:
80,196,202215,2,0,B|112:280,1,80,2|0,0:0|0:0,0:0:0:0:
172,192,202558,6,0,B|152:136|152:136|152:32,1,160,0|0,0:0|0:0,0:0:0:0:
240,76,203073,2,0,B|240:120|240:120|240:160,1,80,0|0,0:0|0:0,0:0:0:0:
332,176,203415,1,0,0:0:0:0:
412,132,203587,1,0,0:0:0:0:
452,212,203758,1,0,0:0:0:0:
372,252,203930,1,0,0:0:0:0:
332,336,204101,6,0,B|296:328|264:292,1,80,4|0,0:0|0:0,0:0:0:0:
184,280,204444,2,8,B|104:288,1,80,8|2,0:0|0:0,0:0:0:0:
44,228,204787,1,0,0:0:0:0:
84,148,204958,1,2,0:0:0:0:
176,156,205130,2,0,B|228:92,1,80,8|0,0:0|0:0,0:0:0:0:
292,48,205473,6,0,B|376:64,1,80,2|0,0:0|0:0,0:0:0:0:
444,92,205815,1,8,0:0:0:0:
396,160,205987,2,0,B|448:224,1,80,2|0,0:0|0:0,0:0:0:0:
492,288,206330,1,0,0:0:0:0:
412,308,206501,2,0,B|376:308|346:285,1,70,0|0,0:0|0:0,0:0:0:0:
256,300,206844,6,0,B|232:220,1,80,2|0,0:0|0:0,0:0:0:0:
252,144,207187,1,8,0:0:0:0:
252,144,207358,1,0,0:0:0:0:
164,112,207530,2,0,B|124:96|124:96|92:64,2,80,0|2|8,0:0|0:0|0:0,0:0:0:0:
164,204,208044,6,0,B|116:260|116:260|80:344,1,160,0|0,0:0|0:0,0:0:0:0:
24,256,208558,2,8,B|40:220|40:220|40:176,1,80,8|0,0:0|0:0,0:0:0:0:
64,100,208901,1,0,0:0:0:0:
148,64,209073,1,2,0:0:0:0:
212,128,209244,1,8,0:0:0:0:
164,204,209415,1,0,0:0:0:0:
216,280,209587,6,0,B|244:300|296:304,1,80,2|0,0:0|0:0,0:0:0:0:
372,304,209930,2,0,B|448:280,1,80,8|2,0:0|0:0,0:0:0:0:
476,204,210273,1,0,0:0:0:0:
404,148,210444,1,2,0:0:0:0:
472,88,210615,2,0,B|460:52|416:24,1,80,8|0,0:0|0:0,0:0:0:0:
340,44,210958,6,0,B|260:80,1,80,2|0,0:0|0:0,0:0:0:0:
184,60,211301,1,8,0:0:0:0:
92,52,211473,2,0,B|52:128,1,80,0|0,0:0|0:0,0:0:0:0:
72,204,211816,1,2,0:0:0:0:
48,280,211987,2,0,B|68:304|124:316,1,80,8|0,0:0|0:0,0:0:0:0:
176,256,212330,6,0,B|224:264|256:296|256:296|276:284|324:268,1,160,4|8,0:0|0:0,0:0:0:0:
392,308,212844,1,0,0:0:0:0:
476,272,213015,2,0,B|488:236|468:192,1,80,0|2,0:0|0:0,0:0:0:0:
484,112,213358,1,8,0:0:0:0:
408,60,213530,6,0,B|361:42|309:66|309:66|284:120,1,160,0|0,0:0|0:0,0:0:0:0:
224,160,214044,2,8,B|188:148|160:108,1,80,8|0,0:0|0:0,0:0:0:0:
96,64,214387,2,0,B|68:144,1,80,0|2,0:0|0:0,0:0:0:0:
56,220,214730,1,8,0:0:0:0:
56,220,214901,1,0,0:0:0:0:
144,236,215073,6,0,B|176:256|200:300,1,80,2|0,0:0|0:0,0:0:0:0:
260,344,215415,2,0,B|340:316,1,80,8|0,0:0|0:0,0:0:0:0:
349,237,215758,2,0,B|268:268,1,80,0|2,0:0|0:0,0:0:0:0:
444,208,216101,1,8,0:0:0:0:
416,116,216273,1,0,0:0:0:0:
320,140,216444,6,0,B|284:132|256:96,1,80,2|0,0:0|0:0,0:0:0:0:
176,72,216787,1,8,0:0:0:0:
96,116,216958,2,0,B|80:200,1,80,2|0,0:0|0:0,0:0:0:0:
132,260,217301,1,2,0:0:0:0:
200,320,217473,2,0,B|236:323|280:296,1,80,8|0,0:0|0:0,0:0:0:0:
240,216,217815,6,0,B|256:128,1,80,2|0,0:0|0:0,0:0:0:0:
300,68,218158,1,8,0:0:0:0:
388,96,218330,1,2,0:0:0:0:
476,80,218501,2,0,B|492:112|484:168,1,80,0|2,0:0|0:0,0:0:0:0:
444,228,218844,1,8,0:0:0:0:
416,316,219015,6,0,B|364:298|340:244|368:184,1,160,0|0,0:0|0:0,0:0:0:0:
296,316,219530,2,8,B|216:340,1,80,8|0,0:0|0:0,0:0:0:0:
244,248,219873,2,0,B|164:252,1,80,0|2,0:0|0:0,0:0:0:0:
84,236,220215,1,8,0:0:0:0:
100,148,220387,1,0,0:0:0:0:
188,164,220558,6,0,B|228:164|260:128,1,80,2|0,0:0|0:0,0:0:0:0:
332,160,220901,2,8,B|368:84,1,80,8|0,0:0|0:0,0:0:0:0:
292,56,221244,2,0,B|248:40|208:72,1,80,0|2,0:0|0:0,0:0:0:0:
132,64,221587,1,8,0:0:0:0:
100,148,221758,1,0,0:0:0:0:
84,236,221930,6,0,B|112:312,1,80,0|0,0:0|0:0,0:0:0:0:
188,344,222273,1,0,0:0:0:0:
212,256,222444,2,0,B|240:180,1,80,0|0,0:0|0:0,0:0:0:0:
320,196,222787,1,0,0:0:0:0:
304,280,222958,2,0,B|333:302|380:312,1,80,8|0,0:0|0:0,0:0:0:0:
432,368,223301,1,0,0:0:0:0:
76,208,225358,5,0,0:0:0:0:
76,208,225530,1,0,0:0:0:0:
80,288,225701,2,0,B|32:284|8:240,1,80,0|0,0:0|0:0,0:0:0:0:
148,272,226044,2,0,B|188:264|224:296,1,80,4|2,0:0|0:0,0:0:0:0:
272,360,226387,6,0,B|312:356|340:316,1,80,2|0,0:0|0:0,0:0:0:0:
420,300,226730,2,0,B|404:216|452:144,1,160,2|0,0:0|0:0,0:0:0:0:
424,72,227244,1,2,0:0:0:0:
508,36,227416,1,2,0:0:0:0:
424,72,227587,1,0,0:0:0:0:
344,32,227758,6,0,B|304:44|272:96,1,80,2|2,0:0|0:0,0:0:0:0:
256,156,228101,1,0,0:0:0:0:
196,224,228273,1,2,0:0:0:0:
100,220,228444,2,0,B|98:285|162:333|210:314,1,160,2|2,0:0|0:0,0:0:0:0:
272,296,228958,1,0,0:0:0:0:
347,311,229130,6,0,B|405:292|405:292|392:244|404:192,1,160,2|2,0:0|0:0,0:0:0:0:
320,224,229644,1,0,0:0:0:0:
403,194,229816,2,0,B|376:124|304:112|260:160,1,160,2|2,0:0|0:0,0:0:0:0:
212,84,230330,1,0,0:0:0:0:
128,56,230501,6,0,B|96:136,1,80,2|2,0:0|0:0,0:0:0:0:
12,136,230844,2,0,B|24:224,1,80,0|2,0:0|0:0,0:0:0:0:
104,240,231187,1,2,0:0:0:0:
164,308,231358,1,2,0:0:0:0:
232,244,231530,2,0,B|312:260,1,80,2|0,0:0|0:0,0:0:0:0:
372,316,231873,6,0,B|404:240,1,80,2|2,0:0|0:0,0:0:0:0:
468,192,232216,1,0,0:0:0:0:
456,112,232387,1,2,0:0:0:0:
376,104,232558,2,0,B|312:32|224:56,1,160,0|0,0:0|0:0,0:0:0:0:
176,112,233073,1,0,0:0:0:0:
84,116,233244,6,0,P|48:100|20:64,1,80,0|0,0:0|0:0,0:0:0:0:
176,112,233587,2,0,L|148:204,1,80,0|0,0:0|0:0,0:0:0:0:
88,236,233930,1,0,0:0:0:0:
164,260,234101,1,0,0:0:0:0:
100,316,234273,1,2,0:0:0:0:
176,344,234444,1,0,0:0:0:0:
236,292,234616,5,0,0:0:0:0:
428,300,234958,1,0,0:0:0:0:
344,312,235301,2,0,L|320:392,2,80,2|0|0,0:0|0:0|0:0,0:0:0:0:
400,240,235816,6,0,B|416:160|376:108,1,140,2|0,0:0|0:0,0:0:0:0:
284,96,236330,2,0,B|252:120|248:168,2,80,2|0|0,0:0|0:0|0:0,0:0:0:0:
228,24,236844,1,0,0:0:0:0:
60,72,237187,1,0,0:0:0:0:
60,72,237530,1,4,0:0:0:0:
256,192,237701,12,0,245244,0:0:0:0:
