osu file format v9

[General]
AudioFilename: 01. Borderland.mp3
AudioLeadIn: 0
PreviewTime: 58334
Countdown: 1
SampleSet: Normal
StackLeniency: 0.4
Mode: 0
LetterboxInBreaks: 1

[Editor]
Bookmarks: 38606
DistanceSpacing: 1.2
BeatDivisor: 4
GridSize: 8

[Metadata]
Title:Borderland
Artist:Kawada Mami
Creator:DeeN
Version:Impossible
Source:
Tags:

[Difficulty]
HPDrainRate:8
CircleSize:5
OverallDifficulty:7
ApproachRate:9
SliderMultiplier:2.2
SliderTickRate:0.5

[Events]
//Background and Video events
0,0,"27081748_big_p1.jpg"
//Break Periods
2,79540,84284
2,154214,161240
//Storyboard Layer 0 (Background)
//Storyboard Layer 1 (Fail)
//Storyboard Layer 2 (Pass)
//Storyboard Layer 3 (Foreground)
//Storyboard Sound Samples
//Background Colour Transformations
3,100,163,162,255

[TimingPoints]
1080,326.086956521739,4,1,0,60,1,0
3199,-200,4,1,0,60,0,0
3525,-100,4,1,0,60,0,0
6297,-200,4,1,0,60,0,0
8579,-100,4,1,0,60,0,0
17873,-200,4,1,0,60,0,0
18199,-100,4,1,0,60,0,0
19177,-200,4,1,0,60,0,0
19503,-100,4,1,0,60,0,0
19666,-200,4,1,0,60,0,0
20645,-100,4,1,0,60,0,0
48362,-200,4,1,0,60,0,0
49666,-100,4,1,0,60,0,0
50971,-200,4,1,0,60,0,0
52275,-100,4,1,0,60,0,0
53579,-200,4,1,0,60,0,0
54884,-100,4,1,0,60,0,0
100536,-200,4,1,0,60,0,0
102003,-100,4,1,0,60,0,0
103145,-200,4,1,0,60,0,0
104612,-100,4,1,0,60,0,0
105753,-200,4,1,0,60,0,0
107058,-100,4,1,0,60,0,0
131840,-200,4,1,0,60,0,0
140156,-100,4,1,0,60,0,0
152706,-200,4,1,0,60,0,0
161840,-100,4,1,0,60,0,0

[Colours]
Combo1 : 227,114,0
Combo2 : 255,6,6
Combo3 : 0,0,0
Combo4 : 128,0,255

[HitObjects]
64,80,1080,2,0,B|64:192|64:192,1,110
112,288,1406,2,0,B|136:232|136:232|136:64|136:64,1,220
211,266,1895,2,0,B|208:280|224:224|224:224|208:160,1,110
280,80,2221,2,0,B|283:66|267:122|267:122|283:186,1,110
352,272,2547,2,0,B|349:286|365:230|365:230|349:166,1,110
416,88,2873,1,0
480,192,3036,1,0
480,192,3118,1,0
480,192,3199,2,0,B|480:328,1,110
32,80,3688,5,0
32,192,3851,1,0
128,136,4014,2,0,B|200:128|200:128|248:112|248:112|344:112|344:112,1,220
472,240,4503,2,0,B|400:232|400:232|352:216|352:216|256:216|256:216,1,220
128,136,4993,1,0
88,240,5156,2,0,B|208:240,1,110
256,120,5482,1,0
384,120,5645,1,0
384,120,5726,1,0
384,120,5808,1,0
312,232,5971,2,0,B|312:360,1,110
200,344,6297,6,0,B|176:288|176:288|176:184|176:184,1,165
312,40,6949,2,0,B|336:96|336:96|336:200|336:200,1,165
312,40,7764,6,0,B|240:40|240:40|184:64,1,110
200,344,8253,2,0,B|272:344|272:344|328:320,1,110
200,344,8743,5,0
256,224,8906,1,0
256,96,9069,1,0
256,192,9150,12,0,11351
56,288,11514,6,0,B|56:168,2,110
128,200,12003,2,0,B|128:328,1,110
232,344,12329,2,0,B|208:288|208:288|208:120|208:120,1,220
304,72,12819,2,0,B|304:192,1,110
368,272,13145,1,0
368,272,13226,1,0
368,272,13308,2,0,B|368:152,1,110
480,176,13634,5,0
416,88,13797,1,0
304,72,13960,1,0
232,152,14123,1,0
232,152,14286,6,0,B|104:152,1,110
80,256,14612,2,0,B|136:280|136:280|304:280|304:280,1,220
360,192,15101,2,0,B|248:192,1,110
176,112,15427,1,0
184,112,15509,1,0
192,112,15590,1,0
200,112,15672,1,0
208,112,15753,2,0,B|320:112,1,110
392,32,16079,2,0,B|264:32,1,110
352,120,16406,2,0,B|352:240,1,110
144,328,17058,6,0,B|16:328,2,110
224,248,17547,1,0
304,328,17710,1,0
384,248,17873,2,0,B|336:232|336:232|336:168|336:168,1,110
464,56,18362,6,0,B|464:176,2,110
352,56,18851,1,0
272,136,19014,1,0
192,56,19177,2,0,B|144:72|144:72|144:136|144:136,1,110
288,328,19666,6,0,B|336:312|336:312|336:248|336:248,1,110
336,145,20156,2,0,B|336:200,1,55
280,208,20482,2,0,B|280:144,1,55
184,208,20808,5,0
104,104,20971,5,0
112,104,21052,1,0
120,104,21134,1,0
240,48,21297,5,0
248,48,21378,1,0
256,48,21460,1,0
376,112,21623,5,0
384,112,21704,1,0
392,112,21786,1,0
400,112,21868,1,0
400,112,21949,1,0
408,112,22031,1,0
416,112,22112,1,0
424,112,22194,1,0
432,112,22275,2,0,B|472:160|472:160|472:320|472:320,1,220
340,319,22764,1,0
340,319,22927,2,0,B|300:271|300:271|300:167|300:167,2,165
208,320,23579,6,0,B|88:320,1,110
32,208,23906,2,0,B|160:208,1,110
216,96,24232,1,0
216,96,24313,1,0
216,96,24395,2,0,B|88:96,2,110
304,192,24884,5,0
392,96,25047,1,0
304,192,25210,1,0
432,192,25373,1,0
304,192,25536,2,0,B|264:240|264:240|264:344|264:344,2,165
176,216,26188,6,0,B|224:168|224:168|224:112|224:112,1,110
104,176,26514,2,0,B|64:216|64:216|64:280|64:280,1,110
200,344,26840,5,0
320,248,27003,1,0
248,112,27166,1,0
104,176,27329,1,0
136,304,27493,5,0
256,248,27656,1,0
376,304,27819,2,0,B|424:336|424:336|480:336|480:336,1,110
424,216,28145,2,0,B|384:176|384:176|320:176|320:176,1,110
256,288,28471,5,0
424,216,28634,1,0
256,184,28797,1,0
88,216,28960,5,0
200,152,29123,1,0
328,160,29286,1,0
216,88,29449,5,0
104,152,29612,1,0
176,40,29775,1,0
176,40,29857,5,0
176,40,29938,2,0,B|304:40,1,110
352,152,30264,2,0,B|232:152,1,110
152,248,30590,1,0
216,360,30753,2,0,B|256:310|256:310|256:206|256:208,2,165
328,288,31406,6,0,B|376:328|376:328|432:328|432:328,1,110
392,200,31732,2,0,B|344:160|344:160|288:160|288:160,1,110
392,200,32058,5,0
264,56,32221,1,0
120,184,32384,1,0
248,328,32547,1,0
400,240,32710,6,0,B|400:232|400:304|400:304|360:328,1,110
384,112,33036,2,0,B|376:112|448:112|448:112|471:150,1,110
131,176,33362,2,0,B|296:176,2,165
296,288,34014,1,0
208,352,34177,5,0
96,352,34340,1,0
184,296,34503,5,0
96,232,34666,1,0
208,240,34829,5,0
160,136,34993,1,0
256,200,35156,1,0
256,200,35237,1,0
256,200,35319,1,0
416,48,35645,6,0,B|416:160,1,110
451,356,35971,2,0,B|456:368|432:304|432:304|456:256,1,110
344,352,36297,1,0
122,352,36460,2,0,B|232:352,1,110
256,248,36786,1,0
256,248,36868,1,0
256,248,36949,2,0,B|256:128,1,110
368,136,37275,2,0,B|368:248,2,110
312,336,37764,5,0
312,336,37846,1,0
312,336,37927,2,0,B|264:360|264:360|208:360|208:360,1,110
152,264,38253,2,0,B|208:232|208:232|264:232|264:232,1,110
360,192,38579,2,0,B|320:152|320:152|320:88|320:88,1,110
152,192,38906,2,0,B|192:152|192:152|192:88|192:88,1,110
80,96,39232,5,0
136,48,39395,1,0
216,56,39558,1,0
256,120,39721,1,0
328,144,39884,1,0
400,120,40047,1,0
440,56,40210,1,0
440,56,40291,1,0
440,56,40373,1,0
448,192,40536,5,0
448,232,40862,5,0
448,272,41188,6,0,B|368:360,1,110
352,248,41514,2,0,B|240:224,1,110
320,144,41840,2,0,B|296:88|296:88|248:72|248:72,1,110
208,176,42166,1,0
104,216,42329,1,0
104,216,42411,1,0
104,216,42493,2,0,B|128:272|128:272|176:288|176:288,1,110
392,360,42819,1,0
280,328,42982,1,0
464,112,43145,6,0,B|416:80|416:80|248:80|248:80,1,220
184,192,43634,1,0
248,304,43797,2,0,B|384:304,1,110
253,80,44123,5,0
320,192,44286,1,0
320,192,44368,1,0
320,192,44449,2,0,B|448:192,1,110
360,304,44775,2,0,B|240:304,1,110
136,240,45101,1,0
256,184,45264,1,0
160,96,45427,1,0
256,184,45590,5,0
360,304,45753,1,0
360,304,45835,1,0
360,304,45916,2,0,B|250:304,2,110
472,224,46406,2,0,B|432:160|432:160|432:40|432:40,2,165
344,184,47058,1,0
248,272,47221,1,0
120,240,47384,1,0
88,112,47547,1,0
200,40,47710,1,0
328,64,47873,1,0
328,64,47954,1,0
328,64,48036,1,0
328,64,48118,1,0
328,64,48199,1,0
456,144,48362,6,0,B|440:176|464:208,1,55
464,288,48688,2,0,B|480:320|464:352,1,55
384,328,49014,2,0,B|368:296|392:264,1,55
304,211,49340,2,0,B|320:264|304:320,1,110
208,320,49829,6,0,B|192:264|207:211,2,110
144,211,50319,2,0,B|160:264|144:320,1,110
80,320,50645,2,0,B|64:264|80:200,1,110
72,136,50971,6,0,B|64:105|72:81,1,55
152,48,51297,2,0,B|160:80|152:112,1,55
235,197,51623,2,0,B|224:176|232:144,1,55
315,282,51949,2,0,B|256:304|208:280,1,110
376,216,52438,6,0,B|432:192|488:216,2,110
336,168,52927,2,0,B|284:189|228:165,1,110
312,112,53253,2,0,B|363:90|419:114,1,110
304,48,53579,6,0,B|272:40|248:56,1,55
153,153,53906,2,0,B|152:136|176:104,1,55
64,160,54232,2,0,B|31:224|76:273|138:294|184:238,1,220
184,238,55047,5,0
232,152,55210,1,0
328,120,55373,1,0
416,160,55536,1,0
440,256,55699,1,0
384,336,55862,1,0
384,336,55944,1,0
384,336,56025,1,0
208,336,56188,6,0,B|184:288|184:288|184:216|184:216,1,110
228,90,56514,2,0,B|184:112|184:112|112:112|128:112,1,110
56,224,56840,2,0,B|16:224,7,27.5
56,224,57166,2,0,B|184:224,1,110
232,336,57493,2,0,B|192:336,7,27.5
232,336,57819,2,0,B|360:336,1,110
224,232,58145,1,0
376,232,58308,1,0
288,104,58471,1,0
224,232,58634,1,0
136,104,58797,6,0,B|80:104|80:104|16:128|16:128,2,110
256,160,59286,2,0,B|376:160,1,110
424,280,59612,2,0,B|296:280,1,110
192,336,59938,1,0
192,336,60020,1,0
192,336,60101,2,0,B|192:216,1,110
64,184,60427,2,0,B|64:296,1,110
64,184,60753,1,0
120,64,60916,1,0
216,160,61079,5,0
160,280,61243,1,0
288,280,61406,2,0,B|336:240|336:240|392:240|392:240,1,110
480,152,61732,1,0
352,160,61895,2,0,B|352:104|352:104|320:48|320:48,1,110
256,168,62221,2,0,B|256:224|256:224|288:280|288:280,1,110
176,344,62547,2,0,B|176:280|176:280|160:224|160:224|160:120|160:120,1,220
48,192,63036,1,0
48,192,63118,1,0
48,192,63199,2,0,B|48:80|48:80,1,110
312,88,63688,6,0,B|312:216,1,110
256,320,64014,1,0
256,192,64177,1,0
384,152,64340,2,0,B|384:145|384:249|384:249|368:305|368:305|368:369,1,220
304,256,64829,1,0
256,136,64993,6,0,B|144:136|144:136|96:112|96:112|32:112|32:112,1,220
80,208,65482,1,0
43,304,65645,2,0,B|33:304|97:304|97:304|145:280|145:280|256:280,1,220
384,296,66134,6,0,B|352:248|352:248|352:184|352:184,1,110
432,88,66460,2,0,B|464:136|464:136|464:192|464:192,1,110
344,136,66786,5,0
248,184,66949,1,0
360,200,67112,1,0
456,256,67275,1,0
344,264,67438,1,0
248,320,67601,1,0
360,328,67764,1,0
360,56,68253,1,0
184,192,68579,5,0
176,192,68661,1,0
168,192,68743,1,0
160,192,68824,1,0
152,192,68906,2,0,B|96:192|96:192|48:232|48:232,1,110
128,336,69232,2,0,B|184:336|184:336|232:296|232:296,1,110
408,101,69558,2,0,B|408:88|408:248|408:248|360:304,1,220
256,224,70047,2,0,B|256:242|256:170|256:170|288:120,1,110
424,64,70373,2,0,B|424:45|424:117|424:117|392:168,1,110
256,224,70699,1,0
256,224,70781,1,0
256,224,70862,2,0,B|184:224|184:224|136:208|136:208|88:208|88:208,2,165
328,112,71514,5,0
200,112,71677,1,0
128,224,71840,2,0,B|193:224|193:224|249:208|249:208|345:208|347:208,1,220
400,328,72329,2,0,B|399:328|303:328|303:328|247:344|247:344|182:344,1,220
180,344,72819,5,0
128,224,72982,1,0
184,144,73471,1,0
96,104,73797,1,0
168,56,74123,1,0
256,80,74449,1,0
280,160,74775,1,0
232,328,75101,5,0
272,248,75264,1,0
360,248,75427,1,0
440,208,75590,1,0
448,120,75753,1,0
376,64,75916,1,0
376,64,75998,1,0
376,64,76079,1,0
288,96,76243,1,0
232,168,76406,1,0
272,248,76569,1,0
272,248,76650,1,0
272,248,76732,1,0
192,352,76895,6,0,B|48:352,1,110
24,232,77221,2,0,B|136:232,1,110
200,120,77547,1,0
192,120,77628,1,0
184,120,77710,1,0
176,120,77791,1,0
168,120,77873,2,0,B|32:120,1,110
352,120,78199,5,0
440,224,78362,1,0
376,336,78525,2,0,B|360:288|360:288|264:288,1,110
136,336,78851,1,0
256,208,79014,1,0
136,80,79177,1,0
376,80,79340,1,0
64,56,84884,6,0,B|80:104|80:104|80:176|80:176,1,110
72,272,85210,2,0,B|192:272,1,110
272,208,85536,2,0,B|152:208,1,110
168,96,85862,1,0
168,96,85944,1,0
168,96,86025,1,0
280,96,86188,1,0
336,192,86351,1,0
280,288,86514,1,0
168,288,86677,2,0,B|152:224|152:224|152:152|152:152|152:56,1,220
168,288,87166,5,0
344,288,87493,1,0
344,288,87819,6,0,B|368:240|368:240|368:176|368:176,1,110
448,112,88145,2,0,B|408:88|408:88|344:88|344:88,1,110
272,168,88471,2,0,B|232:192|232:192|168:192|168:192,1,110
208,104,88797,1,0
208,104,88878,1,0
208,104,88960,1,0
152,272,89123,1,0
264,272,89286,1,0
264,272,89612,5,0
152,272,89775,1,0
200,176,89938,1,0
88,176,90101,6,0,B|88:120|88:120|48:56|48:56,1,110
160,112,90427,1,0
248,184,90590,1,0
328,104,90753,2,0,B|456:104,1,110
400,216,91079,2,0,B|384:272|384:272|400:320|400:320,1,110
312,264,91406,5,0
256,344,91569,1,0
200,264,91732,1,0
144,344,91895,1,0
88,264,92058,1,0
144,184,92221,1,0
200,264,92384,1,0
200,264,92465,1,0
200,264,92547,1,0
282,85,92710,6,0,B|288:80|256:112|256:112|256:184,1,110
349,138,93036,2,0,B|344:144|376:112|376:112|376:41,1,110
312,280,93362,2,0,B|352:320|352:320|408:320|408:320,1,110
200,280,93688,2,0,B|160:320|160:320|104:320|104:320,1,110
120,224,94014,1,0
168,136,94177,1,0
256,192,94340,1,0
344,136,94503,1,0
392,224,94666,5,0
392,224,94748,1,0
392,224,94829,1,0
392,224,94911,1,0
392,224,94993,2,0,B|432:176|432:176|432:16|432:16,1,220
320,80,95482,2,0,B|320:200,1,110
256,304,95808,1,0
184,192,95971,2,0,B|184:64,2,110
104,296,96460,6,0,B|104:160,1,110
24,80,96786,2,0,B|24:208,1,110
24,80,97112,1,0
152,80,97275,1,0
152,208,97438,1,0
280,200,97601,2,0,B|400:200,1,110
456,104,97927,6,0,B|224:104,1,220
136,192,98416,2,0,B|256:192,2,110
232,280,98906,2,0,B|112:280,1,110
344,352,99232,2,0,B|368:328|368:328|368:240|368:240,1,110
312,136,99558,2,0,B|288:196|288:196|288:296|288:296,2,165
208,56,100210,1,0
312,136,100373,1,0
456,144,100536,6,0,B|440:176|464:208,1,55
464,288,100862,2,0,B|480:320|464:352,1,55
384,328,101188,2,0,B|368:296|392:264,1,55
304,211,101514,2,0,B|320:264|304:320,1,110
208,320,102003,6,0,B|192:264|207:211,2,110
144,211,102493,2,0,B|160:264|144:320,1,110
80,320,102819,2,0,B|64:264|80:200,1,110
72,136,103145,6,0,B|64:105|72:81,1,55
152,48,103471,2,0,B|160:80|152:112,1,55
235,197,103797,2,0,B|224:176|232:144,1,55
315,282,104123,2,0,B|256:304|208:280,1,110
376,216,104612,6,0,B|432:192|488:216,2,110
336,168,105101,2,0,B|284:189|228:165,1,110
312,112,105427,2,0,B|363:90|419:114,1,110
304,48,105753,6,0,B|272:40|248:56,1,55
153,153,106080,2,0,B|152:136|176:104,1,55
64,160,106406,2,0,B|31:224|76:273|138:294|184:238,1,220
184,238,107221,5,0
232,152,107384,1,0
328,120,107547,1,0
416,160,107710,1,0
440,256,107873,1,0
384,336,108036,1,0
384,336,108118,1,0
384,336,108199,1,0
208,336,108362,5,0
208,208,108525,1,0
400,240,108688,5,0
272,240,108851,1,0
304,48,109014,5,0
304,176,109177,1,0
112,144,109340,5,0
240,144,109503,1,0
240,144,109585,1,0
240,144,109666,1,0
400,240,109829,5,0
272,240,109992,1,0
336,352,110156,1,0
336,224,110319,5,0
256,328,110482,1,0
424,328,110645,2,0,B|424:184,1,110
320,136,110971,6,0,B|310:141|384:104|384:104|480:104,2,165
224,232,111623,1,0
160,120,111786,2,0,B|280:120,1,110
336,232,112112,2,0,B|216:232,1,110
160,344,112438,2,0,B|400:344,1,220
160,344,112927,5,0
56,264,113090,1,0
160,184,113253,1,0
56,104,113416,1,0
56,104,113498,1,0
56,104,113579,2,0,B|168:104,1,110
240,352,113906,2,0,B|240:288|240:288|224:232|224:232|224:128|224:134,1,220
414,224,114395,6,0,B|304:224,1,110
98,160,114721,2,0,B|208:160,1,110
424,256,115047,6,0,B|304:256,1,110
88,128,115373,2,0,B|208:128,1,110
368,128,115699,5,0
368,128,115781,1,0
368,128,115862,2,0,B|368:192|368:192|384:248|384:248|384:352|384:345,1,220
288,344,116351,1,0
192,352,116514,2,0,B|192:360|192:256|192:256|208:200|208:200|208:136,2,220
208,134,117329,6,0,B|320:134|320:134|368:110|368:110|432:110|432:110,1,220
416,296,117819,2,0,B|426:296|362:296|362:296|314:272|314:272|203:272,1,220
144,152,118308,2,0,B|128:200|128:200|128:288|128:288,1,110
208,152,118634,2,0,B|273:152|273:152|329:136|329:136|433:136|425:136,1,220
208,152,119123,5,0
120,216,119286,1,0
232,216,119449,1,0
320,280,119612,1,0
208,280,119775,1,0
112,336,119938,1,0
216,344,120101,1,0
288,40,120427,1,0
224,344,120753,5,0
232,344,120835,1,0
240,344,120916,1,0
248,344,120998,1,0
256,344,121079,2,0,B|288:320|288:320|288:232|288:232,1,110
376,344,121406,1,0
472,256,121569,1,0
376,168,121732,1,0
280,256,121895,6,0,B|152:256,1,110
96,152,122221,2,0,B|224:152,1,110
328,96,122547,2,0,B|280:64|280:64|96:64|96:64,1,220
184,288,123036,2,0,B|232:320|232:320|416:320|416:320,1,220
168,192,123688,5,0
168,192,123851,1,0
168,192,124014,2,0,B|288:192,1,110
384,272,124340,1,0
256,256,124503,1,0
128,272,124666,1,0
128,272,124748,1,0
128,272,124829,1,0
176,144,124993,1,0
336,144,125156,6,0,B|360:248|360:248|336:376|336:376,1,220
175,358,125645,2,0,B|177:373|153:245|153:245|177:141|177:141|177:141,1,220
424,64,126297,5,0
192,192,126623,1,0
360,248,126949,1,0
192,312,127275,5,0
128,192,127438,1,0
120,320,127601,1,0
232,256,127764,1,0
104,248,127927,1,0
208,168,128090,5,0
120,72,128253,1,0
120,72,128335,1,0
120,72,128416,1,0
248,120,128579,1,0
328,232,128743,1,0
328,232,128824,1,0
328,232,128906,1,0
392,120,129069,6,0,B|424:168|424:168|424:240|424:240,1,110
272,352,129395,2,0,B|240:304|240:304|240:232|240:232,1,110
128,232,129721,5,0
128,232,129802,1,0
128,232,129884,2,0,B|248:232,1,110
256,104,130210,1,0
184,312,130373,2,0,B|72:312,1,110
16,168,130699,5,0
128,32,130862,1,0
296,88,131025,1,0
216,248,131188,1,0
384,304,131351,1,0
496,168,131514,1,0
16,168,131840,6,0,B|8:224|32:272|80:288|128:272,1,165
120,128,132819,2,0,B|128:200,1,55
136,280,133308,1,0
136,280,133634,6,0,B|168:264|176:240,1,55
168,152,133960,2,0,B|192:128|232:136,1,55
272,64,134286,1,0
272,64,134449,6,0,B|323:40|376:50|404:92|402:142,1,165
352,264,135427,2,0,B|344:192,1,55
264,280,135917,5,0
216,232,136079,1,0
200,168,136243,1,0
160,112,136406,1,0
96,88,136569,1,0
40,128,136732,1,0
64,328,137058,6,0,B|80:288|136:256|192:272|208:304,1,165
256,224,138037,2,0,B|272:296,1,55
256,224,138525,2,0,B|272:192|264:160,1,55
138,140,138851,2,0,B|160:152|192:144,1,55
263,42,139177,2,0,B|248:56|256:96,1,55
463,132,139666,2,0,B|448:104|400:88|344:96|320:136,1,165
256,192,140237,12,0,141949
40,46,142275,2,0,B|40:40|40:144|40:144|56:200|56:200|56:264,1,220
160,344,142764,2,0,B|280:344,2,110
240,240,143253,2,0,B|112:240,1,110
128,112,143579,1,0
264,112,143743,1,0
200,224,143906,1,0
328,224,144069,2,0,B|456:224,1,110
376,336,144395,2,0,B|504:336,2,110
248,336,144884,6,0,B|254:336|150:336|150:336|94:320|94:320|30:320,1,220
128,240,145373,2,0,B|128:128,2,110
240,168,145862,2,0,B|240:48,1,110
240,248,146188,1,0
376,248,146352,1,0
376,248,146433,1,0
376,248,146514,2,0,B|488:248,1,110
408,144,146841,1,0
408,336,147003,2,0,B|296:336,2,110
64,160,147493,6,0,B|58:160|162:160|162:160|218:144|218:144|282:144,1,220
216,256,147982,2,0,B|344:256,2,110
128,160,148471,2,0,B|0:160,1,110
64,280,148797,1,0
192,304,148960,1,0
192,304,149041,1,0
192,304,149123,2,0,B|192:192,1,110
320,80,149449,1,0
320,80,149530,1,0
320,80,149612,2,0,B|320:192,2,110
120,288,150101,2,0,B|136:208|136:208|192:136|192:136|192:48|192:48,1,220
392,288,150590,2,0,B|376:208|376:208|320:136|320:136|320:48|320:48,1,220
256,328,151079,2,0,B|256:88,1,220
48,224,151569,1,0
56,160,151732,2,0,B|152:232,1,110
280,152,152058,1,0
280,152,152221,2,0,B|160:176,1,110
96,136,152547,1,0
120,136,152710,2,0,B|160:40|160:40|192:160|192:160|216:120|216:120|400:120|400:120,1,440
256,192,161840,5,0
224,232,164286,1,0
136,104,164449,6,0,B|80:104|80:104|16:128|16:128,2,110
256,160,164938,2,0,B|376:160,1,110
424,280,165264,2,0,B|296:280,1,110
192,336,165590,1,0
192,336,165672,1,0
192,336,165753,2,0,B|192:216,1,110
64,184,166079,2,0,B|64:296,1,110
64,184,166405,1,0
120,64,166568,1,0
216,160,166731,5,0
160,280,166895,1,0
288,280,167058,2,0,B|336:240|336:240|392:240|392:240,1,110
480,152,167384,1,0
352,160,167547,2,0,B|352:104|352:104|320:48|320:48,1,110
256,168,167873,2,0,B|256:224|256:224|288:280|288:280,1,110
176,344,168199,2,0,B|176:280|176:280|160:224|160:224|160:120|160:120,1,220
48,192,168688,1,0
48,192,168770,1,0
48,192,168851,2,0,B|48:80|48:80,1,110
312,88,169340,6,0,B|312:216,1,110
256,320,169666,1,0
256,192,169829,1,0
384,152,169992,2,0,B|384:145|384:249|384:249|368:305|368:305|368:369,1,220
304,256,170481,1,0
256,136,170645,6,0,B|144:136|144:136|96:112|96:112|32:112|32:112,1,220
80,208,171134,1,0
43,304,171297,2,0,B|33:304|97:304|97:304|145:280|145:280|256:280,1,220
384,296,171786,6,0,B|352:248|352:248|352:184|352:184,1,110
432,88,172112,2,0,B|464:136|464:136|464:192|464:192,1,110
344,136,172438,5,0
248,184,172601,1,0
360,200,172764,1,0
456,256,172927,1,0
344,264,173090,1,0
248,320,173253,1,0
360,328,173416,1,0
360,56,173905,1,0
184,192,174231,5,0
176,192,174313,1,0
168,192,174395,1,0
160,192,174476,1,0
152,192,174558,2,0,B|96:192|96:192|48:232|48:232,1,110
128,336,174884,2,0,B|184:336|184:336|232:296|232:296,1,110
408,101,175210,2,0,B|408:88|408:248|408:248|360:304,1,220
256,224,175699,2,0,B|256:242|256:170|256:170|288:120,1,110
424,64,176025,2,0,B|424:45|424:117|424:117|392:168,1,110
256,224,176351,1,0
256,224,176433,1,0
256,224,176514,2,0,B|184:224|184:224|136:208|136:208|88:208|88:208,2,165
328,112,177166,5,0
200,112,177329,1,0
128,224,177492,2,0,B|193:224|193:224|249:208|249:208|345:208|347:208,1,220
400,328,177981,2,0,B|399:328|303:328|303:328|247:344|247:344|182:344,1,220
180,344,178471,5,0
128,224,178634,1,0
184,144,179123,1,0
96,104,179449,1,0
168,56,179775,1,0
256,80,180101,1,0
280,160,180427,1,0
232,328,180753,5,0
272,248,180916,1,0
360,248,181079,1,0
440,208,181242,1,0
448,120,181405,1,0
376,64,181568,1,0
376,64,181650,1,0
376,64,181731,1,0
288,96,181895,1,0
232,168,182058,1,0
272,248,182221,1,0
272,248,182302,1,0
272,248,182384,1,0
192,352,182547,6,0,B|48:352,1,110
24,232,182873,2,0,B|136:232,1,110
200,120,183199,1,0
192,120,183280,1,0
184,120,183362,1,0
176,120,183443,1,0
168,120,183525,2,0,B|32:120,1,110
352,120,183851,5,0
440,224,184014,1,0
376,336,184177,2,0,B|360:288|360:288|264:288,1,110
136,336,184503,1,0
256,208,184666,1,0
136,80,184829,1,0
376,80,184992,1,0
