osu file format v6

[General]
AudioFilename: Kawada Mami (Shakugan no Shana - Movie) - Akai namida.mp3
AudioLeadIn: 0
PreviewTime: 58187
Countdown: 0
SampleSet: Normal
StackLeniency: 0.7
Mode: 0
LetterboxInBreaks: 1

[Editor]
Bookmarks: 5861,34117,58884
DistanceSpacing: 0.5
BeatDivisor: 4
GridSize: 8

[Metadata]
Title:Akai Namida
Artist:Kawada Mami
Creator:FuukoLover
Version:Easy
Source:Shakugan no Shana
Tags:Insert Song Movie Dangaard DJPop

[Difficulty]
HPDrainRate:2
CircleSize:3
OverallDifficulty:2
SliderMultiplier:1.6
SliderTickRate:0.5

[Events]
//Background and Video events
0,0,"Bg.jpg"
//Break Periods
//Storyboard Layer 0 (Background)
Sprite,Background,Centre,"Sb1.jpg",320,240 F,0,32430,33430,0,1 S,0,33420,57838,1,0.9 F,0,57539,57839,1,0
Sprite,Background,Centre,"Sb2.jpg",320,240 F,0,56840,57840,0,1 S,0,57830,84152,1,0.9 F,0,83153,84153,1,0
Sprite,Background,Centre,"Thank you.png",200,500 F,0,83654,84154,0,1 S,0,84144,85500,1 F,0,85501,86000,1,0
//Storyboard Layer 1 (Fail)
//Storyboard Layer 2 (Pass)
//Storyboard Layer 3 (Foreground)
//Storyboard Sound Samples
//Background Colour Transformations
3,100,163,162,255

[TimingPoints]
11445,697.674418604651,4,2,1,30,1,0
14931,-100,4,2,1,0,0,0
15105,-100,4,2,1,30,0,0
19989,-100,4,2,1,25,0,0
22954,-100,4,2,1,40,0,0
26094,-100,4,2,1,0,0,0
26181,-100,4,2,1,30,0,0
33768,-100,4,2,1,50,0,0
34117,-100,4,1,1,50,0,0
49817,-100,4,1,1,8,0,0
49991,-100,4,1,1,50,0,0
58884,-100,4,1,1,60,0,1
84001,-100,4,1,1,60,0,0

[Colours]
Combo1 : 255,242,255
Combo2 : 255,60,60
Combo3 : 255,149,43
SliderBorder : 255,242,255

[HitObjects]
48,232,12142,2,0,B|32:360|160:328,1,160
208,336,13538,1,0
288,336,14235,2,0,B|304:216|192:224,1,160
128,224,15631,5,0
128,144,16328,1,0
128,64,17026,2,2,B|16:64|16:64,2,80
168,64,18072,6,0,B|208:40|248:64,1,80
320,64,19119,1,0
400,64,19817,1,0
432,88,20165,5,0
456,120,20514,1,2
376,136,21212,1,2
440,280,22607,1,0
360,280,23305,6,0,B|280:208|360:144,1,160
352,64,24700,1,0
272,64,25398,2,0,B|208:112|176:40|104:72,1,160
80,72,26445,6,0,B|80:184,1,80
80,232,27491,1,0
80,312,28189,2,2,B|176:312,2,80
80,232,29584,5,0
160,232,30282,2,0,B|216:216|264:248,1,80
256,208,30979,12,4,33770
432,64,34468,5,0
432,104,34817,2,0,B|272:208,1,157.5,0|0
304,232,35863,1,0
304,312,36561,2,0,B|112:312,1,160,0|0
104,312,37607,2,0,B|0:312,3,80,0|0|0|8
24,272,39003,6,0,B|112:176|-16:160|40:80,1,200
96,88,40398,2,0,B|184:144|176:56|360:104,1,240
328,136,41793,1,0
328,176,42142,1,0
128,184,43886,6,0,B|170:149|200:224|288:176,1,160
280,136,44933,2,0,B|192:216|160:56|16:160,1,280
40,296,47375,6,0,B|104:256|200:352|288:304,1,240
272,272,48770,2,0,B|184:256|152:192|24:232,1,240
40,144,50514,5,0
120,144,51212,2,0,B|160:168|232:136,1,80
240,152,51910,2,0,B|320:200|304:120|400:152,2,160,0|0|0
240,224,54003,1,0
240,304,54700,1,0
256,208,56096,12,4,58189
64,104,58886,6,0,B|136:32|136:160|200:32|168:176|224:80,1,160,0|8
288,104,60282,2,0,B|344:64|392:152|448:96,1,160,0|8
448,144,61328,6,0,B|448:248,3,80,0|0|0|8
408,224,62724,2,0,B|408:104,3,80
368,144,64119,6,0,B|264:144|280:176,1,80,0|4
288,232,65165,2,0,B|216:288|216:176|48:248,1,240,0|0
56,200,66561,1,8
72,120,67258,6,0,B|152:56|224:136,1,160
216,208,68654,2,0,B|288:280|368:200,1,160
360,168,69700,6,0,B|328:80|272:120|240:48,1,160,0|0
208,64,70747,2,0,B|120:152|280:192|184:288,1,240,8|0
152,280,72142,1,8
112,280,72491,6,0,L|88:248|120:216,3,80,0|0|0|8
160,224,73886,2,0,L|184:256|152:288,3,80
152,328,75282,6,0,B|184:312|232:344|264:328,1,80,0|4
312,328,76328,2,0,B|376:256|304:176,1,160
392,176,77724,1,8
360,248,78421,1,4
256,312,79468,6,0,B|120:160|368:160|232:24,1,320
256,208,81212,12,0,84003
