osu file format v12

[General]
AudioFilename: Kawabe Chieco - Sakura Kiss (TV Size).mp3
AudioLeadIn: 0
PreviewTime: 34140
Countdown: 1
SampleSet: Normal
StackLeniency: 0.7
Mode: 0
LetterboxInBreaks: 1

[Editor]
DistanceSpacing: 1.2
BeatDivisor: 4
GridSize: 4

[Metadata]
Title:Sakura Kiss (TV Size)
TitleUnicode:
Artist:Kawabe Chieco
ArtistUnicode:
Creator:Mok
Version:Easy
Source:Ouran High School Host Club
Tags:
BeatmapID:225108
BeatmapSetID:81000

[Difficulty]
HPDrainRate:2
CircleSize:3
OverallDifficulty:2
ApproachRate:2
SliderMultiplier:0.8
SliderTickRate:1

[Events]
//Background and Video events
Video,0,"Kawabe Chieco - Sakura Kiss (TV Size).avi"
0,0,"Kawabe Chieco - Sakura Kiss (TV Size).jpg",0,0
//Break Periods
//Storyboard Layer 0 (Background)
//Storyboard Layer 1 (Fail)
//Storyboard Layer 2 (Pass)
//Storyboard Layer 3 (Foreground)
//Storyboard Sound Samples
//Background Colour Transformations
3,100,163,162,255

[TimingPoints]
1638,361.44578313253,4,1,0,80,1,0
10674,-100,4,2,0,65,0,0
20433,-100,4,1,0,65,0,0
26216,-200,4,1,0,65,0,0
26939,-100,4,1,0,65,0,0
43475,-100,4,1,0,5,0,0
43656,-100,4,1,0,65,0,0
45011,-100,4,1,0,75,0,1
49710,-200,4,1,0,75,0,1
50433,-100,4,1,0,75,0,1
56577,-100,4,1,0,70,0,0
66698,-200,4,1,0,70,0,0
70674,-100,4,1,0,75,0,1
71397,-100,4,1,0,80,0,0

[HitObjects]
45,41,1638,2,0,B|104:96,1,80
28,140,2360,2,0,B|96:204,1,80
176,224,3083,2,0,B|256:260|344:220,1,160
256,104,4348,1,4,0:0:0:0:
466,41,4891,6,0,B|408:96,1,80,2|0,0:0|0:0,0:0:0:0:
484,140,5613,2,0,B|416:204,1,80,2|0,0:0|0:0,0:0:0:0:
396,288,6336,2,0,B|380:336|332:336|332:336|300:356,1,120,2|0,0:0|0:0,0:0:0:0:
208,352,7240,2,0,B|179:333|179:333|131:333|115:285,1,120,6|8,0:0|0:0,0:0:0:0:
40,224,8144,2,0,B|40:132,2,80,0|8|0,0:0|0:0|0:0,0:0:0:0:
128,180,9228,2,0,B|128:48,1,120,8|0,0:0|0:0,0:0:0:0:
208,116,10131,1,4,0:0:0:0:
340,56,10674,6,0,B|388:64|400:112,1,80,0|8,0:0|0:0,0:0:0:0:
384,200,11397,2,0,B|336:192|324:144,2,80,0|8|0,0:0|0:0|0:0,0:0:0:0:
472,240,12481,2,0,B|440:288|392:288|392:288|392:356,1,160,8|0,0:0|0:0,0:0:0:0:
300,324,13565,1,8,0:0:0:0:
224,264,13927,1,0,0:0:0:0:
188,352,14288,1,8,0:0:0:0:
92,352,14650,2,0,B|92:288|92:288|44:288|12:240,1,160
96,196,15734,1,4,0:0:0:0:
148,60,16276,6,0,B|152:112,2,40,0|8|0,0:0|0:0|0:0,0:0:0:0:
256,156,17180,2,0,B|256:72,1,80,8|0,0:0|0:0,0:0:0:0:
352,96,17903,2,0,B|356:44,2,40,8|0|8,0:0|0:0|0:0,0:0:0:0:
360,192,18625,2,0,B|412:176|428:140|448:104|440:56,2,160,0|4|0,0:0|0:0|0:0,0:0:0:0:
440,244,20433,2,0,B|476:288|452:332,1,80
364,340,21156,2,0,B|276:340,1,80
256,248,21878,1,0,0:0:0:0:
220,160,22240,6,0,B|172:140|132:180|88:140,1,120,2|0,0:0|0:0,0:0:0:0:
152,68,23144,1,0,0:0:0:0:
296,64,23686,2,0,B|344:84|384:44|428:84,1,120,2|0,0:0|0:0,0:0:0:0:
364,156,24590,1,0,0:0:0:0:
452,268,25131,2,0,B|436:176,2,80,2|0|2,0:0|0:0|0:0,0:0:0:0:
408,336,26216,2,0,B|324:336,1,80,0|2,0:0|0:0,0:0:0:0:
184,336,27481,1,4,0:0:0:0:
48,284,28023,6,0,B|48:200,1,80,2|0,0:0|0:0,0:0:0:0:
144,188,28746,2,0,B|212:124,1,80,0|2,0:0|0:0,0:0:0:0:
180,40,29469,2,0,B|116:104,2,80,0|2|0,0:0|0:0|0:0,0:0:0:0:
268,80,30553,1,4,0:0:0:0:
376,240,31276,6,0,B|344:272|344:272|328:320|284:312,2,120,2|0|0,0:0|0:0|0:0,0:0:0:0:
436,316,32722,1,2,0:0:0:0:
476,228,33083,1,0,0:0:0:0:
424,148,33445,6,0,B|348:100|268:148,1,160,4|0,0:0|0:0,0:0:0:0:
88,236,34891,2,0,B|164:284|244:236,2,160,0|0|4,0:0|0:0|0:0,0:0:0:0:
84,44,37059,2,0,B|64:136,1,80,2|0,0:0|0:0,0:0:0:0:
132,192,37782,2,0,B|152:112,2,80,2|0|2,0:0|0:0|0:0,0:0:0:0:
228,176,38866,2,0,B|240:88,1,80,0|4,0:0|0:0,0:0:0:0:
256,192,39951,12,0,43565,0:0:0:0:
256,192,45011,5,4,0:0:0:0:
188,124,45372,1,0,0:0:0:0:
168,220,45734,2,0,B|184:256|228:280,2,80,8|0|2,0:0|0:0|0:0,0:0:0:0:
128,308,46818,2,0,B|88:344,1,40,8|0,0:0|0:0,0:0:0:0:
16,288,47360,2,0,B|60:252,1,40,2|0,0:0|0:0,0:0:0:0:
36,168,47903,6,0,B|36:84,1,80,4|0,0:0|0:0,0:0:0:0:
120,44,48625,2,0,B|120:136,1,80,2|8,0:0|0:0,0:0:0:0:
208,88,49348,1,2,0:0:0:0:
256,152,49710,6,0,B|256:196,1,40,8|0,0:0|0:0,0:0:0:0:
256,288,50433,1,8,0:0:0:0:
336,340,50794,2,0,B|424:340,1,80,2|0,0:0|0:0,0:0:0:0:
468,260,51517,2,0,B|332:260,2,120,2|4|0,0:0|0:0|0:0,0:0:0:0:
460,168,52963,5,2,0:0:0:0:
400,92,53325,1,0,0:0:0:0:
308,60,53686,1,2,0:0:0:0:
212,56,54047,2,0,B|164:64|140:100,1,80,0|2,0:0|0:0,0:0:0:0:
228,140,54770,2,0,B|200:184|152:176,1,80,0|2,0:0|0:0,0:0:0:0:
168,272,55493,1,2,0:0:0:0:
256,308,55854,1,2,0:0:0:0:
360,272,56216,1,2,0:0:0:0:
284,216,56577,6,0,B|312:172|360:180,2,80,4|0|2,0:0|0:0|0:0,0:0:0:0:
256,308,57662,1,8,0:0:0:0:
256,308,58384,1,8,0:0:0:0:
164,336,58746,2,0,B|120:324|104:264,1,80,2|4,0:0|0:0,0:0:0:0:
40,104,59830,2,0,B|76:140|40:184,2,80,8|0|8,0:0|0:0|0:0,0:0:0:0:
112,40,60915,2,0,B|144:68|144:116,1,80,2|8,0:0|0:0,0:0:0:0:
200,188,61637,2,0,B|232:160|232:112,1,80,0|2,0:0|0:0,0:0:0:0:
320,152,62360,5,4,0:0:0:0:
320,152,63083,1,2,0:0:0:0:
408,192,63445,1,8,0:0:0:0:
256,312,64168,6,0,B|164:308,1,80,8|4,0:0|0:0,0:0:0:0:
128,224,64891,2,0,B|248:228,1,120,4|8,0:0|0:0,0:0:0:0:
148,124,65975,2,0,B|144:36,2,80,2|0|2,0:0|0:0|0:0,0:0:0:0:
356,276,67421,6,0,B|416:332,1,80,0|4,0:0|0:0,0:0:0:0:
156,276,68866,2,0,B|96:332,2,80,0|4|0,0:0|0:0|0:0,0:0:0:0:
256,112,71035,5,4,0:0:0:0:
192,40,71397,2,0,B|156:76|172:120,1,80,2|0,0:0|0:0,0:0:0:0:
100,176,72119,2,0,B|64:140|80:96,2,80,8|0|8,0:0|0:0|0:0,0:0:0:0:
168,244,73204,2,0,B|164:288|120:304|120:304|88:340,2,120,2|0|8,0:0|0:0|0:0,0:0:0:0:
256,284,74650,1,0,0:0:0:0:
344,244,75011,2,0,B|348:288|392:304|392:304|424:340,2,120,8|0|2,0:0|0:0|0:0,0:0:0:0:
256,128,76637,1,4,0:0:0:0:
