osu file format v6

[General]
AudioFilename: Chieko Kawabe - Candy Baby.mp3
AudioLeadIn: 0
PreviewTime: -1
Countdown: 0
SampleSet: Normal
StackLeniency: 0.7
Mode: 0
LetterboxInBreaks: 0

[Editor]
Bookmarks: 4956,17903,38114,48219,75693,86114,95903,111061,144219,155903,171377,181166,196640,201377
DistanceSpacing: 0.800000011920929
BeatDivisor: 4
GridSize: 32

[Metadata]
Title:Candy Baby
Artist:Kawabe Chieco
Creator:aiko781
Version:Normal
Source:
Tags:

[Difficulty]
HPDrainRate:6
CircleSize:4
OverallDifficulty:5
SliderMultiplier:1.1
SliderTickRate:2

[Events]
//Background and Video events
0,0,"cd-front1.jpg"
Video,-4679,"Candy Baby Chieko Kawabe.avi"
//Break Periods
2,35787,37229
2,65945,74808
2,83787,85229
2,134156,143335
2,153734,155019
2,194155,195440
//Storyboard Layer 0 (Background)
//Storyboard Layer 1 (Fail)
//Storyboard Layer 2 (Pass)
//Storyboard Layer 3 (Foreground)
//Storyboard Sound Samples
//Background Colour Transformations
3,100,163,162,255

[TimingPoints]
4956,631.578947368421,4,1,0,60,1,0
17903.6315789474,631.578947368421,4,1,0,60,1,0
45693,-100,4,1,0,60,0,1
46324,-100,4,1,0,60,0,1
46956,-100,4,1,0,60,0,1
48219,-50,4,1,0,60,0,1
75714,-100,4,1,0,60,0,0
95903,-50,4,1,0,60,0,1
142956,-100,4,1,0,60,0,0
155903,-50,4,1,0,60,0,1

[Colours]
Combo1 : 128,255,255
Combo2 : 255,128,255
Combo3 : 255,128,64
Combo4 : 255,255,128
Combo5 : 128,255,128

[HitObjects]
64,64,5271,1,0
128,128,5903,1,0
64,192,6534,1,0
128,256,7008,1,4
160,288,7482,1,2
192,320,7798,5,0
256,256,8429,1,0
192,192,9061,1,0
256,128,9534,1,4
288,96,10008,1,2
320,64,10324,5,0
384,128,10956,1,0
320,192,11587,1,0
384,256,12061,1,4
352,288,12534,1,2
320,320,12850,5,0
256,256,13482,1,0
320,192,14113,1,0
256,128,14587,1,4
256,224,15377,5,0
192,160,16008,1,0
256,160,16640,1,0
320,160,17271,1,0
416,160,17903,6,0,B|448:192|416:224,3,55
352,192,19166,2,0,B|352:224,7,27.5
352,288,20429,6,0,B|288:288|288:224|288:224|288:160|224:160|224:160|192:160,1,220
128,160,22166,1,0
64,64,22956,6,0,B|128:64,1,55
192,64,23587,2,0,B|256:64,1,55
320,64,24219,1,0
384,64,24535,2,0,B|448:64,2,55
320,64,25482,1,0
416,160,26430,1,0
416,160,26587,1,0
448,224,27061,1,0
416,288,27377,1,0
384,224,27693,1,0
288,224,28008,6,0,B|224:224,2,55
288,288,28956,2,0,B|288:352,1,55
224,320,29587,2,0,B|160:320,2,55
224,256,30535,2,0,B|288:256,2,55
224,192,31482,2,0,B|224:160,1,27.5
224,160,31798,2,0,B|224:123,1,27.5
224,128,32272,1,0
128,128,33061,6,0,B|128:160,8,27.5
192,96,34640,1,0
256,64,34956,1,0
288,64,35114,2,0,B|288:96,2,27.5
320,64,35587,1,0
256,192,38429,5,0
192,192,38745,1,0
192,128,39061,1,0
256,128,39377,1,0
320,128,39693,1,8
320,192,40008,1,8
320,256,40324,1,8
256,256,40640,1,0
192,256,40956,1,0
128,256,41272,1,0
128,192,41587,1,0
128,128,41903,1,8
128,64,42219,1,8
128,64,42377,1,8
224,64,43482,5,0
288,64,43798,1,8
352,64,44114,1,8
320,128,44429,1,0
256,128,44745,1,0
288,192,45061,1,8
288,192,45377,1,8
288,288,45693,5,2
288,288,46008,1,2
224,288,46324,5,2
224,288,46482,1,2
224,288,46640,1,2
160,288,46956,5,2
160,288,47114,1,2
160,288,47272,1,2
160,288,47429,1,2
64,64,48219,6,0,B|64:128|96:192|128:224|192:256|224:256|288:256,1,330
352,256,49482,1,0
384,256,49640,1,0
416,256,49798,1,0
448,256,49956,1,0
448,160,50272,5,0
448,160,50429,1,0
448,64,50587,1,0
448,64,50745,2,0,B|384:32|320:64,3,110
288,96,52008,1,0
256,128,52166,1,0
224,160,52324,1,0
192,192,52482,1,0
320,160,52956,6,0,B|448:160,1,110
384,224,53587,2,0,B|256:224,1,110
224,288,54219,2,0,B|352:288,1,110
256,352,54851,2,0,B|128:352,1,110
160,288,55482,2,0,B|160:160,1,110
96,224,56114,2,4,B|96:160,1,55
128,96,57061,5,8
192,32,57377,1,8
256,96,57693,1,8
256,96,57851,1,8
256,96,58008,1,8
352,64,58324,6,0,B|480:64,1,110
416,128,58956,2,0,B|288:128,1,110
256,128,59429,2,0,B|128:128,1,110
96,128,59903,2,0,B|96:256,1,110
96,320,60535,2,0,B|224:320,1,110
288,320,61166,2,0,B|416:320,1,110
480,320,61798,2,0,B|480:256,1,55
416,192,62272,2,0,B|352:192,1,55
288,192,62745,2,0,B|224:192,1,55
96,192,63377,5,0
160,256,63693,1,0
160,128,64008,1,0
160,128,64166,1,0
224,192,64482,2,2,B|256:128|320:128|352:192,1,165
416,256,65272,2,4,B|384:320|320:320|288:256,1,165
416,128,76008,5,0
416,192,76324,1,0
416,256,76640,1,0
352,224,76956,1,0
352,160,77272,1,0
352,96,77587,1,0
288,128,77903,1,0
288,192,78219,1,0
288,256,78535,1,0
224,224,78851,1,0
224,160,79166,1,0
224,96,79482,1,0
192,96,79640,1,0
224,96,79798,1,0
192,96,79956,1,0
96,96,80272,1,0
64,160,81061,6,0,B|128:160,3,55
192,160,82324,2,0,B|192:192,2,27.5
256,160,82956,2,0,B|288:160,1,27.5
288,192,83272,2,0,B|325:192,1,27.5
320,224,83587,1,0
64,64,86429,6,0,B|64:128,1,55
128,160,87061,2,0,B|128:96,1,55
192,160,87693,2,8,B|192:224,1,55
256,256,88324,2,0,B|256:192,1,55
320,160,88956,2,0,B|320:224,1,55
384,160,89587,2,8,B|384:96,1,55
448,64,90219,2,8,B|448:96,1,27.5
224,320,91482,6,2,B|160:320,2,55
256,256,92429,1,0
288,192,92745,2,2,B|352:192,2,55
224,128,93693,6,2,B|160:128,1,55
96,128,94324,6,2,B|64:128,2,27.5
192,128,94956,6,2,B|224:128,3,27.5
192,192,96219,6,0,B|320:192,3,110
192,192,97482,2,0,B|160:160|192:128,3,55
224,96,98272,5,0
256,64,98429,1,0
288,64,98587,1,0
320,64,98745,1,0
384,96,99061,1,0
416,160,99377,1,0
384,224,99693,1,0
320,256,100008,1,0
320,256,100166,1,0
320,256,100324,1,0
320,256,100482,1,0
224,256,100956,6,0,B|96:256,4,110
160,320,102535,2,0,B|288:320,4,110
96,320,104114,1,0
96,320,104272,1,0
160,192,105061,5,8
224,96,105377,1,8
288,192,105693,1,8
288,192,105851,1,8
288,192,106008,1,8
384,192,106324,5,0
384,288,106640,1,0
288,288,106956,1,0
192,288,107272,1,8
192,288,107429,1,8
192,192,107745,1,8
192,192,107903,1,8
192,96,108219,1,0
288,96,108535,1,0
384,96,108851,5,0
384,192,109166,1,0
288,192,109482,1,0
192,192,109798,1,8
192,192,109956,1,8
96,192,110272,1,8
96,192,110429,1,8
96,192,110745,1,8
96,192,110903,1,8
192,288,111377,5,0
256,224,111693,1,0
320,160,112008,1,0
384,96,112324,2,0,B|352:32|288:0|224:0|224:0|160:0|96:32|64:96|64:96|128:96,1,440
224,96,113903,5,0
288,160,114219,1,0
224,224,114535,1,0
160,288,114851,1,0
224,352,115166,2,0,B|256:320|288:352|288:352|320:320|352:352|352:352|384:320,1,165
448,128,116429,5,0
384,192,116745,1,0
320,128,117061,1,0
256,192,117377,1,0
192,128,117693,1,0
96,128,118008,2,8,B|64:160|96:192,1,55
128,288,118482,6,0,B|160:256|160:256|192:288|192:288|224:256|224:256|256:288,1,165
320,320,119272,1,0
384,256,119587,1,0
320,192,119903,1,0
256,128,120219,2,0,B|224:160|224:160|192:128|192:128|160:160|160:160|128:128,1,165
64,256,121166,6,2,B|64:288|96:288|96:288|128:288|128:256,1,110
128,160,121798,2,2,B|128:128|160:128|160:128|192:128|192:160,1,110
224,256,122429,2,2,B|224:288|256:288|256:288|288:288|288:256,1,110
288,160,123061,2,2,B|288:128|320:128|320:128|352:128|352:160,1,110
384,256,123693,2,2,B|384:288|416:288|416:288|448:288|448:256,1,110
448,160,124324,1,4
448,160,124482,1,4
384,64,125272,5,8
320,160,125587,1,8
256,64,125903,1,8
256,64,126061,1,8
256,64,126219,1,8
192,128,126535,5,0
128,64,126851,1,0
64,128,127166,1,0
128,192,127482,2,8,B|128:256,1,55
128,320,127956,2,8,B|192:320,1,55
224,256,128429,1,0
288,320,128745,1,0
352,256,129061,5,0
288,192,129377,1,0
288,96,129693,1,0
352,32,130008,2,8,B|416:64,1,55
448,128,130482,2,8,B|448:192,1,55
448,256,130956,2,8,B|384:288,1,55
320,288,131587,5,0
320,192,131903,1,0
224,192,132219,1,0
256,192,132377,1,0
256,96,132693,2,2,B|224:32|160:32|128:96,1,165
64,160,133483,2,4,B|0:192|0:256|64:288,1,165
256,128,144535,6,0,B|256:64,1,55
320,160,145166,2,0,B|375:128,1,55
320,224,145798,2,8,B|375:256,1,55
256,256,146429,2,0,B|256:320,1,55
192,224,147061,2,0,B|136:256,1,55
192,160,147693,2,8,B|136:128,1,55
256,128,148324,2,8,B|256:96,1,27.5
256,32,149587,5,0
320,32,149903,1,0
288,96,150219,1,0
224,96,150535,1,0
192,160,150851,1,0
256,160,151166,1,0
224,224,151482,1,0
160,224,151798,1,2
128,288,152114,1,2
192,288,152429,2,2,B|224:288,1,27.5
256,288,152745,2,2,B|320:288,1,55
352,288,153219,2,2,B|384:288,2,27.5
192,128,156219,6,0,B|256:96|320:128,1,110
320,256,156851,2,0,B|256:288|192:256,1,110
224,192,157482,2,0,B|288:192,3,55
384,128,158272,6,0,B|384:192,1,55
448,160,158587,2,0,B|448:224,1,55
448,320,159061,2,0,B|384:352|320:320,1,110
288,256,159693,2,0,B|256:192|288:128,1,110
288,128,160166,2,2,B|329:107|361:139,2,55
192,128,160956,6,0,B|160:96|128:64|96:96,1,110
64,160,161587,1,0
96,224,161903,1,0
160,256,162219,1,0
256,256,162535,6,0,B|288:288|320:320|352:288,1,110
384,224,163166,1,0
352,160,163482,1,0
288,128,163798,1,0
224,128,164114,1,4
256,128,164272,1,4
96,192,165061,5,8
160,288,165377,1,8
224,192,165693,1,8
224,192,165851,1,8
224,192,166008,1,8
320,192,166324,5,0
384,96,166640,1,0
448,192,166956,1,0
320,192,167272,1,0
320,192,167429,1,0
256,288,167745,1,0
256,288,167903,1,0
192,192,168219,1,0
128,96,168535,1,0
64,192,168851,5,0
128,288,169166,1,0
192,192,169482,1,0
256,96,169798,1,0
256,96,169956,1,0
320,192,170272,1,0
320,192,170429,1,0
192,192,170745,1,0
192,192,170903,1,0
192,320,171377,5,0
288,320,171693,1,0
384,320,172008,1,0
480,320,172324,2,0,B|480:256|416:256|416:256|352:256|352:192|352:192|352:128|288:128|288:128|224:128|224:64|224:64|224:32|192:32,1,440
128,32,173903,5,0
64,96,174219,1,0
128,160,174535,1,0
192,224,174851,1,0
256,288,175166,2,0,B|192:320,3,55
384,320,176429,5,0
448,256,176745,1,0
384,192,177061,1,0
320,128,177377,1,0
384,64,177693,1,0
448,0,178008,1,0
448,0,178166,1,0
320,0,178482,6,0,B|128:0,1,165
96,64,179272,1,0
160,128,179587,1,0
96,192,179903,1,0
160,256,180219,2,0,B|352:256,1,165
448,256,181166,5,0
384,352,181482,1,0
320,256,181798,1,0
448,256,182114,1,0
384,352,182429,1,0
320,256,182745,1,0
384,160,183061,1,0
448,64,183377,1,0
320,64,183693,1,0
384,160,184008,1,0
384,256,184324,2,2,B|384:320,1,55,2|2
256,320,185272,6,0,B|128:320,1,110
96,256,185903,2,8,B|160:256,1,55
256,224,186535,6,0,B|256:96,2,110
352,224,187482,2,8,B|416:224,1,55
416,160,187956,2,8,B|352:160,1,55
352,64,188429,1,0
416,64,188745,1,0
480,128,189061,6,0,B|480:256,2,110
384,160,190008,2,8,B|320:160,1,55
352,224,190482,2,8,B|288:224,1,55
320,288,190956,2,8,B|256:288,1,55
128,288,191587,5,0
128,192,191903,1,0
224,192,192219,1,0
224,192,192377,1,0
288,128,192693,2,2,B|256:64|192:64|160:128,1,165
160,256,193482,2,4,B|192:320|256:320|288:256,1,165
384,288,196640,5,0
384,192,196956,1,0
288,192,197272,1,0
288,192,197430,1,0
224,128,197746,2,2,B|256:64|320:64|352:128,1,165
256,256,198535,1,0
256,208,199008,12,4,201377
256,128,201693,5,0
192,192,202008,1,0
256,256,202324,1,0
416,192,202956,1,0
288,192,203429,1,0
160,192,203903,5,4
96,256,204219,1,0
32,192,204535,1,0
96,128,204851,1,0
256,192,205482,1,0
384,192,205956,1,0
256,192,206429,5,4
320,128,206745,1,0
384,192,207061,1,0
320,256,207377,1,0
160,192,208008,1,0
32,192,208482,1,0
160,192,208956,1,4
256,192,209272,1,0
256,192,210377,5,0
256,192,210535,1,0
