osu file format v6

[General]
AudioFilename: Chieko Kawabe - Candy Baby.mp3
AudioLeadIn: 0
PreviewTime: -1
Countdown: 0
SampleSet: Normal
StackLeniency: 0.7
Mode: 0
LetterboxInBreaks: 0

[Editor]
Bookmarks: 4956,17903,38114,48219,75693,86114,95903,111061,144219,148324,155903,171377,181166,196640,201377
DistanceSpacing: 0.800000011920929
BeatDivisor: 4
GridSize: 32

[Metadata]
Title:Candy Baby
Artist:Kawabe Chieco
Creator:aiko781
Version:Hard
Source:
Tags:

[Difficulty]
HPDrainRate:6
CircleSize:5
OverallDifficulty:6
SliderMultiplier:1.4
SliderTickRate:2

[Events]
//Background and Video events
0,0,"cd-front1.jpg"
Video,-4679,"Candy Baby Chieko Kawabe.avi"
//Break Periods
2,35787,37379
2,65945,74958
2,83787,85379
2,134156,143485
2,153734,155169
//Storyboard Layer 0 (Background)
//Storyboard Layer 1 (Fail)
//Storyboard Layer 2 (Pass)
//Storyboard Layer 3 (Foreground)
//Storyboard Sound Samples
//Background Colour Transformations
3,100,163,162,255

[TimingPoints]
4956,631.578947368421,4,1,0,60,1,0
17903.6315789474,631.578947368421,4,1,0,60,1,0
45693,-100,4,1,0,60,0,1
46324,-100,4,1,0,60,0,1
46956,-100,4,1,0,60,0,1
48219,-50,4,1,0,60,0,1
75714,-100,4,1,0,60,0,0
95903,-50,4,1,0,60,0,1
142956,-100,4,1,0,60,0,0
155903,-50,4,1,0,60,0,1

[Colours]
Combo1 : 128,255,255
Combo2 : 255,128,255
Combo3 : 255,128,64
Combo4 : 255,255,128
Combo5 : 128,255,128

[HitObjects]
64,96,5271,1,0
128,192,5587,1,0
192,96,5903,1,0
256,224,6377,1,0
320,320,6692,1,0
352,320,6850,1,0
384,320,7008,1,4
448,224,7482,1,2
448,96,7798,5,0
384,192,8113,1,0
320,96,8429,1,0
256,224,8903,1,0
192,320,9219,1,0
160,320,9377,1,0
128,320,9534,1,4
64,224,10008,1,2
160,128,10324,5,0
64,224,10640,1,0
160,320,10956,1,0
256,224,11429,1,0
320,128,11745,1,0
352,96,11903,1,4
384,128,12061,1,0
448,224,12534,1,2
352,128,12850,5,0
448,224,13166,1,0
352,320,13482,1,0
256,224,13956,1,0
160,128,14271,1,0
128,96,14429,1,0
96,128,14587,1,4
128,256,15377,5,0
384,64,16008,1,0
128,64,16640,1,0
384,256,17271,1,0
256,160,17903,6,0,B|160:160,1,70
256,224,18535,2,0,B|352:224,1,70
448,160,19166,2,0,B|416:128,1,35
352,64,19482,2,0,B|288:64,1,35
224,64,19798,2,0,B|160:64,1,35
128,128,20114,2,0,B|96:160,1,35
192,256,20429,6,0,B|256:288|352:256,2,140
128,160,22166,1,0
384,160,22956,6,0,B|416:128|448:160,1,70
448,288,23587,2,0,B|416:320|384:288,1,70
288,224,24219,1,0
160,224,24535,1,0
32,224,24851,1,0
96,128,25166,1,0
224,128,25482,1,0
384,64,26430,5,0
384,96,26587,1,0
384,288,27061,1,0
288,288,27377,1,0
192,288,27693,1,0
96,288,28008,6,0,B|32:288,4,35
160,224,28956,2,0,B|224:192,1,70
288,128,29587,2,0,B|352:128,2,35
224,64,30219,2,0,B|224:0,2,35
224,192,30851,2,0,B|224:256,2,35
160,128,31482,2,0,B|96:128,1,35
96,192,31798,2,0,B|160:192,1,35
160,288,32272,1,0
288,288,33061,5,0
320,256,33219,1,0
352,288,33377,1,0
384,256,33535,1,0
416,288,33693,1,0
448,256,33851,1,0
416,224,34008,1,0
384,192,34166,1,0
352,224,34324,1,0
288,160,34640,1,0
224,96,34956,1,0
192,96,35114,1,0
160,96,35272,1,0
128,96,35429,1,0
96,96,35587,1,0
64,64,38429,5,0
160,64,38745,1,0
256,64,39061,1,0
288,64,39219,1,0
320,64,39377,1,0
448,64,39693,1,8
384,160,40008,1,8
320,256,40324,1,8
224,256,40640,5,0
128,256,40956,1,0
96,160,41272,1,0
192,160,41587,1,0
224,160,41745,1,0
256,160,41903,1,8
352,160,42219,1,8
384,160,42377,1,8
256,320,43482,5,0
192,224,43798,1,8
320,224,44114,1,8
352,224,44272,1,0
384,224,44429,1,0
416,96,44745,1,0
288,96,45061,1,8
160,96,45377,1,8
64,192,45693,5,2
64,192,46008,1,2
160,288,46324,5,2
192,288,46482,1,2
224,288,46640,1,2
320,192,46956,5,2
352,192,47114,1,2
384,192,47272,1,2
416,192,47429,1,2
256,64,47745,5,0
288,64,47903,1,0
320,64,48061,1,0
416,64,48219,2,0,B|448:96|416:128|416:128|448:160|416:192|416:192|448:224|416:256|416:256|448:288|416:320,1,280,0|4
420,314,49166,1,4
320,256,49482,1,0
288,224,49640,1,0
256,256,49798,1,0
224,224,49956,1,0
96,192,50272,5,0
32,96,50429,1,0
160,96,50587,1,0
288,96,50745,2,0,B|352:64|416:96|448:128,1,140
320,224,51377,2,0,B|256:256|192:224|192:192,1,140
160,64,52008,1,0
192,64,52166,1,0
224,96,52324,1,0
256,96,52482,1,0
384,320,52956,6,0,B|224:320,1,140
128,320,53587,2,0,B|128:160,1,140
128,64,54219,2,0,B|288:64,1,140
384,64,54851,2,0,B|384:224,1,140
192,192,55482,2,0,B|352:192,1,140
256,320,56114,1,4
256,320,56272,1,4
128,64,57061,5,8
256,64,57377,1,8
256,192,57693,1,8
256,192,57851,1,8
256,192,58008,1,8
128,288,58324,6,0,B|288:288,1,140
384,288,58956,1,0
480,192,59272,1,0
480,96,59429,2,0,B|416:32|416:32|352:32,1,140
320,96,59903,2,0,B|384:160|384:160|448:160,1,140
512,256,60535,1,0
384,256,60851,5,0
384,128,61166,1,0
256,128,61482,1,0
256,256,61798,1,0
192,256,61956,1,0
192,128,62272,1,0
128,128,62429,1,0
128,256,62745,1,0
64,256,62903,1,0
64,64,63377,5,0
192,64,63693,1,0
192,192,64008,1,0
192,256,64166,1,0
320,192,64482,2,2,B|384:160|480:192|416:288|384:288,1,210
256,224,65272,2,4,B|192:256|96:224|160:128|192:128,1,210
224,192,76008,5,0
256,160,76166,1,0
288,192,76324,1,0
256,224,76482,1,0
256,320,76798,2,0,B|320:320,1,35
352,320,77114,2,0,B|416:320,1,35
448,256,77587,5,0
480,224,77745,1,0
448,192,77903,1,0
416,160,78061,1,0
448,128,78219,1,0
480,96,78377,1,0
448,64,78535,1,0
352,64,78851,1,0
320,96,79008,1,0
288,64,79166,1,0
288,192,79482,5,0
256,160,79640,1,0
224,128,79798,1,0
192,160,79956,1,0
128,96,80272,1,0
96,224,81061,6,0,B|128:288,1,70
224,288,81693,2,0,B|256:224,1,70
352,224,82324,1,0
384,224,82482,2,0,B|448:224,1,35
416,128,82956,1,0
384,64,83114,1,0
352,128,83272,2,0,B|288:128,1,35
320,64,83587,1,0
64,64,86429,5,0
64,160,86745,1,0
64,256,87061,1,0
64,288,87219,1,0
96,288,87377,1,0
192,288,87693,1,8
288,288,88008,1,8
384,288,88324,1,8
384,192,88640,5,0
288,192,88956,1,0
192,192,89272,1,0
96,192,89587,1,0
96,160,89745,1,0
96,128,89903,1,8
160,64,90219,1,8
192,64,90377,1,8
64,288,91482,5,0
128,128,91798,1,0
192,288,92114,1,0
256,192,92429,1,0
320,288,92745,1,0
384,128,93061,1,0
448,288,93377,1,0
192,32,93693,5,2
320,32,94008,1,2
256,128,94324,5,2
256,160,94482,1,2
256,192,94640,1,2
224,320,94956,6,2,B|160:320,1,35
288,320,95272,2,2,B|352:320,1,35
96,96,96219,6,0,B|256:96,1,140
352,160,96851,2,0,B|192:160,1,140
96,224,97482,2,0,B|192:224,1,70
224,224,97798,2,0,B|320:224,1,70
288,96,98272,5,0
320,32,98429,1,0
352,96,98587,1,0
384,32,98745,1,0
480,128,99061,1,0
384,160,99377,1,0
480,192,99693,1,0
384,224,100008,1,0
448,256,100166,1,0
384,288,100324,1,0
448,320,100482,1,0
288,320,100956,6,0,B|192:320,1,70
192,320,101272,6,0,B|192:224,1,70
192,224,101587,6,0,B|288:224,1,70
288,224,101903,6,0,B|288:128,1,70
288,128,102219,6,0,B|384:128,1,70
384,128,102535,6,0,B|384:32,1,70
384,32,102851,6,0,B|288:32,1,70
288,64,103166,6,0,B|192:64,1,70
192,32,103482,6,0,B|96:32,2,70
192,128,104114,1,0
192,160,104272,1,0
192,320,105061,5,8
320,320,105377,1,8
320,192,105693,1,8
320,192,105851,1,8
320,192,106008,1,8
256,32,106324,5,0
256,160,106640,1,0
256,288,106956,1,0
384,288,107272,1,8
416,288,107429,1,8
416,160,107745,1,8
384,160,107903,1,8
384,64,108219,1,0
256,64,108535,1,0
256,192,108851,5,0
256,320,109166,1,0
128,320,109482,1,0
128,192,109798,1,8
128,160,109956,1,8
256,160,110272,1,8
256,192,110429,1,8
384,192,110745,1,8
384,160,110903,1,8
384,288,111377,5,0
288,192,111693,1,0
192,288,112008,1,0
96,192,112324,2,0,B|64:160|96:96|128:64|224:64|224:64|224:96|224:192|352:64|384:32|416:128|416:128|352:160|416:224,1,560
256,288,113903,5,0
352,192,114219,1,0
256,96,114535,1,0
160,192,114851,1,0
256,208,115166,12,4,115640
448,64,116429,6,0,B|288:64,1,140
64,192,117061,2,0,B|224:192,1,140
448,288,117693,2,0,B|288:288,1,140
288,288,118166,1,0
192,352,118482,6,4,B|160:320|160:320|128:352|128:352|96:320|96:320|64:352|64:352|32:320,1,210
256,256,119272,1,0
320,128,119587,1,0
192,128,119903,1,0
32,64,120219,2,4,B|64:32|64:32|96:64|96:64|128:32|128:32|160:64|160:64|192:32,1,210
384,64,121166,6,2,B|224:64,1,140
128,64,121798,2,2,B|64:96|64:160|128:192,3,140
224,192,123061,2,2,B|384:192,1,140
480,192,123693,2,2,B|544:224|544:288|480:320,2,140
416,192,124482,1,4
288,192,125272,5,8
160,192,125587,1,8
32,192,125903,1,8
32,192,126061,1,8
32,192,126219,1,8
96,128,126535,6,0,B|192:128|192:32,1,140
320,32,127166,2,0,B|320:128|416:128,1,140
352,160,127640,2,0,B|256:160|256:256,1,140
224,192,128114,2,0,B|224:96|128:96,1,140
64,192,128745,1,0
128,288,129061,5,0
224,320,129377,1,0
320,288,129693,1,0
384,192,130008,1,8
384,160,130166,1,8
320,64,130482,1,8
288,32,130640,1,8
192,32,130956,1,8
160,64,131114,1,8
256,192,131587,5,0
192,288,131903,1,0
320,288,132219,1,0
256,288,132377,1,0
256,160,132693,2,4,B|192:128|256:96|256:96|320:128|224:192,1,210
256,208,133482,12,4,133956
256,64,144535,5,0
288,160,144851,1,0
384,192,145166,1,0
288,224,145482,1,0
256,320,145798,1,0
224,224,146114,1,0
128,192,146429,1,0
224,160,146745,1,0
256,64,147061,1,0
288,160,147377,1,0
384,192,147693,1,0
288,224,148008,1,0
256,320,148324,1,0
224,256,148482,1,0
160,128,149587,5,0
96,224,149903,1,0
192,288,150219,1,0
256,192,150535,1,0
320,96,150851,1,0
416,160,151166,1,0
352,256,151482,1,0
256,192,151798,1,2
256,64,152114,1,2
160,64,152429,2,2,B|128:96,2,35
192,128,152903,2,2,B|192:192,1,35
256,128,153219,2,2,B|320:128,2,35
160,64,156219,6,0,B|64:64,2,70
352,64,156851,2,0,B|448:64,2,70,0|0|0
224,128,157482,6,0,B|192:160|224:192|224:192|256:224|288:192|288:192|320:160|288:128,1,210
192,288,158272,5,0
256,224,158429,1,0
320,288,158587,1,0
384,224,158745,1,0
384,128,159061,1,0
416,96,159219,1,0
384,64,159377,1,0
256,64,159693,1,0
224,96,159851,1,0
256,128,160008,1,0
320,160,160166,1,2
320,192,160324,1,2
320,224,160482,1,2
224,320,160956,6,0,B|160:288|128:320,2,70
192,224,161587,1,0
160,128,161903,1,0
224,64,162219,1,0
320,64,162535,6,0,B|384:96|416:64,2,70
352,160,163166,1,0
384,256,163482,1,0
320,320,163798,1,0
256,256,164114,1,4
256,224,164272,1,4
256,64,165061,5,8
256,160,165377,1,8
224,32,165693,1,8
256,64,165851,1,8
288,32,166008,1,8
352,128,166324,6,0,B|384:128|384:192|384:192|384:256|352:256,2,140
256,192,167272,1,0
224,224,167429,1,0
320,320,167745,1,0
352,352,167903,1,0
448,256,168219,1,0
384,128,168535,1,0
256,224,168851,5,0
224,192,169008,1,0
192,224,169166,1,0
96,128,169482,1,0
64,96,169640,1,0
32,64,169798,1,0
64,32,169956,1,0
192,0,170272,1,0
192,32,170429,1,0
288,64,170745,1,0
288,96,170903,1,0
288,256,171377,5,0
160,352,171693,1,0
32,256,172008,1,0
160,96,172324,2,0,B|182:163|250:186|250:186|182:209|160:277|160:277|137:209|69:186|69:186|137:163|137:118|137:118|160:186,1,560
288,160,173903,5,0
384,64,174219,1,0
480,160,174535,1,0
384,256,174851,1,0
384,128,175166,1,0
352,160,175324,1,0
384,192,175482,1,0
416,160,175640,1,0
224,352,176429,5,0
192,320,176587,1,0
160,288,176745,1,0
224,224,177061,1,0
256,192,177219,1,0
288,160,177377,1,0
224,96,177693,1,0
192,64,177851,1,0
160,32,178008,1,0
192,64,178166,1,0
96,192,178482,6,0,B|128:160|128:160|192:192|192:192|256:224|256:224|288:192,1,210
384,256,179272,1,0
480,160,179587,1,0
384,64,179903,1,0
288,160,180219,2,0,B|256:192|256:192|192:160|192:160|128:128|128:128|96:160,1,210
256,64,181166,5,0
192,160,181482,1,0
128,256,181798,1,0
224,256,182114,1,0
320,256,182429,1,0
384,256,182587,1,0
352,192,182745,1,0
256,256,183061,1,0
256,160,183377,1,0
256,32,183693,1,0
224,96,183851,1,0
288,96,184008,1,0
256,192,184324,1,0
256,256,184482,1,0
64,64,185272,5,8
256,192,185587,1,8
448,320,185903,2,8,B|384:256,1,70
256,320,186535,5,0
256,256,186693,1,0
192,256,186851,1,0
96,256,187166,1,0
128,192,187324,1,0
160,128,187482,1,0
224,160,187640,1,0
320,160,187956,1,0
384,160,188114,1,0
480,160,188429,1,0
480,96,188587,1,0
480,32,188745,1,0
384,32,189061,5,0
320,32,189219,1,0
256,32,189377,1,0
256,128,189693,1,0
224,192,189851,1,0
288,224,190008,1,0
320,160,190166,1,0
416,224,190482,1,0
384,288,190640,1,0
288,352,190956,1,0
224,320,191114,1,0
64,320,191587,5,0
64,192,191903,1,0
96,160,192061,1,0
128,192,192219,1,0
160,160,192377,1,0
282,160,192693,1,0
352,160,193008,2,0,B|256:160,1,70
224,256,193482,1,0
288,256,193640,1,0
384,256,193956,1,0
448,256,194114,1,0
160,64,196640,6,0,B|96:64|32:128|64:224|160:256|224:192|224:128|192:96,1,350
79,205,197745,2,2,B|96:224|160:256|224:224|256:160,1,210
256,208,198535,12,4,201377
256,32,201693,5,0
256,128,202008,1,0
256,192,202166,1,0
320,192,202324,1,0
320,256,202482,1,0
320,352,202798,1,0
224,320,203114,1,0
192,288,203272,1,0
160,256,203429,1,0
64,128,203903,5,4
160,64,204219,1,0
256,32,204535,1,0
288,64,204693,1,0
256,96,204851,1,0
288,128,205008,1,0
384,128,205324,1,0
480,128,205640,1,0
512,160,205798,1,0
480,192,205956,1,0
480,352,206429,5,4
352,352,206745,1,0
448,288,207061,1,0
384,288,207219,1,0
416,224,207377,1,0
416,160,207535,1,0
320,160,207851,1,0
288,64,208166,1,0
256,32,208324,1,0
224,64,208482,1,0
256,352,209272,5,4
256,208,210377,12,0,210693
