osu file format v6

[General]
AudioFilename: Chieko Kawabe - Candy Baby.mp3
AudioLeadIn: 0
PreviewTime: -1
Countdown: 0
SampleSet: Normal
StackLeniency: 0.7
Mode: 0
LetterboxInBreaks: 1

[Editor]
Bookmarks: 3903,4956,17903,38114,48219,75693,86114,95903,111061,144219,155903,171377,181166,196640,201377
DistanceSpacing: 0.800000011920929
BeatDivisor: 4
GridSize: 16

[Metadata]
Title:Candy Baby
Artist:Kawabe Chieco
Creator:aiko781
Version:Easy
Source:
Tags:

[Difficulty]
HPDrainRate:3
CircleSize:4
OverallDifficulty:4
SliderMultiplier:1
SliderTickRate:2

[Events]
//Background and Video events
0,0,"cd-front1.jpg"
Video,-4679,"Candy Baby Chieko Kawabe.avi"
//Break Periods
2,35787,36794
2,65945,74688
2,83787,84794
2,134156,142899
2,153735,154899
2,194156,195320
//Storyboard Layer 0 (Background)
//Storyboard Layer 1 (Fail)
//Storyboard Layer 2 (Pass)
//Storyboard Layer 3 (Foreground)
//Storyboard Sound Samples
//Background Colour Transformations
3,100,163,162,255

[TimingPoints]
4956,631.578947368421,4,1,0,60,1,0
17903.6315789474,631.578947368421,4,1,0,60,1,0
45693,-100,4,1,0,60,0,1
46324,-100,4,1,0,60,0,1
46956,-100,4,1,0,60,0,1
48219,-50,4,1,0,60,0,1
75714,-100,4,1,0,60,0,0
95903,-50,4,1,0,60,0,1
142956,-100,4,1,0,60,0,0
155903,-50,4,1,0,60,0,1

[Colours]
Combo1 : 128,255,255
Combo2 : 255,128,255
Combo3 : 255,128,64
Combo4 : 255,255,128
Combo5 : 128,255,128

[HitObjects]
256,128,15377,2,0,B|192:192|192:192|256:256|256:256|320:192|320:192|288:160,1,300
64,64,17903,6,0,B|64:160|160:160,1,150
192,64,19166,6,0,B|288:64|288:160,1,150
192,192,20429,6,0,B|192:288|288:288,1,150
384,288,21693,1,0
448,288,22166,1,0
448,192,22956,6,0,B|448:128,1,50
448,64,23587,2,0,B|384:64,1,50
320,64,24219,2,0,B|320:128,1,50
320,192,24851,2,0,B|384:192,1,50
352,288,25482,5,0
256,288,26429,1,0
256,288,26587,1,0
96,288,28008,6,0,B|128:288|128:288|96:256|96:256|128:256|128:256|96:224,1,150
192,96,29272,2,0,B|160:96|160:96|192:128|192:128|160:128|160:128|192:160,1,150
256,288,30535,2,0,B|288:288|288:288|256:256|256:256|288:256|288:256|256:224,1,150
320,128,31798,1,0
384,192,32272,1,0
384,320,33061,6,0,B|416:288|448:320|480:352|480:320,4,100,0|0|0|0|4
384,128,38114,5,0
256,128,38745,1,0
128,128,39377,1,0
256,128,40008,1,0
256,256,40640,1,0
128,256,41272,1,0
256,256,41903,1,0
352,256,42219,1,0
352,256,42377,1,0
224,96,43482,6,0,B|160:96,1,50
192,160,44114,2,0,B|160:216,1,50
224,224,44745,2,0,B|256:280,1,50
287,223,45377,2,0,B|351:223,1,50
320,160,46324,1,0
288,96,46956,1,0
288,96,47429,1,0
80,96,48219,6,0,B|192:96,4,100
128,208,49956,1,0
320,208,50745,2,0,B|352:256|448:256|464:160|432:128,1,200
368,144,51693,2,0,B|288:144|256:64|304:32|368:32|432:80,1,250
480,64,53272,5,0
448,160,53903,1,0
352,128,54535,1,0
384,32,55166,1,0
448,128,55798,1,0
416,192,56272,1,0
96,352,58324,5,0
64,256,58956,1,0
160,224,59587,1,0
192,320,60219,1,0
288,288,60851,1,0
256,192,61482,1,0
352,160,62114,1,0
384,256,62745,1,0
448,160,63377,5,0
448,96,63693,1,0
448,32,64008,1,0
352,64,64482,1,2
352,160,64956,1,2
288,128,65272,1,4
288,224,65745,1,4
256,192,76008,6,0,B|192:160|320:128|256:64,1,150
256,192,77272,6,0,B|315:152|279:279|366:256,1,150
256,192,78535,6,0,B|260:263|168:168|145:255,1,150
128,320,79798,1,0
224,320,80272,1,0
320,320,81061,6,0,B|384:320,1,50
416,256,81693,2,0,B|352:256,1,50
320,192,82324,2,0,B|384:192,1,50
416,128,82956,2,0,B|352:128,2,50,0|0|4
64,96,86114,6,0,B|128:96,1,50
160,96,86745,1,0
128,160,87061,2,0,B|192:160,1,50
224,160,87693,1,0
288,160,88008,1,0
352,160,88324,1,0
416,160,88640,6,0,B|416:224,1,50
416,256,89272,1,0
416,320,89587,2,0,B|352:320,1,50
320,320,90219,2,0,B|288:320,1,25
224,224,91482,5,0
160,224,91798,1,0
192,160,92114,1,0
256,160,92429,1,0
320,160,92745,1,0
288,224,93061,1,0
288,224,93377,1,0
288,64,93693,5,0
416,64,94324,1,0
416,192,94956,1,0
416,192,95272,1,0
416,192,95429,1,0
320,192,96219,5,0
288,128,96535,1,0
256,192,96851,1,0
224,128,97166,1,0
192,192,97482,1,0
160,128,97798,1,0
160,128,97956,1,0
64,192,98745,5,0
128,224,99061,1,0
64,256,99377,1,0
128,288,99693,1,0
64,320,100008,1,0
128,352,100324,1,0
128,352,100482,1,0
256,352,101272,6,0,B|352:320,2,100
256,288,102219,2,0,B|160:256,2,100
256,224,103166,2,0,B|352:192,2,100
256,160,104114,1,0
256,160,104272,1,0
448,64,106324,6,0,B|352:96,2,100
448,128,107272,2,0,B|448:192,1,50
448,224,107745,2,0,B|448:288,1,50
448,320,108219,2,0,B|352:288,3,100
288,288,109482,2,0,B|128:288,1,150
96,288,110272,2,0,B|96:224,1,50
96,192,110745,2,0,B|160:192,1,50
256,208,111377,12,4,112324
256,208,113903,12,4,115166
256,192,115640,5,4
192,64,116429,6,0,B|96:96,1,100
96,96,117061,1,0
128,160,117377,2,0,B|224:128,1,100
224,128,118008,1,0
224,128,118166,1,0
320,320,118956,6,0,B|416:288,1,100
416,288,119588,1,0
384,224,119904,2,0,B|288:256,1,100
288,256,120535,1,0
288,256,120693,1,0
96,192,121482,6,4,B|160:160|160:96|128:64|128:64|96:96|96:160|192:192|192:192|256:160|256:96|224:64|224:64|192:96|192:160|288:192|288:192|352:160|352:96|320:64|320:64|288:96|288:160|352:192,1,950
384,64,126535,6,0,B|480:32,2,100
384,128,127482,2,0,B|384:192,1,50
384,224,127956,2,0,B|384:288,1,50
384,320,128429,2,0,B|480:352,3,100
448,352,129693,2,0,B|288:352,1,150
256,320,130482,2,0,B|256:256,1,50
224,256,130956,2,0,B|224:192,1,50
128,192,131548,5,0
128,128,131903,1,0
128,64,132219,1,0
224,32,132693,1,2
224,128,133166,1,2
288,96,133482,1,4
288,192,133956,1,4
256,192,144219,5,0
224,128,144851,1,0
288,128,145482,1,0
256,192,146114,1,0
224,256,146745,1,0
288,256,147377,1,0
256,192,148008,1,0
256,192,148482,1,0
256,192,149903,5,0
320,160,150535,1,0
320,224,151166,1,0
256,192,151798,1,0
192,160,152429,1,0
192,224,153061,1,0
256,192,153535,1,4
144,64,156219,6,0,B|96:160,1,100
176,144,156851,2,0,B|128:240,1,100
208,224,157482,2,0,B|160:320,1,100
160,320,157956,1,0
352,320,158745,6,0,B|400:224,1,100
320,240,159377,2,0,B|368:144,1,100
288,160,160008,2,0,B|336:64,1,100
336,64,160482,1,0
96,192,161272,6,4,B|128:128|192:96|256:96|256:96|320:96|384:128|416:192|416:192|416:224,2,400
96,256,164272,1,4
352,256,166324,6,0,B|448:224|448:224|352:192,3,200
160,256,168851,2,0,B|64:224|64:224|160:192,3,200
448,96,171377,5,0
384,64,171693,1,0
320,32,172008,1,0
256,32,172324,2,0,B|192:32|160:96|160:160|192:224|288:224|352:192|352:128|320:96|288:96|256:96,1,400
160,96,173903,5,0
96,128,174219,1,0
32,160,174535,1,0
96,192,174850,1,0
160,224,175166,1,0
256,256,175640,1,0
256,128,176429,6,0,B|224:96|192:96|160:128,5,100
160,160,178166,1,0
256,256,178956,2,0,B|288:288|320:288|352:256,5,100
352,224,180693,1,0
256,32,181482,6,0,B|352:64,2,100
256,96,182429,2,0,B|160:128,2,100
256,160,183376,2,0,B|352:192,2,100
256,224,184324,1,0
256,224,184482,1,0
256,320,185272,5,0
352,320,185587,1,0
448,320,185903,1,0
448,320,186061,1,0
448,224,186535,6,0,B|480:128,2,100
384,224,187482,2,0,B|320:224,1,50
320,160,187956,2,0,B|320:96,1,50
352,64,188429,2,0,B|448:32,4,100
288,64,190008,2,0,B|224:64,1,50
256,128,190482,2,0,B|192:160,1,50
256,192,190956,2,0,B|224:256,1,50
160,320,191587,5,0
64,320,191903,1,0
64,224,192219,1,0
64,224,192377,1,0
160,224,192693,1,0
256,224,193166,1,0
224,160,193482,1,0
320,160,193956,1,0
320,96,196640,6,0,B|384:64|416:96,2,100
288,160,197745,1,0
352,224,198219,1,0
288,256,198535,1,0
224,192,199008,2,0,B|224:128|192:96|128:64|96:96|64:160|64:288|128:320|224:320|320:320|416:320|480:288|448:224|448:192|448:128|416:96,1,750,0|4
256,32,203903,5,4
96,352,206429,1,4
416,352,209272,1,4
256,192,210377,1,0
256,192,210614,1,0
