osu file format v13

[General]
AudioFilename: 2m3.mp3
AudioLeadIn: 0
PreviewTime: -1
Countdown: 0
SampleSet: Soft
StackLeniency: 0.7
Mode: 3
LetterboxInBreaks: 0
SpecialStyle: 0
WidescreenStoryboard: 0

[Editor]
DistanceSpacing: 1.2
BeatDivisor: 4
GridSize: 4
TimelineZoom: 0.6

[Metadata]
Title:Piano Pack
TitleUnicode:Piano Pack
Artist:KawaEE
ArtistUnicode:KawaEE
Creator:KawaEE
Version:Thanks for Julie
Source:
Tags:Piano
BeatmapID:548678
BeatmapSetID:236952

[Difficulty]
HPDrainRate:7
CircleSize:7
OverallDifficulty:7
ApproachRate:5
SliderMultiplier:1.4
SliderTickRate:1

[Events]
//Background and Video events
0,0,"7777.jpg",0,0
//Break Periods
//Storyboard Layer 0 (Background)
//Storyboard Layer 1 (Fail)
//Storyboard Layer 2 (Pass)
//Storyboard Layer 3 (Foreground)
//Storyboard Sound Samples

[TimingPoints]
2499,476.190476190476,4,2,0,100,1,0

[HitObjects]
329,192,4403,5,0,0:0:0:70:3+.wav
329,192,4879,1,0,0:0:0:70:3+.wav
475,192,5356,1,0,0:0:0:70:4#+.wav
36,192,5832,1,0,0:0:0:70:L2-.wav
329,192,5832,1,0,0:0:0:70:3+.wav
109,192,6070,1,0,0:0:0:70:L6-.wav
402,192,6308,1,0,0:0:0:70:6.wav
182,192,6308,1,0,0:0:0:70:L1#.wav
475,192,6546,1,0,0:0:0:70:1#+.wav
256,192,6546,1,0,0:0:0:70:L4#.wav
329,192,7260,1,0,0:0:0:70:2+.wav
256,192,7498,1,0,0:0:0:70:7.wav
36,192,7737,1,0,0:0:0:70:L2-.wav
182,192,7975,1,0,0:0:0:70:7-.wav
402,192,8213,1,0,0:0:0:70:3+.wav
109,192,8213,1,0,0:0:0:70:L3.wav
256,192,8451,1,0,0:0:0:70:L5#.wav
402,192,8689,1,0,0:0:0:70:3+.wav
475,192,9165,1,0,0:0:0:70:4#+.wav
402,192,9641,1,0,0:0:0:70:3+.wav
36,192,9641,1,0,0:0:0:70:L1#-.wav
109,192,9879,1,0,0:0:0:70:L5#-.wav
329,192,10118,1,0,0:0:0:70:3.wav
182,192,10118,1,0,0:0:0:70:L7-.wav
475,192,10356,1,0,0:0:0:70:4#.wav
256,192,10356,1,0,0:0:0:70:L1#.wav
329,192,11070,1,0,0:0:0:70:5#.wav
402,192,11308,1,0,0:0:0:70:6.wav
36,192,11546,1,0,0:0:0:70:L4#--.wav
109,192,11784,1,0,0:0:0:70:L1#-.wav
182,192,12022,1,0,0:0:0:70:L5#-.wav
475,192,12022,1,0,0:0:0:70:3+.wav
256,192,12260,1,0,0:0:0:70:L6-.wav
475,192,12498,1,0,0:0:0:70:3+.wav
109,192,12498,1,0,0:0:0:70:6.wav
475,192,12975,1,0,0:0:0:70:3+.wav
109,192,12975,1,0,0:0:0:70:6.wav
329,192,13332,1,0,0:0:0:70:4#.wav
36,192,13451,1,0,0:0:0:70:L7--.wav
475,192,13451,1,0,0:0:0:70:3+.wav
109,192,13689,1,0,0:0:0:70:L4#-.wav
402,192,13927,1,0,0:0:0:70:2+.wav
182,192,13927,1,0,0:0:0:70:L6-.wav
256,192,14165,1,0,0:0:0:70:L2.wav
402,192,14165,1,0,0:0:0:70:2+.wav
329,192,15356,1,0,0:0:0:70:2.wav
36,192,15356,1,0,0:0:0:70:L3-.wav
402,192,15475,1,0,0:0:0:70:4.wav
475,192,15594,1,0,0:0:0:70:1#+.wav
109,192,16070,1,0,0:0:0:70:L7-.wav
182,192,16546,1,0,0:0:0:70:L2.wav
402,192,16784,1,0,0:0:0:70:7.wav
329,192,17260,1,0,0:0:0:70:6.wav
329,192,17498,1,0,0:0:0:70:6.wav
36,192,17737,1,0,0:0:0:55:L6--.wav
256,192,17737,1,0,0:0:0:55:2.wav
475,192,17737,1,0,0:0:0:55:3.wav
182,192,17737,1,0,0:0:0:55:6-.wav
109,192,18213,1,0,0:0:0:70:L3-.wav
182,192,18689,1,0,0:0:0:70:L6-.wav
329,192,19165,1,0,0:0:0:70:2.wav
36,192,19641,1,0,0:0:0:70:L3-.wav
182,192,19641,1,0,0:0:0:70:L6--.wav
256,192,19641,1,0,0:0:0:70:7-.wav
402,192,19879,1,0,0:0:0:70:1#.wav
36,192,21546,1,0,0:0:0:70:L6--.wav
109,192,22022,1,0,0:0:0:70:L3-.wav
329,192,22022,1,0,0:0:0:70:6.wav
402,192,22260,1,0,0:0:0:70:7.wav
182,192,22498,1,0,0:0:0:70:L1#.wav
475,192,22498,1,0,0:0:0:70:1#+.wav
256,192,22975,1,0,0:0:0:70:6.wav
109,192,22975,1,0,0:0:0:70:L3-.wav
329,192,23451,1,0,0:0:0:70:7.wav
475,192,23451,1,0,0:0:0:70:2#.wav
36,192,23451,1,0,0:0:0:70:L6--.wav
256,192,23927,1,0,0:0:0:70:6.wav
109,192,23927,1,0,0:0:0:70:L4#-.wav
402,192,24165,1,0,0:0:0:70:4#.wav
182,192,24403,1,0,0:0:0:70:L7-.wav
329,192,24641,1,0,0:0:0:70:7.wav
109,192,24879,1,0,0:0:0:70:L4#-.wav
36,192,25356,1,0,0:0:0:70:L6--.wav
402,192,25356,1,0,0:0:0:70:2.wav
256,192,25356,1,0,0:0:0:70:7-.wav
109,192,25832,1,0,0:0:0:70:L4-.wav
475,192,25832,1,0,0:0:0:70:6.wav
182,192,26308,1,0,0:0:0:70:L6-.wav
475,192,26308,1,0,0:0:0:70:6.wav
402,192,26784,1,0,0:0:0:70:4.wav
109,192,26784,1,0,0:0:0:70:L4-.wav
329,192,27260,1,0,0:0:0:70:3.wav
36,192,27260,1,0,0:0:0:70:L6--.wav
182,192,27737,1,0,0:0:0:70:L3-.wav
475,192,27737,1,0,0:0:0:70:1#+.wav
475,192,27975,1,0,0:0:0:70:1#+.wav
36,192,28213,1,0,0:0:0:70:L5#--.wav
182,192,28689,1,0,0:0:0:70:L3-.wav
36,192,29165,1,0,0:0:0:70:L4#--.wav
109,192,29641,1,0,0:0:0:70:L1#-.wav
329,192,29641,1,0,0:0:0:70:6.wav
402,192,29879,1,0,0:0:0:70:7.wav
182,192,30118,1,0,0:0:0:70:L6-.wav
475,192,30118,1,0,0:0:0:70:1#+.wav
256,192,30594,1,0,0:0:0:70:6.wav
109,192,30594,1,0,0:0:0:70:L1#-.wav
329,192,31070,1,0,0:0:0:70:7.wav
402,192,31070,1,0,0:0:0:70:4#.wav
36,192,31070,1,0,0:0:0:70:L7--.wav
109,192,31546,1,0,0:0:0:70:L4#-.wav
402,192,31784,1,0,0:0:0:70:4#.wav
182,192,32022,1,0,0:0:0:70:L7-.wav
329,192,32498,1,0,0:0:0:70:4#.wav
109,192,32498,1,0,0:0:0:70:L4#-.wav
402,192,32737,1,0,0:0:0:70:5#.wav
475,192,32975,1,0,0:0:0:70:6.wav
256,192,32975,1,0,0:0:0:70:2.wav
182,192,32975,1,0,0:0:0:70:3.wav
36,192,32975,1,0,0:0:0:70:L3--.wav
109,192,33451,1,0,0:0:0:70:L3-.wav
402,192,33451,1,0,0:0:0:70:6.wav
402,192,33689,1,0,0:0:0:70:6.wav
182,192,33927,1,0,0:0:0:70:L6-.wav
475,192,34165,1,0,0:0:0:70:7.wav
109,192,34403,1,0,0:0:0:70:L3-.wav
256,192,34641,1,0,0:0:0:70:3.wav
475,192,34641,1,0,0:0:0:70:7.wav
36,192,34879,1,0,0:0:0:70:L3--.wav
109,192,35356,1,0,0:0:0:70:L3-.wav
329,192,35832,1,0,0:0:0:70:3.wav
182,192,35832,1,0,0:0:0:70:7-.wav
256,192,36308,1,0,0:0:0:70:2.wav
402,192,36784,1,0,0:0:0:70:1#.wav
36,192,36784,1,0,0:0:0:70:L6--.wav
329,192,37260,1,0,0:0:0:70:6.wav
109,192,37260,1,0,0:0:0:70:L3-.wav
402,192,37498,1,0,0:0:0:70:7.wav
182,192,37737,1,0,0:0:0:70:L1#.wav
475,192,37737,1,0,0:0:0:70:1#+.wav
109,192,38213,1,0,0:0:0:70:L3-.wav
256,192,38213,1,0,0:0:0:70:6.wav
36,192,38689,1,0,0:0:0:70:L6--.wav
402,192,38689,1,0,0:0:0:70:2#.wav
329,192,38689,1,0,0:0:0:70:7.wav
109,192,39165,1,0,0:0:0:70:L4#-.wav
256,192,39165,1,0,0:0:0:70:6.wav
475,192,39403,1,0,0:0:0:70:4#.wav
182,192,39641,1,0,0:0:0:70:L7-.wav
329,192,39879,1,0,0:0:0:70:7.wav
109,192,40118,1,0,0:0:0:70:L4#-.wav
256,192,40594,1,0,0:0:0:70:7-.wav
402,192,40594,1,0,0:0:0:70:2.wav
36,192,40594,1,0,0:0:0:70:L6--.wav
475,192,41070,1,0,0:0:0:70:6.wav
109,192,41070,1,0,0:0:0:70:L4-.wav
182,192,41546,1,0,0:0:0:70:L6-.wav
475,192,41546,1,0,0:0:0:70:6.wav
329,192,42022,1,0,0:0:0:70:4.wav
109,192,42022,1,0,0:0:0:70:L4-.wav
256,192,42498,1,0,0:0:0:70:3.wav
36,192,42498,1,0,0:0:0:70:L6--.wav
182,192,42975,1,0,0:0:0:70:L3-.wav
475,192,42975,1,0,0:0:0:70:1#+.wav
475,192,43213,1,0,0:0:0:70:1#+.wav
109,192,43451,1,0,0:0:0:70:L5#--.wav
182,192,43927,1,0,0:0:0:70:L3-.wav
36,192,44403,1,0,0:0:0:70:L4#--.wav
109,192,44879,1,0,0:0:0:70:L1#-.wav
329,192,44879,1,0,0:0:0:70:6.wav
402,192,45118,1,0,0:0:0:70:7.wav
182,192,45356,1,0,0:0:0:70:L6-.wav
475,192,45356,1,0,0:0:0:70:1#+.wav
109,192,45832,1,0,0:0:0:70:L1#-.wav
256,192,45832,1,0,0:0:0:70:6.wav
36,192,46308,1,0,0:0:0:70:L7--.wav
329,192,46308,1,0,0:0:0:70:7.wav
402,192,46308,1,0,0:0:0:70:2#.wav
109,192,46784,1,0,0:0:0:70:L4#-.wav
256,192,46784,1,0,0:0:0:70:6.wav
329,192,47022,1,0,0:0:0:70:7.wav
182,192,47260,1,0,0:0:0:70:L7-.wav
475,192,47498,1,0,0:0:0:70:4#.wav
109,192,47737,1,0,0:0:0:70:L7--.wav
36,192,48213,1,0,0:0:0:70:L3--.wav
109,192,48689,1,0,0:0:0:70:L3-.wav
329,192,48689,1,0,0:0:0:70:3.wav
329,192,49165,1,0,0:0:0:70:3.wav
182,192,49165,1,0,0:0:0:70:L6-.wav
109,192,49641,1,0,0:0:0:70:L3-.wav
329,192,49641,1,0,0:0:0:70:3.wav
475,192,49641,1,0,0:0:0:70:7.wav
329,192,49879,1,0,0:0:0:70:3.wav
475,192,49879,1,0,0:0:0:70:7.wav
36,192,50118,1,0,0:0:0:70:L3--.wav
109,192,50594,1,0,0:0:0:70:L3-.wav
182,192,51070,5,0,0:0:0:70:L7-.wav
329,192,51070,1,0,0:0:0:70:6.wav
36,192,51070,1,0,0:0:0:70:L5#-.wav
402,192,51308,1,0,0:0:0:70:7.wav
475,192,51546,1,0,0:0:0:70:1#+.wav
329,192,51784,1,0,0:0:0:70:6.wav
36,192,52022,1,0,0:0:0:70:L5#--.wav
475,192,52022,1,0,0:0:0:70:1#+.wav
109,192,52498,1,0,0:0:0:70:L5#-.wav
256,192,52975,1,0,0:0:0:70:L1#.wav
402,192,52975,1,0,0:0:0:70:L4#.wav
475,192,53451,1,0,0:0:0:70:7.wav
109,192,53451,1,0,0:0:0:70:L5#-.wav
329,192,53689,1,0,0:0:0:70:4.wav
475,192,53689,1,0,0:0:0:70:7.wav
36,192,53927,1,0,0:0:0:70:L1#-.wav
109,192,54403,1,0,0:0:0:70:L5#-.wav
329,192,54879,1,0,0:0:0:70:6.wav
182,192,54879,1,0,0:0:0:70:L7-.wav
402,192,55118,1,0,0:0:0:70:7.wav
109,192,55356,1,0,0:0:0:70:L1#-.wav
475,192,55356,1,0,0:0:0:70:1#+.wav
329,192,55594,1,0,0:0:0:70:6.wav
182,192,55832,1,0,0:0:0:70:L4#-.wav
402,192,55832,1,0,0:0:0:70:1#+.wav
402,192,56308,1,0,0:0:0:70:1#+.wav
256,192,56308,1,0,0:0:0:70:L1#.wav
402,192,56546,1,0,0:0:0:70:1#+.wav
329,192,56784,1,0,0:0:0:70:L6.wav
475,192,57022,1,0,0:0:0:70:5#+.wav
182,192,57260,1,0,0:0:0:70:L1#.wav
329,192,57498,1,0,0:0:0:70:3+.wav
475,192,57498,1,0,0:0:0:70:5#+.wav
36,192,57737,1,0,0:0:0:70:L3-.wav
109,192,58213,1,0,0:0:0:70:L1#.wav
329,192,58689,1,0,0:0:0:70:4#+.wav
182,192,58689,1,0,0:0:0:70:L5#.wav
402,192,58927,1,0,0:0:0:70:5#+.wav
109,192,59165,5,0,0:0:0:70:L1#.wav
475,192,59165,1,0,0:0:0:70:6+.wav
402,192,59403,1,0,0:0:0:70:5#+.wav
475,192,59641,1,0,0:0:0:70:6+.wav
329,192,59641,1,0,0:0:0:70:2+.wav
256,192,59641,1,0,0:0:0:70:6.wav
36,192,59641,1,0,0:0:0:70:L7--.wav
109,192,60118,1,0,0:0:0:70:L4#-.wav
329,192,60356,1,0,0:0:0:70:2+.wav
256,192,60356,1,0,0:0:0:70:6.wav
475,192,60356,1,0,0:0:0:70:6+.wav
182,192,60594,1,0,0:0:0:70:L6-.wav
36,192,60594,1,0,0:0:0:70:L2.wav
109,192,61070,1,0,0:0:0:70:L4#-.wav
329,192,61070,1,0,0:0:0:70:2+.wav
329,192,61308,1,0,0:0:0:70:2+.wav
36,192,61546,1,0,0:0:0:70:L7--.wav
109,192,62022,1,0,0:0:0:70:L4#-.wav
182,192,62498,1,0,0:0:0:70:L6-.wav
475,192,62498,1,0,0:0:0:70:3+.wav
402,192,62737,1,0,0:0:0:70:1#+.wav
329,192,62975,1,0,0:0:0:70:6.wav
109,192,62975,1,0,0:0:0:70:L7--.wav
402,192,63213,1,0,0:0:0:70:7.wav
256,192,63451,1,0,0:0:0:70:3.wav
36,192,63451,1,0,0:0:0:70:L3--.wav
475,192,63451,1,0,0:0:0:70:1#+.wav
109,192,63927,1,0,0:0:0:70:L3-.wav
475,192,64165,1,0,0:0:0:70:1#+.wav
256,192,64165,1,0,0:0:0:70:3.wav
182,192,64403,5,0,0:0:0:70:L6-.wav
109,192,64879,1,0,0:0:0:70:L7-.wav
402,192,64879,1,0,0:0:0:70:7.wav
256,192,64879,1,0,0:0:0:70:3.wav
256,192,65118,1,0,0:0:0:70:3.wav
402,192,65118,1,0,0:0:0:70:7.wav
36,192,65356,5,0,0:0:0:70:L3--.wav
109,192,65832,1,0,0:0:0:70:L3-.wav
402,192,65832,1,0,0:0:0:70:3+.wav
256,192,66308,1,0,0:0:0:70:6.wav
402,192,66308,1,0,0:0:0:70:3+.wav
36,192,66308,1,0,0:0:0:70:L1#-.wav
182,192,66308,1,0,0:0:0:70:L1#.wav
475,192,66784,1,0,0:0:0:70:4#+.wav
256,192,67260,1,0,0:0:0:70:6.wav
402,192,67260,1,0,0:0:0:70:3+.wav
36,192,67260,1,0,0:0:0:70:L2-.wav
109,192,67737,1,0,0:0:0:70:L6-.wav
329,192,67737,1,0,0:0:0:70:6.wav
402,192,67975,1,0,0:0:0:70:1#+.wav
256,192,68213,1,0,0:0:0:70:L2.wav
475,192,68689,1,0,0:0:0:70:2+.wav
329,192,68927,1,0,0:0:0:70:7.wav
36,192,69165,5,0,0:0:0:70:L2-.wav
402,192,69641,1,0,0:0:0:70:3+.wav
109,192,69641,1,0,0:0:0:70:L7-.wav
329,192,70118,1,0,0:0:0:70:7.wav
402,192,70118,1,0,0:0:0:70:3+.wav
182,192,70118,1,0,0:0:0:70:L5#.wav
475,192,70594,1,0,0:0:0:70:4#+.wav
256,192,71070,1,0,0:0:0:70:5#.wav
36,192,71070,1,0,0:0:0:70:L1#-.wav
402,192,71070,1,0,0:0:0:70:3+.wav
109,192,71546,1,0,0:0:0:70:L5#-.wav
329,192,71546,1,0,0:0:0:70:3.wav
402,192,71784,1,0,0:0:0:70:4#.wav
182,192,72022,1,0,0:0:0:70:L1#.wav
402,192,72498,1,0,0:0:0:70:5#.wav
475,192,72737,1,0,0:0:0:70:6.wav
256,192,72737,1,0,0:0:0:70:1#.wav
36,192,72975,5,0,0:0:0:70:L4#--.wav
402,192,73451,1,0,0:0:0:70:3+.wav
109,192,73451,1,0,0:0:0:70:L1#-.wav
256,192,73927,1,0,0:0:0:70:6.wav
402,192,73927,1,0,0:0:0:70:3+.wav
182,192,73927,1,0,0:0:0:70:L6-.wav
475,192,74403,1,0,0:0:0:70:4#+.wav
402,192,74879,1,0,0:0:0:70:3+.wav
182,192,74879,1,0,0:0:0:70:L7--.wav
36,192,75356,1,0,0:0:0:70:L4#-.wav
329,192,75356,1,0,0:0:0:70:6.wav
329,192,75594,1,0,0:0:0:70:6.wav
256,192,75832,1,0,0:0:0:70:L2.wav
109,192,75832,1,0,0:0:0:70:L6-.wav
36,192,76308,1,0,0:0:0:70:L4#-.wav
475,192,76784,1,0,0:0:0:70:3+.wav
109,192,76784,1,0,0:0:0:70:L3--.wav
329,192,77260,1,0,0:0:0:70:6.wav
182,192,77260,1,0,0:0:0:70:L3-.wav
329,192,77498,1,0,0:0:0:70:6.wav
36,192,77737,1,0,0:0:0:70:L6-.wav
256,192,77737,1,0,0:0:0:70:L7-.wav
402,192,77975,1,0,0:0:0:70:7.wav
182,192,78213,1,0,0:0:0:70:L3-.wav
329,192,78451,1,0,0:0:0:70:3.wav
475,192,78451,1,0,0:0:0:70:1#+.wav
36,192,78689,1,0,0:0:0:70:L6--.wav
182,192,79165,1,0,0:0:0:70:L3-.wav
329,192,79641,1,0,0:0:0:70:L1#.wav
109,192,79641,1,0,0:0:0:70:L6-.wav
182,192,80118,1,0,0:0:0:70:L3-.wav
329,192,80594,1,0,0:0:0:70:2.wav
256,192,80594,1,0,0:0:0:70:5.wav
36,192,80594,1,0,0:0:0:70:L7--.wav
402,192,81070,1,0,0:0:0:70:3+.wav
402,192,81546,1,0,0:0:0:70:3+.wav
256,192,81546,1,0,0:0:0:70:6.wav
109,192,81546,1,0,0:0:0:70:L1#-.wav
475,192,82022,1,0,0:0:0:70:4#+.wav
402,192,82498,1,0,0:0:0:70:3+.wav
182,192,82498,1,0,0:0:0:70:L2-.wav
256,192,82498,1,0,0:0:0:70:6.wav
329,192,82975,1,0,0:0:0:70:6.wav
109,192,82975,1,0,0:0:0:70:L6-.wav
402,192,83213,1,0,0:0:0:70:1#+.wav
256,192,83451,1,0,0:0:0:70:L2.wav
475,192,83927,1,0,0:0:0:70:2+.wav
329,192,84165,1,0,0:0:0:70:7.wav
36,192,84403,5,0,0:0:0:70:L2-.wav
109,192,84879,1,0,0:0:0:70:L7-.wav
475,192,84879,1,0,0:0:0:70:3+.wav
475,192,85356,1,0,0:0:0:70:3+.wav
182,192,85356,1,0,0:0:0:70:L5#.wav
329,192,85356,1,0,0:0:0:70:7.wav
402,192,85832,1,0,0:0:0:70:4#+.wav
36,192,86308,1,0,0:0:0:70:L1#-.wav
256,192,86308,1,0,0:0:0:70:7.wav
475,192,86308,1,0,0:0:0:70:5#+.wav
109,192,86784,1,0,0:0:0:70:L5#-.wav
329,192,86784,1,0,0:0:0:70:6+.wav
475,192,87022,1,0,0:0:0:70:7+.wav
182,192,87260,1,0,0:0:0:70:L1#.wav
256,192,87737,1,0,0:0:0:70:5#+.wav
329,192,87975,1,0,0:0:0:70:1#+.wav
475,192,87975,1,0,0:0:0:70:6+.wav
36,192,88213,1,0,0:0:0:70:L4#--.wav
109,192,88689,1,0,0:0:0:70:L1#-.wav
182,192,89165,1,0,0:0:0:70:L6-.wav
402,192,89641,1,0,0:0:0:70:4#+.wav
36,192,90118,1,0,0:0:0:70:L7--.wav
475,192,90118,1,0,0:0:0:70:3+.wav
109,192,90594,1,0,0:0:0:70:L4#-.wav
329,192,90594,1,0,0:0:0:70:6.wav
329,192,90832,1,0,0:0:0:70:6.wav
36,192,91070,5,0,0:0:0:70:L6-.wav
256,192,91070,1,0,0:0:0:70:L2.wav
109,192,91546,1,0,0:0:0:70:L4#-.wav
329,192,91546,1,0,0:0:0:70:6.wav
402,192,91784,1,0,0:0:0:70:7.wav
36,192,92022,1,0,0:0:0:70:L3--.wav
475,192,92022,1,0,0:0:0:70:2+.wav
402,192,92498,1,0,0:0:0:70:1#+.wav
182,192,92498,1,0,0:0:0:70:L3-.wav
256,192,92737,1,0,0:0:0:70:6.wav
36,192,92975,1,0,0:0:0:70:L6-.wav
109,192,92975,1,0,0:0:0:70:L7-.wav
329,192,93213,5,0,0:0:0:70:7.wav
182,192,93451,1,0,0:0:0:70:L3-.wav
36,192,93927,1,0,0:0:0:70:L6--.wav
402,192,93927,1,0,0:0:0:70:6.wav
256,192,93927,1,0,0:0:0:70:1#.wav
182,192,94403,1,0,0:0:0:70:L3-.wav
109,192,94879,1,0,0:0:0:70:L6-.wav
329,192,94879,1,0,0:0:0:70:L1#.wav
182,192,95356,1,0,0:0:0:70:L3-.wav
36,192,95832,1,0,0:0:0:70:L7--.wav
329,192,95832,1,0,0:0:0:70:5.wav
256,192,95832,1,0,0:0:0:70:2.wav
402,192,96308,1,0,0:0:0:70:3+.wav
402,192,96784,1,0,0:0:0:70:3+.wav
329,192,96784,1,0,0:0:0:70:6.wav
109,192,96784,1,0,0:0:0:70:L1#-.wav
475,192,97260,1,0,0:0:0:70:4#+.wav
402,192,97737,1,0,0:0:0:70:3+.wav
256,192,97737,1,0,0:0:0:70:6.wav
36,192,97737,1,0,0:0:0:70:L2-.wav
109,192,98213,1,0,0:0:0:70:L6-.wav
256,192,98213,1,0,0:0:0:70:6.wav
329,192,98451,1,0,0:0:0:70:1#+.wav
182,192,98689,1,0,0:0:0:70:L2.wav
475,192,99165,5,0,0:0:0:70:2+.wav
329,192,99403,1,0,0:0:0:70:7.wav
36,192,99641,1,0,0:0:0:70:L2-.wav
109,192,100118,1,0,0:0:0:70:L7-.wav
402,192,100118,1,0,0:0:0:70:3+.wav
182,192,100594,1,0,0:0:0:70:L5#.wav
329,192,100594,1,0,0:0:0:70:7.wav
402,192,100594,1,0,0:0:0:70:3+.wav
475,192,101070,5,0,0:0:0:70:4#+.wav
402,192,101546,1,0,0:0:0:70:3+.wav
36,192,101546,1,0,0:0:0:70:L1#-.wav
256,192,101546,1,0,0:0:0:70:5#.wav
329,192,102022,1,0,0:0:0:70:3.wav
109,192,102022,1,0,0:0:0:70:L5#-.wav
402,192,102260,1,0,0:0:0:70:4#.wav
182,192,102498,1,0,0:0:0:70:L1#.wav
329,192,102975,1,0,0:0:0:70:5#.wav
475,192,103213,1,0,0:0:0:70:6.wav
402,192,103213,1,0,0:0:0:70:1#.wav
36,192,103451,1,0,0:0:0:70:L4#--.wav
109,192,103927,1,0,0:0:0:70:L1#-.wav
402,192,103927,1,0,0:0:0:70:3+.wav
182,192,104403,1,0,0:0:0:70:L6-.wav
256,192,104403,1,0,0:0:0:70:6.wav
402,192,104403,1,0,0:0:0:70:3+.wav
475,192,104879,1,0,0:0:0:70:4#+.wav
36,192,105356,1,0,0:0:0:70:L7--.wav
402,192,105356,1,0,0:0:0:70:3+.wav
329,192,105832,1,0,0:0:0:70:6.wav
109,192,105832,1,0,0:0:0:70:L4#-.wav
329,192,106070,1,0,0:0:0:70:6.wav
256,192,106308,1,0,0:0:0:70:L2.wav
36,192,106308,1,0,0:0:0:70:L6-.wav
182,192,106784,1,0,0:0:0:70:L4#-.wav
109,192,107260,1,0,0:0:0:70:L3--.wav
475,192,107260,1,0,0:0:0:70:3+.wav
329,192,107737,1,0,0:0:0:70:6.wav
182,192,107737,1,0,0:0:0:70:L3-.wav
329,192,107975,1,0,0:0:0:70:6.wav
36,192,108213,1,0,0:0:0:70:L7-.wav
109,192,108213,1,0,0:0:0:70:L6-.wav
402,192,108451,1,0,0:0:0:70:7.wav
182,192,108689,1,0,0:0:0:70:L3-.wav
256,192,108927,1,0,0:0:0:70:3.wav
475,192,108927,1,0,0:0:0:70:1#+.wav
36,192,109165,5,0,0:0:0:70:L6--.wav
109,192,109641,1,0,0:0:0:70:L3-.wav
182,192,110118,1,0,0:0:0:70:L6-.wav
256,192,110118,1,0,0:0:0:70:L1#.wav
109,192,110594,1,0,0:0:0:70:L3-.wav
36,192,111070,1,0,0:0:0:70:L7--.wav
329,192,111070,1,0,0:0:0:70:5.wav
256,192,111070,1,0,0:0:0:70:2.wav
402,192,111546,1,0,0:0:0:70:3+.wav
329,192,112022,1,0,0:0:0:70:6.wav
109,192,112022,1,0,0:0:0:70:L1#-.wav
402,192,112022,1,0,0:0:0:70:3+.wav
475,192,112498,1,0,0:0:0:70:4#+.wav
402,192,112975,1,0,0:0:0:70:3+.wav
329,192,112975,1,0,0:0:0:70:6.wav
182,192,112975,1,0,0:0:0:70:L2-.wav
329,192,113451,1,0,0:0:0:70:6.wav
36,192,113451,1,0,0:0:0:70:L6-.wav
475,192,113689,1,0,0:0:0:70:1#+.wav
256,192,113927,1,0,0:0:0:70:L2.wav
402,192,114403,1,0,0:0:0:70:2+.wav
329,192,114641,1,0,0:0:0:70:7.wav
36,192,114879,1,0,0:0:0:70:L2-.wav
109,192,115356,1,0,0:0:0:70:L7-.wav
329,192,115356,1,0,0:0:0:70:3+.wav
256,192,115832,1,0,0:0:0:70:7.wav
36,192,115832,1,0,0:0:0:70:L5#.wav
329,192,115832,1,0,0:0:0:70:3+.wav
402,192,116308,5,0,0:0:0:70:4#+.wav
329,192,116784,1,0,0:0:0:70:7.wav
475,192,116784,1,0,0:0:0:70:5#+.wav
109,192,116784,1,0,0:0:0:70:L1#-.wav
36,192,117260,1,0,0:0:0:70:L5#-.wav
256,192,117260,1,0,0:0:0:70:6+.wav
402,192,117498,1,0,0:0:0:70:7+.wav
182,192,117737,1,0,0:0:0:70:L1#.wav
329,192,118213,1,0,0:0:0:70:5#+.wav
402,192,118451,1,0,0:0:0:70:1#+.wav
475,192,118451,1,0,0:0:0:70:6+.wav
36,192,118689,1,0,0:0:0:70:L4#--.wav
109,192,119165,1,0,0:0:0:70:L1#-.wav
182,192,119641,1,0,0:0:0:70:L6-.wav
475,192,120118,1,0,0:0:0:70:4#+.wav
402,192,120594,1,0,0:0:0:70:3+.wav
36,192,120594,1,0,0:0:0:70:L7--.wav
109,192,121070,1,0,0:0:0:70:L4#-.wav
329,192,121070,1,0,0:0:0:70:6.wav
329,192,121308,1,0,0:0:0:70:6.wav
36,192,121546,1,0,0:0:0:70:L6-.wav
256,192,121546,1,0,0:0:0:70:L2.wav
109,192,122022,1,0,0:0:0:70:L4#-.wav
329,192,122022,1,0,0:0:0:70:6.wav
402,192,122260,1,0,0:0:0:70:7.wav
475,192,122498,1,0,0:0:0:70:2+.wav
182,192,122498,1,0,0:0:0:70:L3--.wav
256,192,122975,1,0,0:0:0:70:L3-.wav
475,192,122975,1,0,0:0:0:70:1#+.wav
329,192,123213,1,0,0:0:0:70:6.wav
109,192,123451,5,0,0:0:0:70:L7-.wav
182,192,123451,1,0,0:0:0:70:L6-.wav
402,192,123689,1,0,0:0:0:70:7.wav
36,192,123927,1,0,0:0:0:70:L3-.wav
256,192,124403,1,0,0:0:0:70:6.wav
329,192,124403,1,0,0:0:0:70:3.wav
109,192,124403,1,0,0:0:0:70:L6--.wav
36,192,124879,1,0,0:0:0:70:L3-.wav
109,192,125356,1,0,0:0:0:70:L6-.wav
256,192,125356,1,0,0:0:0:70:L1#.wav
329,192,125832,1,0,0:0:0:70:6.wav
182,192,125832,1,0,0:0:0:70:L3-.wav
402,192,126070,1,0,0:0:0:70:7.wav
36,192,126308,1,0,0:0:0:70:L6--.wav
256,192,126308,1,0,0:0:0:70:3.wav
475,192,126308,1,0,0:0:0:70:2+.wav
182,192,126784,1,0,0:0:0:70:L3-.wav
475,192,126784,1,0,0:0:0:70:1#+.wav
36,192,127260,1,0,0:0:0:70:L6-.wav
109,192,127260,1,0,0:0:0:70:L1#.wav
402,192,127260,1,0,0:0:0:70:6.wav
329,192,127737,1,0,0:0:0:70:3.wav
109,192,127737,1,0,0:0:0:70:L3-.wav
256,192,128213,1,0,0:0:0:70:2.wav
36,192,128213,1,0,0:0:0:70:L6--.wav
329,192,128689,1,0,0:0:0:70:4.wav
109,192,128689,1,0,0:0:0:70:L4-.wav
256,192,129165,1,0,0:0:0:70:L2.wav
36,192,129165,1,0,0:0:0:70:L6-.wav
402,192,129165,1,0,0:0:0:70:6.wav
475,192,129641,1,0,0:0:0:70:3+.wav
109,192,129641,1,0,0:0:0:70:L4-.wav
36,192,130118,1,0,0:0:0:70:L6--.wav
329,192,130118,1,0,0:0:0:70:6.wav
475,192,130118,1,0,0:0:0:70:3+.wav
109,192,130594,1,0,0:0:0:70:L4-.wav
402,192,130594,1,0,0:0:0:70:2+.wav
36,192,131070,5,0,0:0:0:70:L6-.wav
329,192,131070,1,0,0:0:0:70:6.wav
256,192,131070,1,0,0:0:0:70:L2.wav
402,192,131546,1,0,0:0:0:70:7.wav
182,192,131546,1,0,0:0:0:70:L4-.wav
475,192,132022,1,0,0:0:0:70:1#+.wav
36,192,132022,1,0,0:0:0:70:L6--.wav
256,192,132022,1,0,0:0:0:70:3.wav
109,192,132498,1,0,0:0:0:70:L3-.wav
182,192,132975,1,0,0:0:0:70:L6-.wav
402,192,132975,1,0,0:0:0:70:L1#.wav
329,192,133451,1,0,0:0:0:70:6.wav
109,192,133451,1,0,0:0:0:70:L3-.wav
402,192,133689,1,0,0:0:0:70:7.wav
36,192,133927,5,0,0:0:0:70:L6--.wav
475,192,133927,1,0,0:0:0:70:2+.wav
256,192,133927,1,0,0:0:0:70:3.wav
109,192,134403,1,0,0:0:0:70:L3-.wav
475,192,134403,1,0,0:0:0:70:1#+.wav
256,192,134879,1,0,0:0:0:70:L1#.wav
402,192,134879,1,0,0:0:0:70:6.wav
36,192,134879,1,0,0:0:0:70:L6-.wav
329,192,135356,1,0,0:0:0:70:3.wav
182,192,135356,1,0,0:0:0:70:L3-.wav
256,192,135832,1,0,0:0:0:70:2.wav
36,192,135832,1,0,0:0:0:70:L6--.wav
329,192,136308,1,0,0:0:0:70:4.wav
109,192,136308,1,0,0:0:0:70:L4-.wav
402,192,136784,1,0,0:0:0:70:6.wav
182,192,136784,1,0,0:0:0:70:L2.wav
36,192,136784,1,0,0:0:0:70:L6-.wav
475,192,137260,1,0,0:0:0:70:3+.wav
256,192,137260,1,0,0:0:0:70:L4-.wav
475,192,137737,1,0,0:0:0:70:3+.wav
329,192,137737,1,0,0:0:0:70:6.wav
36,192,137737,1,0,0:0:0:70:L6--.wav
109,192,138213,1,0,0:0:0:70:L4-.wav
402,192,138213,1,0,0:0:0:70:2+.wav
36,192,138689,5,0,0:0:0:70:L2.wav
329,192,138689,1,0,0:0:0:70:6.wav
256,192,138689,1,0,0:0:0:70:L6-.wav
182,192,139165,1,0,0:0:0:70:L4-.wav
402,192,139165,1,0,0:0:0:70:7.wav
256,192,139641,1,0,0:0:0:70:3.wav
109,192,139641,1,0,0:0:0:70:L6--.wav
36,192,139641,1,0,0:0:0:70:L6---.wav
329,192,139760,1,0,0:0:0:70:6.wav
402,192,139879,1,0,0:0:0:70:7.wav
475,192,139998,1,0,0:0:0:70:1#+.wav
