osu file format v13

[General]
AudioFilename: 2m3.mp3
AudioLeadIn: 0
PreviewTime: -1
Countdown: 0
SampleSet: Soft
StackLeniency: 0.7
Mode: 3
LetterboxInBreaks: 0
SpecialStyle: 0
WidescreenStoryboard: 1

[Editor]
DistanceSpacing: 1.2
BeatDivisor: 4
GridSize: 4
TimelineZoom: 0.9000001

[Metadata]
Title:Piano Pack
TitleUnicode:Piano Pack
Artist:KawaEE
ArtistUnicode:KawaEE
Creator:KawaEE
Version:SC : Native Faith
Source:
Tags:Piano
BeatmapID:556213
BeatmapSetID:236952

[Difficulty]
HPDrainRate:8
CircleSize:7
OverallDifficulty:8
ApproachRate:5
SliderMultiplier:1.4
SliderTickRate:1

[Events]
//Background and Video events
0,0,"7777.jpg",0,0
//Break Periods
//Storyboard Layer 0 (Background)
//Storyboard Layer 1 (Fail)
//Storyboard Layer 2 (Pass)
//Storyboard Layer 3 (Foreground)
//Storyboard Sound Samples

[TimingPoints]
0,309.278350515464,4,2,1,1,1,0

[HitObjects]
475,192,3711,5,0,0:0:0:70:1+.wav
36,192,3711,1,0,0:0:0:70:L6--.wav
329,192,3711,1,0,0:0:0:70:6.wav
402,192,3711,1,0,0:0:0:70:3.wav
182,192,3865,1,0,0:0:0:70:L6-.wav
36,192,4020,1,0,0:0:0:70:L6--.wav
182,192,4175,1,0,0:0:0:70:L6-.wav
475,192,4329,5,0,0:0:0:70:7.wav
256,192,4329,1,0,0:0:0:70:5.wav
402,192,4329,1,0,0:0:0:70:2.wav
36,192,4329,1,0,0:0:0:70:L5--.wav
109,192,4484,1,0,0:0:0:70:L5-.wav
36,192,4639,1,0,0:0:0:70:L5--.wav
109,192,4793,1,0,0:0:0:70:L5-.wav
256,192,4948,1,0,0:0:0:70:1.wav
475,192,4948,1,0,0:0:0:70:4.wav
329,192,4948,1,0,0:0:0:70:6.wav
36,192,4948,1,0,0:0:0:70:L4--.wav
182,192,5103,1,0,0:0:0:70:L4-.wav
36,192,5257,1,0,0:0:0:70:L4--.wav
182,192,5412,1,0,0:0:0:70:L4-.wav
329,192,5567,5,0,0:0:0:70:7-.wav
402,192,5567,1,0,0:0:0:70:3.wav
256,192,5567,1,0,0:0:0:70:5#.wav
36,192,5567,1,0,0:0:0:70:L3--.wav
109,192,5721,1,0,0:0:0:70:L3-.wav
36,192,5876,1,0,0:0:0:70:L3--.wav
402,192,6030,5,0,0:0:0:70:7.wav
109,192,6030,1,0,0:0:0:70:L3-.wav
475,192,6185,1,0,0:0:0:70:1+.wav
36,192,6185,1,0,0:0:0:70:L6--.wav
329,192,6340,1,0,0:0:0:70:6.wav
182,192,6340,1,0,0:0:0:70:L6-.wav
256,192,6494,1,0,0:0:0:70:3.wav
36,192,6494,1,0,0:0:0:70:L6--.wav
182,192,6649,1,0,0:0:0:70:L6-.wav
475,192,6649,1,0,0:0:0:70:1+.wav
402,192,6804,5,0,0:0:0:70:7.wav
36,192,6804,1,0,0:0:0:70:L5--.wav
329,192,6958,1,0,0:0:0:70:5.wav
109,192,6958,1,0,0:0:0:70:L5-.wav
36,192,7113,1,0,0:0:0:70:L5--.wav
256,192,7113,1,0,0:0:0:70:2.wav
475,192,7268,5,0,0:0:0:70:7.wav
109,192,7268,1,0,0:0:0:70:L5-.wav
402,192,7422,1,0,0:0:0:70:6.wav
36,192,7422,1,0,0:0:0:70:L4--.wav
182,192,7577,1,0,0:0:0:70:L4-.wav
329,192,7577,1,0,0:0:0:70:4.wav
256,192,7731,1,0,0:0:0:70:1.wav
36,192,7731,1,0,0:0:0:70:L4--.wav
329,192,7886,1,0,0:0:0:70:6.wav
182,192,7886,1,0,0:0:0:70:L4-.wav
402,192,8041,5,0,0:0:0:70:7-.wav
256,192,8041,1,0,0:0:0:70:5#.wav
475,192,8041,1,0,0:0:0:70:3.wav
36,192,8041,1,0,0:0:0:70:L3--.wav
109,192,8195,1,0,0:0:0:70:L3-.wav
36,192,8350,1,0,0:0:0:70:L3--.wav
109,192,8505,1,0,0:0:0:70:L3-.wav
475,192,8659,1,0,0:0:0:70:1+.wav
36,192,8659,1,0,0:0:0:70:L6--.wav
329,192,8737,1,0,0:0:0:70:6.wav
109,192,8814,1,0,0:0:0:70:L6-.wav
256,192,8814,1,0,0:0:0:70:3.wav
475,192,8891,1,0,0:0:0:70:1+.wav
402,192,8969,5,0,0:0:0:70:7.wav
36,192,8969,1,0,0:0:0:70:L5--.wav
329,192,9046,1,0,0:0:0:70:5.wav
109,192,9123,1,0,0:0:0:70:L5-.wav
256,192,9123,1,0,0:0:0:70:2.wav
475,192,9201,5,0,0:0:0:70:7.wav
402,192,9278,1,0,0:0:0:70:6.wav
36,192,9278,1,0,0:0:0:70:L4--.wav
329,192,9355,1,0,0:0:0:70:4.wav
256,192,9432,1,0,0:0:0:70:1.wav
109,192,9432,1,0,0:0:0:70:L4-.wav
402,192,9510,1,0,0:0:0:70:6.wav
329,192,9587,1,0,0:0:0:70:5#.wav
36,192,9587,1,0,0:0:0:70:L3--.wav
256,192,9664,1,0,0:0:0:70:3.wav
182,192,9742,5,0,0:0:0:70:7-.wav
109,192,9742,1,0,0:0:0:70:L3-.wav
329,192,9819,1,0,0:0:0:70:5#.wav
475,192,9896,1,0,0:0:0:70:1+.wav
36,192,9896,1,0,0:0:0:70:L6--.wav
402,192,9974,1,0,0:0:0:70:6.wav
182,192,10051,1,0,0:0:0:70:L6-.wav
256,192,10051,1,0,0:0:0:70:3.wav
475,192,10128,1,0,0:0:0:70:1+.wav
402,192,10206,5,0,0:0:0:70:7.wav
36,192,10206,1,0,0:0:0:70:L5--.wav
329,192,10283,1,0,0:0:0:70:5.wav
109,192,10360,1,0,0:0:0:70:L5-.wav
256,192,10360,1,0,0:0:0:70:2.wav
402,192,10438,5,0,0:0:0:70:7.wav
329,192,10515,1,0,0:0:0:70:6.wav
36,192,10515,1,0,0:0:0:70:L4--.wav
256,192,10592,1,0,0:0:0:70:4.wav
182,192,10670,1,0,0:0:0:70:1.wav
109,192,10670,1,0,0:0:0:70:L4-.wav
402,192,10747,1,0,0:0:0:70:6.wav
329,192,10824,1,0,0:0:0:70:5#.wav
36,192,10824,1,0,0:0:0:70:L3--.wav
256,192,10902,1,0,0:0:0:70:3.wav
182,192,10979,5,0,0:0:0:70:7-.wav
109,192,10979,1,0,0:0:0:70:L3-.wav
329,192,11056,1,0,0:0:0:70:5#.wav
475,192,11134,1,0,0:0:0:70:1+.wav
36,192,11134,1,0,0:0:0:70:L6--.wav
402,192,11211,1,0,0:0:0:70:6.wav
109,192,11288,1,0,0:0:0:70:L6-.wav
256,192,11288,1,0,0:0:0:70:3.wav
475,192,11365,1,0,0:0:0:70:1+.wav
402,192,11443,5,0,0:0:0:70:7.wav
36,192,11443,1,0,0:0:0:70:L5--.wav
329,192,11520,1,0,0:0:0:70:5.wav
109,192,11597,1,0,0:0:0:70:L5-.wav
256,192,11597,1,0,0:0:0:70:2.wav
402,192,11675,5,0,0:0:0:70:7.wav
36,192,11752,1,0,0:0:0:70:L4--.wav
329,192,11752,1,0,0:0:0:70:6.wav
256,192,11829,1,0,0:0:0:70:4.wav
182,192,11907,1,0,0:0:0:70:1.wav
109,192,11907,1,0,0:0:0:70:L4-.wav
402,192,11984,1,0,0:0:0:70:6.wav
36,192,12061,1,0,0:0:0:70:L3--.wav
329,192,12061,1,0,0:0:0:70:5#.wav
256,192,12139,1,0,0:0:0:70:3.wav
182,192,12216,5,0,0:0:0:70:7-.wav
109,192,12216,1,0,0:0:0:70:L3-.wav
402,192,12293,1,0,0:0:0:70:5#.wav
475,192,12371,1,0,0:0:0:70:1+.wav
36,192,12371,1,0,0:0:0:70:L6--.wav
402,192,12448,1,0,0:0:0:70:6.wav
182,192,12525,1,0,0:0:0:70:L6-.wav
256,192,12525,1,0,0:0:0:70:3.wav
475,192,12603,1,0,0:0:0:70:1+.wav
402,192,12680,5,0,0:0:0:70:7.wav
36,192,12680,1,0,0:0:0:70:L5--.wav
329,192,12757,1,0,0:0:0:70:5.wav
182,192,12835,1,0,0:0:0:70:L5-.wav
256,192,12835,1,0,0:0:0:70:2.wav
402,192,12912,5,0,0:0:0:70:7.wav
329,192,12989,1,0,0:0:0:70:6.wav
36,192,12989,1,0,0:0:0:70:L4--.wav
256,192,13067,1,0,0:0:0:70:4.wav
182,192,13144,1,0,0:0:0:70:1.wav
109,192,13144,1,0,0:0:0:70:L4-.wav
475,192,13221,1,0,0:0:0:70:6.wav
402,192,13298,1,0,0:0:0:70:5#.wav
36,192,13298,1,0,0:0:0:70:L3--.wav
329,192,13376,1,0,0:0:0:70:3.wav
256,192,13453,5,0,0:0:0:70:7-.wav
109,192,13453,1,0,0:0:0:70:L3-.wav
329,192,13530,1,0,0:0:0:70:5#.wav
475,192,13608,1,0,0:0:0:70:3+.wav
182,192,13608,1,0,0:0:0:70:6.wav
402,192,13608,1,0,0:0:0:70:1+.wav
36,192,13608,1,0,0:0:0:70:L6--.wav
109,192,13762,1,0,0:0:0:70:L6-.wav
256,192,13762,1,0,0:0:0:70:L1.wav
36,192,13917,1,0,0:0:0:70:L6--.wav
109,192,14072,1,0,0:0:0:70:L6-.wav
182,192,14072,1,0,0:0:0:70:L1.wav
475,192,14072,1,0,0:0:0:70:3+.wav
329,192,14072,1,0,0:0:0:70:5+.wav
402,192,14226,1,0,0:0:0:70:6+.wav
475,192,14226,1,0,0:0:0:70:4+.wav
36,192,14226,1,0,0:0:0:70:L4--.wav
109,192,14381,1,0,0:0:0:70:L6-.wav
256,192,14381,1,0,0:0:0:70:L4-.wav
36,192,14536,1,0,0:0:0:70:L4--.wav
109,192,14690,1,0,0:0:0:70:L6-.wav
182,192,14690,1,0,0:0:0:70:L4-.wav
475,192,14690,1,0,0:0:0:70:7+.wav
475,192,14845,1,0,0:0:0:70:7+.wav
329,192,14845,1,0,0:0:0:70:2+.wav
36,192,14845,1,0,0:0:0:70:L5--.wav
109,192,15000,1,0,0:0:0:70:L5-.wav
256,192,15000,1,0,0:0:0:70:L7-.wav
402,192,15077,1,0,0:0:0:70:5+.wav
329,192,15077,1,0,0:0:0:70:2+.wav
36,192,15154,1,0,0:0:0:70:L5--.wav
475,192,15309,1,0,0:0:0:70:6+.wav
329,192,15309,1,0,0:0:0:70:2+.wav
109,192,15309,1,0,0:0:0:70:L5-.wav
182,192,15309,1,0,0:0:0:70:L7-.wav
256,192,15463,1,0,0:0:0:70:1+.wav
402,192,15463,1,0,0:0:0:70:3+.wav
36,192,15463,1,0,0:0:0:70:L1-.wav
182,192,15618,1,0,0:0:0:70:L1.wav
109,192,15618,1,0,0:0:0:70:L3.wav
36,192,15773,1,0,0:0:0:70:L1-.wav
256,192,15773,1,0,0:0:0:70:6.wav
329,192,15773,1,0,0:0:0:70:1+.wav
109,192,15927,1,0,0:0:0:70:L3.wav
182,192,15927,1,0,0:0:0:70:L1.wav
402,192,15927,1,0,0:0:0:70:2+.wav
256,192,15927,1,0,0:0:0:70:6.wav
475,192,16082,1,0,0:0:0:70:3+.wav
256,192,16082,1,0,0:0:0:70:6.wav
329,192,16082,1,0,0:0:0:70:1+.wav
36,192,16082,1,0,0:0:0:70:L2--.wav
109,192,16237,1,0,0:0:0:70:L2-.wav
182,192,16237,1,0,0:0:0:70:L4-.wav
36,192,16391,1,0,0:0:0:70:L2--.wav
109,192,16546,1,0,0:0:0:70:L2-.wav
256,192,16546,1,0,0:0:0:70:L4-.wav
475,192,16546,1,0,0:0:0:70:5+.wav
329,192,16623,1,0,0:0:0:70:1#+.wav
402,192,16701,1,0,0:0:0:70:2+.wav
182,192,16701,1,0,0:0:0:70:5.wav
36,192,16701,1,0,0:0:0:70:L3--.wav
109,192,16855,1,0,0:0:0:70:L3-.wav
256,192,16855,1,0,0:0:0:70:L5-.wav
329,192,16932,1,0,0:0:0:70:5.wav
475,192,16932,1,0,0:0:0:70:7.wav
36,192,17010,1,0,0:0:0:70:L3--.wav
329,192,17164,1,0,0:0:0:70:5.wav
109,192,17164,1,0,0:0:0:70:L3-.wav
182,192,17164,1,0,0:0:0:70:L5-.wav
402,192,17319,1,0,0:0:0:70:6.wav
36,192,17319,1,0,0:0:0:70:L4--.wav
256,192,17474,1,0,0:0:0:70:L4-.wav
109,192,17474,1,0,0:0:0:70:L6-.wav
36,192,17628,1,0,0:0:0:70:L4--.wav
182,192,17783,1,0,0:0:0:70:L4-.wav
402,192,17783,1,0,0:0:0:70:3+.wav
109,192,17783,1,0,0:0:0:70:L6-.wav
475,192,17938,1,0,0:0:0:70:1++.wav
36,192,17938,1,0,0:0:0:70:L4--.wav
402,192,18015,1,0,0:0:0:70:7+.wav
329,192,18092,1,0,0:0:0:70:5+.wav
109,192,18092,1,0,0:0:0:70:L6-.wav
182,192,18092,1,0,0:0:0:70:L4-.wav
402,192,18170,1,0,0:0:0:70:3+.wav
402,192,18247,1,0,0:0:0:70:3+.wav
36,192,18247,1,0,0:0:0:70:L4--.wav
329,192,18402,1,0,0:0:0:70:5+.wav
182,192,18402,1,0,0:0:0:70:L4-.wav
109,192,18402,1,0,0:0:0:70:L6-.wav
256,192,18556,1,0,0:0:0:70:1+.wav
402,192,18556,1,0,0:0:0:70:4+.wav
475,192,18556,1,0,0:0:0:70:6+.wav
36,192,18556,1,0,0:0:0:70:L4--.wav
329,192,18711,1,0,0:0:0:70:L4-.wav
109,192,18711,1,0,0:0:0:70:L6-.wav
36,192,18865,1,0,0:0:0:70:L4--.wav
256,192,19020,1,0,0:0:0:70:L4-.wav
109,192,19020,1,0,0:0:0:70:L6-.wav
402,192,19020,1,0,0:0:0:70:5+.wav
329,192,19097,1,0,0:0:0:70:6+.wav
36,192,19175,1,0,0:0:0:70:L5--.wav
256,192,19175,1,0,0:0:0:70:7+.wav
402,192,19175,1,0,0:0:0:70:2+.wav
475,192,19175,1,0,0:0:0:70:1++.wav
109,192,19329,1,0,0:0:0:70:L5-.wav
182,192,19329,1,0,0:0:0:70:L7-.wav
329,192,19407,1,0,0:0:0:70:1+.wav
475,192,19407,1,0,0:0:0:70:7+.wav
36,192,19484,1,0,0:0:0:70:L5--.wav
109,192,19639,1,0,0:0:0:70:L5-.wav
256,192,19639,1,0,0:0:0:70:L7-.wav
402,192,19639,1,0,0:0:0:70:5+.wav
329,192,19639,1,0,0:0:0:70:2+.wav
36,192,19793,1,0,0:0:0:70:L3--.wav
475,192,19793,1,0,0:0:0:70:5#+.wav
182,192,19793,1,0,0:0:0:70:7.wav
109,192,19948,1,0,0:0:0:70:L3-.wav
256,192,19948,1,0,0:0:0:70:L5#-.wav
329,192,20025,1,0,0:0:0:70:7.wav
475,192,20025,1,0,0:0:0:70:4+.wav
36,192,20103,1,0,0:0:0:70:L3--.wav
109,192,20257,1,0,0:0:0:70:L3-.wav
182,192,20257,1,0,0:0:0:70:L5#-.wav
402,192,20257,1,0,0:0:0:70:3+.wav
329,192,20257,1,0,0:0:0:70:7.wav
36,192,20412,1,0,0:0:0:70:L3--.wav
256,192,20412,1,0,0:0:0:70:5#.wav
402,192,20412,1,0,0:0:0:70:3+.wav
109,192,20567,1,0,0:0:0:70:L3-.wav
182,192,20567,1,0,0:0:0:70:L5#-.wav
475,192,20644,1,0,0:0:0:70:1+.wav
329,192,20644,1,0,0:0:0:70:5#.wav
36,192,20721,1,0,0:0:0:70:L3--.wav
109,192,20876,1,0,0:0:0:70:L3-.wav
182,192,20876,1,0,0:0:0:70:L5#-.wav
256,192,20876,1,0,0:0:0:70:7.wav
402,192,20876,1,0,0:0:0:70:5#.wav
36,192,21030,1,0,0:0:0:70:L4--.wav
329,192,21030,1,0,0:0:0:70:4.wav
182,192,21030,1,0,0:0:0:70:6.wav
109,192,21185,1,0,0:0:0:70:L4-.wav
256,192,21185,1,0,0:0:0:70:L6-.wav
36,192,21340,1,0,0:0:0:70:L4--.wav
475,192,21340,1,0,0:0:0:70:3+.wav
109,192,21494,1,0,0:0:0:70:L4-.wav
256,192,21494,1,0,0:0:0:70:L6-.wav
329,192,21572,1,0,0:0:0:70:1#+.wav
402,192,21649,1,0,0:0:0:70:2+.wav
256,192,21649,1,0,0:0:0:70:7.wav
36,192,21649,1,0,0:0:0:70:L5--.wav
109,192,21804,1,0,0:0:0:70:L5-.wav
182,192,21804,1,0,0:0:0:70:L7-.wav
329,192,21881,1,0,0:0:0:70:3+.wav
256,192,21881,1,0,0:0:0:70:7.wav
36,192,21958,1,0,0:0:0:70:L5--.wav
109,192,22113,1,0,0:0:0:70:L5-.wav
182,192,22113,1,0,0:0:0:70:L7-.wav
402,192,22113,1,0,0:0:0:70:5+.wav
256,192,22113,1,0,0:0:0:70:7.wav
36,192,22268,1,0,0:0:0:70:L6--.wav
475,192,22268,1,0,0:0:0:70:6+.wav
329,192,22268,1,0,0:0:0:70:1+.wav
402,192,22422,1,0,0:0:0:70:3+.wav
109,192,22422,1,0,0:0:0:70:L6-.wav
182,192,22422,1,0,0:0:0:70:L1.wav
256,192,22577,1,0,0:0:0:70:1+.wav
475,192,22577,1,0,0:0:0:70:7+.wav
36,192,22577,1,0,0:0:0:70:L6--.wav
329,192,22731,1,0,0:0:0:70:3+.wav
109,192,22731,1,0,0:0:0:70:L6-.wav
182,192,22731,1,0,0:0:0:70:L1.wav
36,192,22886,1,0,0:0:0:70:L6--.wav
256,192,22886,1,0,0:0:0:70:1+.wav
402,192,22886,1,0,0:0:0:70:1++.wav
475,192,23041,1,0,0:0:0:70:3++.wav
329,192,23041,1,0,0:0:0:70:2++.wav
475,192,23195,1,0,0:0:0:70:3++.wav
329,192,23195,1,0,0:0:0:70:2++.wav
256,192,23505,1,0,0:0:0:70:1+.wav
402,192,23505,1,0,0:0:0:70:3+.wav
36,192,23505,1,0,0:0:0:70:L6--.wav
182,192,23659,1,0,0:0:0:70:L1.wav
109,192,23659,1,0,0:0:0:70:L6-.wav
36,192,23814,1,0,0:0:0:70:L6--.wav
182,192,23969,1,0,0:0:0:70:L1.wav
109,192,23969,1,0,0:0:0:70:L6-.wav
402,192,23969,1,0,0:0:0:70:5+.wav
256,192,23969,1,0,0:0:0:70:3+.wav
36,192,24123,1,0,0:0:0:70:L4--.wav
329,192,24123,1,0,0:0:0:70:4+.wav
475,192,24123,1,0,0:0:0:70:6+.wav
256,192,24278,1,0,0:0:0:70:L4-.wav
109,192,24278,1,0,0:0:0:70:L6-.wav
36,192,24432,1,0,0:0:0:70:L4--.wav
256,192,24587,1,0,0:0:0:70:L4-.wav
109,192,24587,1,0,0:0:0:70:L6-.wav
475,192,24587,1,0,0:0:0:70:7+.wav
36,192,24742,1,0,0:0:0:70:L5--.wav
475,192,24742,1,0,0:0:0:70:7+.wav
329,192,24742,1,0,0:0:0:70:2+.wav
109,192,24896,1,0,0:0:0:70:L5-.wav
256,192,24896,1,0,0:0:0:70:L7-.wav
329,192,24974,1,0,0:0:0:70:2+.wav
402,192,24974,1,0,0:0:0:70:5+.wav
36,192,25051,1,0,0:0:0:70:L5--.wav
475,192,25206,1,0,0:0:0:70:6+.wav
329,192,25206,1,0,0:0:0:70:2+.wav
109,192,25206,1,0,0:0:0:70:L5-.wav
182,192,25206,1,0,0:0:0:70:L7-.wav
402,192,25360,1,0,0:0:0:70:3+.wav
256,192,25360,1,0,0:0:0:70:1+.wav
36,192,25360,1,0,0:0:0:70:L1-.wav
182,192,25515,1,0,0:0:0:70:L1.wav
109,192,25515,1,0,0:0:0:70:L3.wav
256,192,25670,1,0,0:0:0:70:6.wav
329,192,25670,1,0,0:0:0:70:1+.wav
36,192,25670,1,0,0:0:0:70:L1-.wav
402,192,25824,1,0,0:0:0:70:2+.wav
329,192,25824,1,0,0:0:0:70:6.wav
109,192,25824,1,0,0:0:0:70:L3.wav
182,192,25824,1,0,0:0:0:70:L1.wav
256,192,25979,1,0,0:0:0:70:1+.wav
402,192,25979,1,0,0:0:0:70:3+.wav
475,192,25979,1,0,0:0:0:70:6.wav
36,192,25979,1,0,0:0:0:70:L2--.wav
109,192,26134,1,0,0:0:0:70:L2-.wav
182,192,26134,1,0,0:0:0:70:L4-.wav
36,192,26288,1,0,0:0:0:70:L2--.wav
475,192,26443,1,0,0:0:0:70:5+.wav
256,192,26443,1,0,0:0:0:70:L4-.wav
109,192,26443,1,0,0:0:0:70:L2-.wav
329,192,26520,1,0,0:0:0:70:1#+.wav
256,192,26597,1,0,0:0:0:70:5.wav
402,192,26597,1,0,0:0:0:70:2+.wav
36,192,26597,1,0,0:0:0:70:L3--.wav
109,192,26752,1,0,0:0:0:70:L3-.wav
182,192,26752,1,0,0:0:0:70:L5-.wav
329,192,26829,1,0,0:0:0:70:5.wav
256,192,26829,1,0,0:0:0:70:7.wav
36,192,26907,1,0,0:0:0:70:L3--.wav
402,192,27061,1,0,0:0:0:70:5.wav
256,192,27061,1,0,0:0:0:70:L5-.wav
109,192,27061,1,0,0:0:0:70:L3-.wav
475,192,27216,1,0,0:0:0:70:6.wav
36,192,27216,1,0,0:0:0:70:L4--.wav
256,192,27371,1,0,0:0:0:70:L4-.wav
182,192,27371,1,0,0:0:0:70:L6-.wav
36,192,27525,1,0,0:0:0:70:L4--.wav
329,192,27680,1,0,0:0:0:70:3+.wav
182,192,27680,1,0,0:0:0:70:L4-.wav
109,192,27680,1,0,0:0:0:70:L6-.wav
475,192,27835,1,0,0:0:0:70:1++.wav
36,192,27835,1,0,0:0:0:70:L4--.wav
402,192,27912,1,0,0:0:0:70:7+.wav
329,192,27989,1,0,0:0:0:70:5+.wav
109,192,27989,1,0,0:0:0:70:L6-.wav
182,192,27989,1,0,0:0:0:70:L4-.wav
402,192,28067,1,0,0:0:0:70:3+.wav
402,192,28144,1,0,0:0:0:70:3+.wav
36,192,28144,1,0,0:0:0:70:L4--.wav
329,192,28298,1,0,0:0:0:70:5+.wav
109,192,28298,1,0,0:0:0:70:L6-.wav
182,192,28298,1,0,0:0:0:70:L4-.wav
402,192,28453,1,0,0:0:0:70:1+.wav
475,192,28453,1,0,0:0:0:70:6+.wav
256,192,28453,1,0,0:0:0:70:4+.wav
36,192,28453,1,0,0:0:0:70:L4--.wav
109,192,28608,1,0,0:0:0:70:L6-.wav
182,192,28608,1,0,0:0:0:70:L4-.wav
36,192,28762,1,0,0:0:0:70:L4--.wav
329,192,28917,1,0,0:0:0:70:5+.wav
256,192,28917,1,0,0:0:0:70:L4-.wav
109,192,28917,1,0,0:0:0:70:L6-.wav
402,192,28994,1,0,0:0:0:70:6+.wav
182,192,29072,1,0,0:0:0:70:7+.wav
475,192,29072,1,0,0:0:0:70:1++.wav
329,192,29072,1,0,0:0:0:70:2+.wav
36,192,29072,1,0,0:0:0:70:L5--.wav
256,192,29226,1,0,0:0:0:70:L7-.wav
109,192,29226,1,0,0:0:0:70:L5-.wav
329,192,29304,1,0,0:0:0:70:2+.wav
475,192,29304,1,0,0:0:0:70:7+.wav
36,192,29381,1,0,0:0:0:70:L5--.wav
329,192,29536,1,0,0:0:0:70:2+.wav
402,192,29536,1,0,0:0:0:70:5+.wav
109,192,29536,1,0,0:0:0:70:L5-.wav
256,192,29536,1,0,0:0:0:70:L7-.wav
329,192,29690,1,0,0:0:0:70:5#+.wav
475,192,29690,1,0,0:0:0:70:7.wav
36,192,29690,1,0,0:0:0:70:L3--.wav
109,192,29845,1,0,0:0:0:70:L3-.wav
182,192,29845,1,0,0:0:0:70:L5#-.wav
256,192,29922,1,0,0:0:0:70:7.wav
402,192,29922,1,0,0:0:0:70:4+.wav
36,192,30000,1,0,0:0:0:70:L3--.wav
402,192,30154,1,0,0:0:0:70:3+.wav
329,192,30154,1,0,0:0:0:70:7.wav
182,192,30154,1,0,0:0:0:70:L5#-.wav
109,192,30154,1,0,0:0:0:70:L3-.wav
475,192,30309,1,0,0:0:0:70:3+.wav
256,192,30309,1,0,0:0:0:70:5#.wav
36,192,30309,1,0,0:0:0:70:L3--.wav
109,192,30463,1,0,0:0:0:70:L3-.wav
182,192,30463,1,0,0:0:0:70:L5#-.wav
402,192,30541,1,0,0:0:0:70:1+.wav
256,192,30541,1,0,0:0:0:70:5#.wav
36,192,30618,1,0,0:0:0:70:L3--.wav
256,192,30773,1,0,0:0:0:70:7.wav
329,192,30773,1,0,0:0:0:70:5#.wav
182,192,30773,1,0,0:0:0:70:L5#-.wav
109,192,30773,1,0,0:0:0:70:L3-.wav
402,192,30927,1,0,0:0:0:70:4.wav
329,192,30927,1,0,0:0:0:70:6.wav
36,192,30927,1,0,0:0:0:70:L4--.wav
109,192,31082,1,0,0:0:0:70:L4-.wav
256,192,31082,1,0,0:0:0:70:L6-.wav
475,192,31237,1,0,0:0:0:70:3+.wav
36,192,31237,1,0,0:0:0:70:L4--.wav
256,192,31391,1,0,0:0:0:70:L6-.wav
109,192,31391,1,0,0:0:0:70:L4-.wav
329,192,31469,1,0,0:0:0:70:1#+.wav
402,192,31546,1,0,0:0:0:70:2+.wav
182,192,31546,1,0,0:0:0:70:7.wav
36,192,31546,1,0,0:0:0:70:L5--.wav
256,192,31701,1,0,0:0:0:70:L7-.wav
109,192,31701,1,0,0:0:0:70:L5-.wav
475,192,31778,1,0,0:0:0:70:3+.wav
329,192,31778,1,0,0:0:0:70:7.wav
36,192,31855,1,0,0:0:0:70:L5--.wav
402,192,32010,1,0,0:0:0:70:5+.wav
329,192,32010,1,0,0:0:0:70:7.wav
182,192,32010,1,0,0:0:0:70:L7-.wav
109,192,32010,1,0,0:0:0:70:L5-.wav
475,192,32164,1,0,0:0:0:70:6+.wav
256,192,32164,1,0,0:0:0:70:3+.wav
36,192,32164,1,0,0:0:0:70:L6--.wav
329,192,32319,1,0,0:0:0:70:L1.wav
109,192,32319,1,0,0:0:0:70:L6-.wav
36,192,32474,1,0,0:0:0:70:L6--.wav
109,192,32628,1,0,0:0:0:70:L6-.wav
329,192,32628,1,0,0:0:0:70:L1.wav
36,192,32783,1,0,0:0:0:70:L6--.wav
109,192,32938,1,0,0:0:0:70:L6-.wav
329,192,32938,1,0,0:0:0:70:L1.wav
36,192,33092,1,0,0:0:0:70:L6--.wav
109,192,33247,1,0,0:0:0:70:L6-.wav
329,192,33247,1,0,0:0:0:70:L1.wav
475,192,33402,1,0,0:0:0:70:3+.wav
36,192,33402,1,0,0:0:0:70:L6--.wav
402,192,33479,1,0,0:0:0:70:1+.wav
329,192,33556,1,0,0:0:0:70:6.wav
109,192,33556,1,0,0:0:0:70:L6-.wav
256,192,33556,1,0,0:0:0:70:L1.wav
475,192,33634,1,0,0:0:0:70:3+.wav
402,192,33711,1,0,0:0:0:70:1+.wav
36,192,33711,1,0,0:0:0:70:L6--.wav
329,192,33788,1,0,0:0:0:70:6.wav
402,192,33865,1,0,0:0:0:70:3+.wav
256,192,33865,1,0,0:0:0:70:L1.wav
109,192,33865,1,0,0:0:0:70:L6-.wav
329,192,33943,1,0,0:0:0:70:1+.wav
475,192,34020,1,0,0:0:0:70:4+.wav
36,192,34020,1,0,0:0:0:70:L4--.wav
402,192,34097,1,0,0:0:0:70:1+.wav
182,192,34175,1,0,0:0:0:70:L6-.wav
329,192,34175,1,0,0:0:0:70:6.wav
109,192,34175,1,0,0:0:0:70:L4-.wav
475,192,34252,1,0,0:0:0:70:4+.wav
402,192,34329,1,0,0:0:0:70:1+.wav
36,192,34329,1,0,0:0:0:70:L4--.wav
329,192,34407,1,0,0:0:0:70:6.wav
475,192,34484,1,0,0:0:0:70:4+.wav
182,192,34484,1,0,0:0:0:70:L6-.wav
109,192,34484,1,0,0:0:0:70:L4-.wav
402,192,34561,1,0,0:0:0:70:1+.wav
475,192,34639,1,0,0:0:0:70:2+.wav
36,192,34639,1,0,0:0:0:70:L5--.wav
402,192,34716,1,0,0:0:0:70:7.wav
329,192,34793,1,0,0:0:0:70:5.wav
182,192,34793,1,0,0:0:0:70:L5-.wav
256,192,34793,1,0,0:0:0:70:L7-.wav
475,192,34871,1,0,0:0:0:70:2+.wav
402,192,34948,1,0,0:0:0:70:7.wav
36,192,34948,1,0,0:0:0:70:L5--.wav
329,192,35025,1,0,0:0:0:70:5.wav
402,192,35103,1,0,0:0:0:70:2+.wav
256,192,35103,1,0,0:0:0:70:L7-.wav
182,192,35103,1,0,0:0:0:70:L5-.wav
329,192,35180,1,0,0:0:0:70:7.wav
475,192,35257,1,0,0:0:0:70:3+.wav
36,192,35257,1,0,0:0:0:70:L3--.wav
402,192,35335,1,0,0:0:0:70:7.wav
182,192,35412,1,0,0:0:0:70:L3-.wav
329,192,35412,1,0,0:0:0:70:5.wav
109,192,35412,1,0,0:0:0:70:L5-.wav
475,192,35489,1,0,0:0:0:70:3+.wav
402,192,35567,1,0,0:0:0:70:7.wav
36,192,35567,1,0,0:0:0:70:L3--.wav
329,192,35644,1,0,0:0:0:70:5.wav
402,192,35721,1,0,0:0:0:70:3+.wav
182,192,35721,1,0,0:0:0:70:L3-.wav
109,192,35721,1,0,0:0:0:70:L5-.wav
329,192,35798,1,0,0:0:0:70:7.wav
475,192,35876,1,0,0:0:0:70:6+.wav
36,192,35876,1,0,0:0:0:70:L2--.wav
402,192,35953,1,0,0:0:0:70:4+.wav
329,192,36030,1,0,0:0:0:70:2+.wav
109,192,36030,1,0,0:0:0:70:L2-.wav
256,192,36030,1,0,0:0:0:70:L4-.wav
475,192,36108,1,0,0:0:0:70:6+.wav
402,192,36185,1,0,0:0:0:70:4+.wav
36,192,36185,1,0,0:0:0:70:L2--.wav
329,192,36262,1,0,0:0:0:70:2+.wav
402,192,36340,1,0,0:0:0:70:6+.wav
109,192,36340,1,0,0:0:0:70:L2-.wav
256,192,36340,1,0,0:0:0:70:L4-.wav
329,192,36417,1,0,0:0:0:70:4+.wav
475,192,36494,1,0,0:0:0:70:7+.wav
36,192,36494,1,0,0:0:0:70:L3--.wav
402,192,36572,1,0,0:0:0:70:5+.wav
329,192,36649,1,0,0:0:0:70:3+.wav
109,192,36649,1,0,0:0:0:70:L5-.wav
182,192,36649,1,0,0:0:0:70:L3-.wav
475,192,36726,1,0,0:0:0:70:7+.wav
402,192,36804,1,0,0:0:0:70:5+.wav
36,192,36804,1,0,0:0:0:70:L3--.wav
329,192,36881,1,0,0:0:0:70:3+.wav
402,192,36958,1,0,0:0:0:70:7+.wav
182,192,36958,1,0,0:0:0:70:L3-.wav
109,192,36958,1,0,0:0:0:70:L5-.wav
329,192,37036,1,0,0:0:0:70:5+.wav
475,192,37113,1,0,0:0:0:70:1++.wav
36,192,37113,1,0,0:0:0:70:L4--.wav
402,192,37190,1,0,0:0:0:70:6+.wav
329,192,37268,1,0,0:0:0:70:4+.wav
256,192,37268,1,0,0:0:0:70:L6-.wav
109,192,37268,1,0,0:0:0:70:L4-.wav
475,192,37345,1,0,0:0:0:70:1++.wav
402,192,37422,1,0,0:0:0:70:6+.wav
36,192,37422,1,0,0:0:0:70:L4--.wav
329,192,37500,1,0,0:0:0:70:4+.wav
475,192,37577,1,0,0:0:0:70:1++.wav
109,192,37577,1,0,0:0:0:70:L4-.wav
256,192,37577,1,0,0:0:0:70:L6-.wav
402,192,37654,1,0,0:0:0:70:6+.wav
329,192,37731,1,0,0:0:0:70:4+.wav
36,192,37731,1,0,0:0:0:70:L4--.wav
475,192,37809,1,0,0:0:0:70:1++.wav
402,192,37886,1,0,0:0:0:70:6+.wav
256,192,37886,1,0,0:0:0:70:L6-.wav
109,192,37886,1,0,0:0:0:70:L4-.wav
329,192,37963,1,0,0:0:0:70:4+.wav
475,192,38041,1,0,0:0:0:70:1++.wav
36,192,38041,1,0,0:0:0:70:L4--.wav
402,192,38118,1,0,0:0:0:70:6+.wav
329,192,38195,1,0,0:0:0:70:4+.wav
256,192,38195,1,0,0:0:0:70:L6-.wav
109,192,38195,1,0,0:0:0:70:L4-.wav
475,192,38273,1,0,0:0:0:70:1++.wav
475,192,38350,1,0,0:0:0:70:1++.wav
36,192,38350,1,0,0:0:0:70:L4--.wav
402,192,38427,1,0,0:0:0:70:6+.wav
329,192,38505,1,0,0:0:0:70:4+.wav
256,192,38505,1,0,0:0:0:70:L6-.wav
109,192,38505,1,0,0:0:0:70:L4-.wav
475,192,38582,1,0,0:0:0:70:1++.wav
402,192,38659,1,0,0:0:0:70:6+.wav
36,192,38659,1,0,0:0:0:70:L4--.wav
329,192,38737,1,0,0:0:0:70:4+.wav
475,192,38814,1,0,0:0:0:70:1++.wav
109,192,38814,1,0,0:0:0:70:L4-.wav
256,192,38814,1,0,0:0:0:70:L6-.wav
329,192,38891,1,0,0:0:0:70:6+.wav
36,192,38969,1,0,0:0:0:70:L5--.wav
402,192,38969,1,0,0:0:0:70:7+.wav
329,192,39046,1,0,0:0:0:70:5+.wav
256,192,39123,1,0,0:0:0:70:2+.wav
109,192,39123,1,0,0:0:0:70:L5-.wav
182,192,39123,1,0,0:0:0:70:L7-.wav
475,192,39201,1,0,0:0:0:70:7+.wav
402,192,39278,1,0,0:0:0:70:5+.wav
36,192,39278,1,0,0:0:0:70:L5--.wav
329,192,39355,1,0,0:0:0:70:2+.wav
475,192,39432,1,0,0:0:0:70:7+.wav
256,192,39432,1,0,0:0:0:70:L7-.wav
109,192,39432,1,0,0:0:0:70:L5-.wav
402,192,39510,1,0,0:0:0:70:5+.wav
329,192,39587,1,0,0:0:0:70:5#+.wav
36,192,39587,1,0,0:0:0:70:L3--.wav
475,192,39664,1,0,0:0:0:70:3+.wav
402,192,39742,1,0,0:0:0:70:7.wav
109,192,39742,1,0,0:0:0:70:L3-.wav
182,192,39742,1,0,0:0:0:70:L5#-.wav
329,192,39819,1,0,0:0:0:70:5#+.wav
475,192,39896,1,0,0:0:0:70:3+.wav
36,192,39896,1,0,0:0:0:70:L3--.wav
402,192,39974,1,0,0:0:0:70:7.wav
109,192,40051,1,0,0:0:0:70:L3-.wav
182,192,40051,1,0,0:0:0:70:L5#-.wav
329,192,40051,1,0,0:0:0:70:5#+.wav
402,192,40128,1,0,0:0:0:70:3+.wav
36,192,40206,1,0,0:0:0:70:L3--.wav
475,192,40206,1,0,0:0:0:70:7+.wav
329,192,40283,1,0,0:0:0:70:5#+.wav
402,192,40360,1,0,0:0:0:70:3+.wav
182,192,40360,1,0,0:0:0:70:L5#-.wav
109,192,40360,1,0,0:0:0:70:L3-.wav
475,192,40438,1,0,0:0:0:70:7+.wav
36,192,40515,1,0,0:0:0:70:L3--.wav
329,192,40515,1,0,0:0:0:70:5#+.wav
402,192,40592,1,0,0:0:0:70:3+.wav
475,192,40670,1,0,0:0:0:70:7+.wav
109,192,40670,1,0,0:0:0:70:L3-.wav
182,192,40670,1,0,0:0:0:70:L5#-.wav
329,192,40747,1,0,0:0:0:70:5#+.wav
475,192,40824,1,0,0:0:0:70:6+.wav
36,192,40824,1,0,0:0:0:70:L4--.wav
402,192,40902,1,0,0:0:0:70:4+.wav
329,192,40979,1,0,0:0:0:70:1+.wav
256,192,40979,1,0,0:0:0:70:L6-.wav
109,192,40979,1,0,0:0:0:70:L4-.wav
475,192,41056,1,0,0:0:0:70:6+.wav
402,192,41134,1,0,0:0:0:70:4+.wav
36,192,41134,1,0,0:0:0:70:L4--.wav
329,192,41211,1,0,0:0:0:70:1+.wav
475,192,41288,1,0,0:0:0:70:6+.wav
109,192,41288,1,0,0:0:0:70:L4-.wav
182,192,41288,1,0,0:0:0:70:L6-.wav
402,192,41365,1,0,0:0:0:70:4+.wav
475,192,41443,1,0,0:0:0:70:7+.wav
36,192,41443,1,0,0:0:0:70:L5--.wav
402,192,41520,1,0,0:0:0:70:5+.wav
329,192,41597,1,0,0:0:0:70:2+.wav
256,192,41597,1,0,0:0:0:70:L7-.wav
109,192,41597,1,0,0:0:0:70:L5-.wav
475,192,41675,1,0,0:0:0:70:7+.wav
402,192,41752,1,0,0:0:0:70:5+.wav
36,192,41752,1,0,0:0:0:70:L5--.wav
329,192,41829,1,0,0:0:0:70:2+.wav
475,192,41907,1,0,0:0:0:70:7+.wav
109,192,41907,1,0,0:0:0:70:L5-.wav
256,192,41907,1,0,0:0:0:70:L7-.wav
402,192,41984,1,0,0:0:0:70:5+.wav
329,192,42061,1,0,0:0:0:70:4+.wav
475,192,42061,1,0,0:0:0:70:4++.wav
36,192,42061,1,0,0:0:0:70:L4-.wav
182,192,42061,1,0,0:0:0:50:4.wav
256,192,42293,1,0,0:0:0:70:4#+.wav
402,192,42293,1,0,0:0:0:70:4#++.wav
36,192,42293,1,0,0:0:0:70:L4#-.wav
109,192,42293,1,0,0:0:0:70:L4#.wav
256,192,42525,1,0,0:0:0:70:5+.wav
475,192,42525,1,0,0:0:0:70:5++.wav
109,192,42525,1,0,0:0:0:70:L5-.wav
36,192,42525,1,0,0:0:0:50:5.wav
329,192,42680,1,0,0:0:0:70:5#+.wav
475,192,42680,1,0,0:0:0:70:5#++.wav
182,192,42680,1,0,0:0:0:50:5#.wav
36,192,42680,1,0,0:0:0:70:L5#-.wav
36,192,42989,1,0,0:0:0:70:L6#-.wav
182,192,42989,1,0,0:0:0:70:4++.wav
475,192,42989,1,0,0:0:0:70:4+++.wav
109,192,42989,1,0,0:0:0:50:1#.wav
402,192,43028,1,0,0:0:0:70:6++.wav
329,192,43067,1,0,0:0:0:70:5++.wav
256,192,43105,1,0,0:0:0:70:4++.wav
182,192,43144,1,0,0:0:0:70:3++.wav
109,192,43182,1,0,0:0:0:70:2++.wav
36,192,43221,1,0,0:0:0:70:1++.wav
475,192,43260,1,0,0:0:0:70:7+.wav
402,192,43298,1,0,0:0:0:70:6+.wav
329,192,43337,1,0,0:0:0:70:5+.wav
256,192,43376,1,0,0:0:0:70:4+.wav
182,192,43414,1,0,0:0:0:70:3+.wav
109,192,43453,1,0,0:0:0:70:2+.wav
36,192,43492,1,0,0:0:0:70:6.wav
329,192,43530,1,0,0:0:0:70:L1#--.wav
109,192,43608,1,0,0:0:0:70:L4-.wav
256,192,43608,1,0,0:0:0:70:L1#-.wav
402,192,43685,1,0,0:0:0:70:2#+.wav
36,192,43762,1,0,0:0:0:70:L1#--.wav
256,192,43917,1,0,0:0:0:70:L4-.wav
109,192,43917,1,0,0:0:0:70:L1#-.wav
475,192,43917,1,0,0:0:0:70:4+.wav
475,192,44072,1,0,0:0:0:70:4+.wav
329,192,44072,1,0,0:0:0:70:6#.wav
36,192,44072,1,0,0:0:0:70:L2#--.wav
475,192,44226,1,0,0:0:0:70:4+.wav
109,192,44226,1,0,0:0:0:70:L2#-.wav
256,192,44226,1,0,0:0:0:70:L5-.wav
36,192,44381,1,0,0:0:0:70:L2#--.wav
402,192,44381,1,0,0:0:0:70:6#+.wav
475,192,44381,1,0,0:0:0:70:4++.wav
475,192,44536,1,0,0:0:0:70:4+.wav
109,192,44536,1,0,0:0:0:70:L2#-.wav
256,192,44536,1,0,0:0:0:70:L5-.wav
329,192,44690,1,0,0:0:0:70:6#.wav
402,192,44690,1,0,0:0:0:70:2#+.wav
36,192,44690,1,0,0:0:0:70:L1--.wav
182,192,44845,1,0,0:0:0:70:L2#-.wav
109,192,44845,1,0,0:0:0:70:L1-.wav
475,192,44922,1,0,0:0:0:70:4+.wav
36,192,45000,1,0,0:0:0:70:L1--.wav
109,192,45154,1,0,0:0:0:70:L1-.wav
329,192,45154,1,0,0:0:0:70:5+.wav
182,192,45154,1,0,0:0:0:70:L2#-.wav
256,192,45309,1,0,0:0:0:70:4+.wav
402,192,45309,1,0,0:0:0:70:5#+.wav
36,192,45309,1,0,0:0:0:70:L4--.wav
475,192,45463,1,0,0:0:0:70:4++.wav
329,192,45463,1,0,0:0:0:70:5#++.wav
109,192,45463,1,0,0:0:0:70:L4-.wav
182,192,45463,1,0,0:0:0:70:L5#-.wav
36,192,45618,1,0,0:0:0:70:L4--.wav
109,192,45773,1,0,0:0:0:70:L4-.wav
182,192,45773,1,0,0:0:0:70:L5#-.wav
475,192,45773,1,0,0:0:0:70:4++.wav
329,192,45773,1,0,0:0:0:70:5#++.wav
256,192,45927,1,0,0:0:0:70:4++.wav
402,192,45927,1,0,0:0:0:70:1#+.wav
36,192,45927,1,0,0:0:0:70:L1#--.wav
329,192,46082,1,0,0:0:0:70:L4-.wav
182,192,46082,1,0,0:0:0:70:L1#-.wav
475,192,46159,1,0,0:0:0:70:5+.wav
36,192,46237,1,0,0:0:0:70:L1#--.wav
182,192,46391,1,0,0:0:0:70:L4-.wav
109,192,46391,1,0,0:0:0:70:L1#-.wav
475,192,46391,1,0,0:0:0:70:5#+.wav
329,192,46546,1,0,0:0:0:70:5+.wav
402,192,46546,1,0,0:0:0:70:2#+.wav
36,192,46546,1,0,0:0:0:70:L2#--.wav
109,192,46701,1,0,0:0:0:70:L2#-.wav
256,192,46701,1,0,0:0:0:70:L5-.wav
402,192,46778,1,0,0:0:0:70:5#+.wav
36,192,46855,1,0,0:0:0:70:L2#--.wav
475,192,47010,1,0,0:0:0:70:6#+.wav
109,192,47010,1,0,0:0:0:70:L2#-.wav
182,192,47010,1,0,0:0:0:70:L5-.wav
36,192,47164,1,0,0:0:0:70:L5#--.wav
256,192,47164,1,0,0:0:0:70:1+.wav
329,192,47242,1,0,0:0:0:70:2#+.wav
402,192,47319,1,0,0:0:0:70:6#+.wav
182,192,47319,1,0,0:0:0:70:L1.wav
109,192,47319,1,0,0:0:0:70:L5#-.wav
475,192,47396,1,0,0:0:0:70:1++.wav
36,192,47474,1,0,0:0:0:70:L5#--.wav
256,192,47628,1,0,0:0:0:70:L1.wav
109,192,47628,1,0,0:0:0:70:L5#-.wav
36,192,47783,1,0,0:0:0:70:L4#--.wav
109,192,47938,1,0,0:0:0:70:L4#-.wav
182,192,47938,1,0,0:0:0:70:L6#-.wav
329,192,47938,1,0,0:0:0:70:5#++.wav
475,192,47938,1,0,0:0:0:70:1+++.wav
36,192,48092,1,0,0:0:0:70:L4#--.wav
475,192,48092,1,0,0:0:0:70:1+++.wav
329,192,48092,1,0,0:0:0:70:5#++.wav
109,192,48247,1,0,0:0:0:70:L4#-.wav
256,192,48247,1,0,0:0:0:70:L6#-.wav
36,192,48402,1,0,0:0:0:70:L1#--.wav
402,192,48402,1,0,0:0:0:70:5#.wav
329,192,48402,1,0,0:0:0:70:1#+.wav
109,192,48556,1,0,0:0:0:70:L1#-.wav
182,192,48556,1,0,0:0:0:70:L4-.wav
329,192,48634,1,0,0:0:0:70:2#+.wav
36,192,48711,1,0,0:0:0:70:L1#--.wav
182,192,48865,1,0,0:0:0:70:L1#-.wav
256,192,48865,1,0,0:0:0:70:L4-.wav
475,192,48865,1,0,0:0:0:70:4+.wav
475,192,49020,1,0,0:0:0:70:4+.wav
329,192,49020,1,0,0:0:0:70:6#.wav
36,192,49020,1,0,0:0:0:70:L2#--.wav
475,192,49175,1,0,0:0:0:70:4+.wav
109,192,49175,1,0,0:0:0:70:L2#-.wav
256,192,49175,1,0,0:0:0:70:L5-.wav
475,192,49329,1,0,0:0:0:70:4++.wav
402,192,49329,1,0,0:0:0:70:6#+.wav
36,192,49329,1,0,0:0:0:70:L2#--.wav
475,192,49484,1,0,0:0:0:70:4+.wav
109,192,49484,1,0,0:0:0:70:L2#-.wav
256,192,49484,1,0,0:0:0:70:L5-.wav
402,192,49639,1,0,0:0:0:70:3+.wav
329,192,49639,1,0,0:0:0:70:5+.wav
36,192,49639,1,0,0:0:0:70:L1--.wav
182,192,49793,1,0,0:0:0:70:L1-.wav
256,192,49793,1,0,0:0:0:70:L3-.wav
475,192,49871,1,0,0:0:0:70:5#+.wav
36,192,49948,1,0,0:0:0:70:L1--.wav
109,192,50103,1,0,0:0:0:70:L1-.wav
182,192,50103,1,0,0:0:0:70:L3-.wav
329,192,50103,1,0,0:0:0:70:6#+.wav
402,192,50257,1,0,0:0:0:70:5#+.wav
256,192,50257,1,0,0:0:0:70:4+.wav
36,192,50257,1,0,0:0:0:70:L4--.wav
182,192,50412,1,0,0:0:0:70:L5#-.wav
109,192,50412,1,0,0:0:0:70:L4-.wav
475,192,50412,1,0,0:0:0:70:5#++.wav
329,192,50412,1,0,0:0:0:70:4++.wav
36,192,50567,1,0,0:0:0:70:L4--.wav
109,192,50721,1,0,0:0:0:70:L4-.wav
182,192,50721,1,0,0:0:0:70:L5#-.wav
329,192,50721,1,0,0:0:0:70:4++.wav
475,192,50721,1,0,0:0:0:70:5#++.wav
402,192,50876,1,0,0:0:0:70:1#+.wav
256,192,50876,1,0,0:0:0:70:4+.wav
36,192,50876,1,0,0:0:0:70:L1#--.wav
109,192,51030,1,0,0:0:0:70:L1#-.wav
329,192,51030,1,0,0:0:0:70:L4-.wav
475,192,51108,1,0,0:0:0:70:5+.wav
36,192,51185,1,0,0:0:0:70:L1#--.wav
109,192,51340,1,0,0:0:0:70:L1#-.wav
182,192,51340,1,0,0:0:0:70:L4-.wav
475,192,51340,1,0,0:0:0:70:5#+.wav
402,192,51494,1,0,0:0:0:70:2#+.wav
256,192,51494,1,0,0:0:0:70:5+.wav
36,192,51494,1,0,0:0:0:70:L2#--.wav
109,192,51649,1,0,0:0:0:70:L2#-.wav
182,192,51649,1,0,0:0:0:70:L5-.wav
402,192,51726,1,0,0:0:0:70:5#+.wav
36,192,51804,1,0,0:0:0:70:L2#--.wav
475,192,51958,1,0,0:0:0:70:6#+.wav
109,192,51958,1,0,0:0:0:70:L2#-.wav
256,192,51958,1,0,0:0:0:70:L5-.wav
36,192,52113,1,0,0:0:0:70:L5#--.wav
475,192,52113,1,0,0:0:0:70:6#+.wav
256,192,52268,1,0,0:0:0:70:L1.wav
109,192,52268,1,0,0:0:0:70:L5#-.wav
329,192,52268,1,0,0:0:0:70:1+.wav
402,192,52268,1,0,0:0:0:70:5#+.wav
36,192,52422,1,0,0:0:0:70:L5#--.wav
109,192,52577,1,0,0:0:0:70:L5#-.wav
256,192,52577,1,0,0:0:0:70:L1.wav
36,192,52731,1,0,0:0:0:70:L4#--.wav
109,192,52886,1,0,0:0:0:70:L4#-.wav
475,192,52886,1,0,0:0:0:70:1+++.wav
329,192,52886,1,0,0:0:0:70:5#++.wav
182,192,52886,1,0,0:0:0:70:L6#-.wav
36,192,53041,1,0,0:0:0:70:L4#--.wav
475,192,53041,1,0,0:0:0:70:1+++.wav
329,192,53041,1,0,0:0:0:70:5#++.wav
109,192,53195,1,0,0:0:0:70:L4#-.wav
182,192,53195,1,0,0:0:0:70:L6#-.wav
36,192,53350,1,0,0:0:0:70:L1#--.wav
256,192,53350,1,0,0:0:0:70:1#+.wav
402,192,53350,1,0,0:0:0:70:5#.wav
182,192,53505,1,0,0:0:0:70:L4-.wav
109,192,53505,1,0,0:0:0:70:L1#-.wav
329,192,53582,1,0,0:0:0:70:2#+.wav
36,192,53659,1,0,0:0:0:70:L1#--.wav
475,192,53814,1,0,0:0:0:70:4+.wav
256,192,53814,1,0,0:0:0:70:L4-.wav
109,192,53814,1,0,0:0:0:70:L1#-.wav
329,192,53969,1,0,0:0:0:70:6#.wav
475,192,53969,1,0,0:0:0:70:4+.wav
36,192,53969,1,0,0:0:0:70:L2#--.wav
475,192,54123,1,0,0:0:0:70:4+.wav
256,192,54123,1,0,0:0:0:70:L5-.wav
109,192,54123,1,0,0:0:0:70:L2#-.wav
36,192,54278,1,0,0:0:0:70:L2#--.wav
475,192,54278,1,0,0:0:0:70:4++.wav
402,192,54278,1,0,0:0:0:70:6#+.wav
475,192,54432,1,0,0:0:0:70:4+.wav
109,192,54432,1,0,0:0:0:70:L2#-.wav
182,192,54432,1,0,0:0:0:70:L5-.wav
36,192,54587,1,0,0:0:0:70:L1--.wav
256,192,54587,1,0,0:0:0:70:2#+.wav
402,192,54587,1,0,0:0:0:70:6#.wav
329,192,54742,1,0,0:0:0:70:L2#-.wav
182,192,54742,1,0,0:0:0:70:L1-.wav
475,192,54819,1,0,0:0:0:70:5#+.wav
36,192,54896,1,0,0:0:0:70:L1--.wav
329,192,55051,1,0,0:0:0:70:5+.wav
109,192,55051,1,0,0:0:0:70:L1-.wav
182,192,55051,1,0,0:0:0:70:L2#-.wav
402,192,55206,1,0,0:0:0:70:5#+.wav
256,192,55206,1,0,0:0:0:70:4+.wav
36,192,55206,1,0,0:0:0:70:L4--.wav
109,192,55360,1,0,0:0:0:70:L4-.wav
182,192,55360,1,0,0:0:0:70:L5#-.wav
329,192,55360,1,0,0:0:0:70:4++.wav
475,192,55360,1,0,0:0:0:70:5#++.wav
36,192,55515,1,0,0:0:0:70:L4--.wav
109,192,55670,1,0,0:0:0:70:L4-.wav
256,192,55670,1,0,0:0:0:70:L5#-.wav
475,192,55670,1,0,0:0:0:70:5#++.wav
329,192,55670,1,0,0:0:0:70:4++.wav
329,192,55824,1,0,0:0:0:70:4+.wav
475,192,55824,1,0,0:0:0:70:1#+.wav
36,192,55824,1,0,0:0:0:70:L1#--.wav
109,192,55979,1,0,0:0:0:70:L1#-.wav
256,192,55979,1,0,0:0:0:70:L4-.wav
402,192,56056,1,0,0:0:0:70:5+.wav
36,192,56134,1,0,0:0:0:70:L1#--.wav
475,192,56288,1,0,0:0:0:70:5#+.wav
109,192,56288,1,0,0:0:0:70:L1#-.wav
182,192,56288,1,0,0:0:0:70:L4-.wav
402,192,56443,1,0,0:0:0:70:2#+.wav
256,192,56443,1,0,0:0:0:70:5+.wav
36,192,56443,1,0,0:0:0:70:L2#--.wav
109,192,56597,1,0,0:0:0:70:L2#-.wav
329,192,56597,1,0,0:0:0:70:L5-.wav
475,192,56675,1,0,0:0:0:70:5#+.wav
36,192,56752,1,0,0:0:0:70:L2#--.wav
402,192,56907,1,0,0:0:0:70:6#+.wav
109,192,56907,1,0,0:0:0:70:L2#-.wav
182,192,56907,1,0,0:0:0:70:L5-.wav
256,192,56984,1,0,0:0:0:70:1+.wav
36,192,57061,1,0,0:0:0:70:L5#--.wav
329,192,57061,1,0,0:0:0:70:2#+.wav
402,192,57139,1,0,0:0:0:70:5#+.wav
475,192,57216,1,0,0:0:0:70:1++.wav
256,192,57216,1,0,0:0:0:70:L1.wav
109,192,57216,1,0,0:0:0:70:L5#-.wav
36,192,57371,1,0,0:0:0:70:L5#--.wav
256,192,57525,1,0,0:0:0:70:L1.wav
109,192,57525,1,0,0:0:0:70:L5#-.wav
36,192,57680,1,0,0:0:0:70:L4--.wav
182,192,57835,1,0,0:0:0:70:L6#-.wav
109,192,57835,1,0,0:0:0:70:L4#-.wav
329,192,57835,1,0,0:0:0:70:1+++.wav
475,192,57835,1,0,0:0:0:70:5#++.wav
36,192,57989,1,0,0:0:0:70:L4--.wav
329,192,57989,1,0,0:0:0:70:1+++.wav
475,192,57989,1,0,0:0:0:70:5#++.wav
182,192,58144,1,0,0:0:0:70:L6#-.wav
109,192,58144,1,0,0:0:0:70:L4#-.wav
256,192,58298,1,0,0:0:0:70:1#+.wav
402,192,58298,1,0,0:0:0:70:5#.wav
36,192,58298,1,0,0:0:0:70:L1#--.wav
109,192,58453,1,0,0:0:0:70:L1#-.wav
182,192,58453,1,0,0:0:0:70:L4-.wav
329,192,58530,1,0,0:0:0:70:2#+.wav
36,192,58608,1,0,0:0:0:70:L1#--.wav
475,192,58762,1,0,0:0:0:70:4+.wav
256,192,58762,1,0,0:0:0:70:L4-.wav
109,192,58762,1,0,0:0:0:70:L1#-.wav
475,192,58917,1,0,0:0:0:70:4+.wav
36,192,58917,1,0,0:0:0:70:L2#--.wav
475,192,59072,1,0,0:0:0:70:4+.wav
109,192,59072,1,0,0:0:0:70:L2#-.wav
256,192,59072,1,0,0:0:0:70:L5-.wav
475,192,59226,1,0,0:0:0:70:4++.wav
329,192,59226,1,0,0:0:0:70:6#+.wav
36,192,59226,1,0,0:0:0:70:L2#--.wav
475,192,59381,1,0,0:0:0:70:4+.wav
182,192,59381,1,0,0:0:0:70:L5-.wav
109,192,59381,1,0,0:0:0:70:L2#-.wav
256,192,59536,1,0,0:0:0:70:3+.wav
402,192,59536,1,0,0:0:0:70:5+.wav
36,192,59536,1,0,0:0:0:70:L1--.wav
109,192,59690,1,0,0:0:0:70:L1-.wav
182,192,59690,1,0,0:0:0:70:L3-.wav
329,192,59768,1,0,0:0:0:70:5#+.wav
36,192,59845,1,0,0:0:0:70:L1--.wav
475,192,60000,1,0,0:0:0:70:6#+.wav
256,192,60000,1,0,0:0:0:70:L3-.wav
109,192,60000,1,0,0:0:0:70:L1-.wav
182,192,60154,1,0,0:0:0:70:4+.wav
402,192,60154,1,0,0:0:0:70:5#+.wav
36,192,60154,1,0,0:0:0:70:L4--.wav
329,192,60309,1,0,0:0:0:70:4++.wav
475,192,60309,1,0,0:0:0:70:5#++.wav
256,192,60309,1,0,0:0:0:70:L5#-.wav
109,192,60309,1,0,0:0:0:70:L4-.wav
36,192,60463,1,0,0:0:0:70:L4--.wav
475,192,60618,1,0,0:0:0:70:5#++.wav
329,192,60618,1,0,0:0:0:70:4++.wav
109,192,60618,1,0,0:0:0:70:L4-.wav
182,192,60618,1,0,0:0:0:70:L5#-.wav
256,192,60773,1,0,0:0:0:70:4+.wav
402,192,60773,1,0,0:0:0:70:1#+.wav
36,192,60773,1,0,0:0:0:70:L1#--.wav
329,192,60927,1,0,0:0:0:70:L4-.wav
109,192,60927,1,0,0:0:0:70:L1#-.wav
475,192,61005,1,0,0:0:0:70:5+.wav
36,192,61082,1,0,0:0:0:70:L1#--.wav
475,192,61237,1,0,0:0:0:70:5#+.wav
109,192,61237,1,0,0:0:0:70:L1#-.wav
182,192,61237,1,0,0:0:0:70:L4-.wav
256,192,61391,1,0,0:0:0:70:2#+.wav
402,192,61391,1,0,0:0:0:70:5+.wav
36,192,61391,1,0,0:0:0:70:L2#--.wav
109,192,61546,1,0,0:0:0:70:L2#-.wav
329,192,61546,1,0,0:0:0:70:L5-.wav
475,192,61623,1,0,0:0:0:70:5#+.wav
36,192,61701,1,0,0:0:0:70:L2#--.wav
329,192,61855,1,0,0:0:0:70:6#+.wav
182,192,61855,1,0,0:0:0:70:L5-.wav
109,192,61855,1,0,0:0:0:70:L2#-.wav
329,192,62010,1,0,0:0:0:70:6#+.wav
36,192,62010,1,0,0:0:0:70:L5#--.wav
475,192,62164,1,0,0:0:0:70:5#+.wav
402,192,62164,1,0,0:0:0:70:1+.wav
109,192,62164,1,0,0:0:0:70:L5#-.wav
256,192,62164,1,0,0:0:0:70:L1.wav
36,192,62319,1,0,0:0:0:70:L5#--.wav
109,192,62474,1,0,0:0:0:70:L5#-.wav
329,192,62474,1,0,0:0:0:70:L1.wav
36,192,62628,1,0,0:0:0:70:L5#--.wav
109,192,62783,1,0,0:0:0:70:L5#-.wav
329,192,62783,1,0,0:0:0:70:L1.wav
36,192,62938,1,0,0:0:0:70:L5#--.wav
109,192,63092,1,0,0:0:0:70:L5#-.wav
256,192,63092,1,0,0:0:0:70:L1.wav
475,192,63247,5,0,0:0:0:70:1+.wav
36,192,63247,1,0,0:0:0:70:L6--.wav
329,192,63247,1,0,0:0:0:70:6.wav
402,192,63247,1,0,0:0:0:70:3.wav
182,192,63402,1,0,0:0:0:70:L6-.wav
36,192,63556,1,0,0:0:0:70:L6--.wav
182,192,63711,1,0,0:0:0:70:L6-.wav
475,192,63865,5,0,0:0:0:70:7.wav
36,192,63865,1,0,0:0:0:70:L5--.wav
256,192,63865,1,0,0:0:0:70:5.wav
402,192,63865,1,0,0:0:0:70:2.wav
109,192,64020,1,0,0:0:0:70:L5-.wav
36,192,64175,1,0,0:0:0:70:L5--.wav
109,192,64329,1,0,0:0:0:70:L5-.wav
475,192,64484,1,0,0:0:0:70:4.wav
329,192,64484,1,0,0:0:0:70:6.wav
36,192,64484,1,0,0:0:0:70:L4--.wav
256,192,64484,1,0,0:0:0:70:1.wav
182,192,64639,1,0,0:0:0:70:L4-.wav
36,192,64793,1,0,0:0:0:70:L4--.wav
182,192,64948,1,0,0:0:0:70:L4-.wav
329,192,65103,5,0,0:0:0:70:7-.wav
402,192,65103,1,0,0:0:0:70:3.wav
256,192,65103,1,0,0:0:0:70:5#.wav
36,192,65103,1,0,0:0:0:70:L3--.wav
109,192,65257,1,0,0:0:0:70:L3-.wav
36,192,65412,1,0,0:0:0:70:L3--.wav
402,192,65567,5,0,0:0:0:70:7.wav
109,192,65567,1,0,0:0:0:70:L3-.wav
475,192,65721,1,0,0:0:0:70:1+.wav
36,192,65721,1,0,0:0:0:70:L6--.wav
182,192,65876,1,0,0:0:0:70:L6-.wav
329,192,65876,1,0,0:0:0:70:6.wav
36,192,66030,1,0,0:0:0:70:L6--.wav
256,192,66030,1,0,0:0:0:70:3.wav
182,192,66185,1,0,0:0:0:70:L6-.wav
475,192,66185,1,0,0:0:0:70:1+.wav
402,192,66340,5,0,0:0:0:70:7.wav
36,192,66340,1,0,0:0:0:70:L5--.wav
109,192,66494,1,0,0:0:0:70:L5-.wav
329,192,66494,1,0,0:0:0:70:5.wav
36,192,66649,1,0,0:0:0:70:L5--.wav
256,192,66649,1,0,0:0:0:70:2.wav
475,192,66804,5,0,0:0:0:70:7.wav
109,192,66804,1,0,0:0:0:70:L5-.wav
36,192,66958,1,0,0:0:0:70:L4--.wav
402,192,66958,1,0,0:0:0:70:6.wav
329,192,67113,1,0,0:0:0:70:4.wav
182,192,67113,1,0,0:0:0:70:L4-.wav
256,192,67268,1,0,0:0:0:70:1.wav
36,192,67268,1,0,0:0:0:70:L4--.wav
182,192,67422,1,0,0:0:0:70:L4-.wav
329,192,67422,1,0,0:0:0:70:6.wav
402,192,67577,5,0,0:0:0:70:7-.wav
475,192,67577,1,0,0:0:0:70:3.wav
36,192,67577,1,0,0:0:0:70:L3--.wav
256,192,67577,1,0,0:0:0:70:5#.wav
109,192,67731,1,0,0:0:0:70:L3-.wav
36,192,67886,1,0,0:0:0:70:L3--.wav
109,192,68041,1,0,0:0:0:70:L3-.wav
36,192,68195,1,0,0:0:0:70:L6--.wav
402,192,68195,1,0,0:0:0:70:1+.wav
329,192,68273,1,0,0:0:0:70:6.wav
109,192,68350,1,0,0:0:0:70:L6-.wav
256,192,68350,1,0,0:0:0:70:3.wav
475,192,68427,1,0,0:0:0:70:1+.wav
402,192,68505,5,0,0:0:0:70:7.wav
36,192,68505,1,0,0:0:0:70:L5--.wav
329,192,68582,1,0,0:0:0:70:5.wav
109,192,68659,1,0,0:0:0:70:L5-.wav
256,192,68659,1,0,0:0:0:70:2.wav
475,192,68737,5,0,0:0:0:70:7.wav
402,192,68814,1,0,0:0:0:70:6.wav
36,192,68814,1,0,0:0:0:70:L4--.wav
329,192,68891,1,0,0:0:0:70:4.wav
256,192,68969,1,0,0:0:0:70:1.wav
109,192,68969,1,0,0:0:0:70:L4-.wav
402,192,69046,1,0,0:0:0:70:6.wav
329,192,69123,1,0,0:0:0:70:5#.wav
36,192,69123,1,0,0:0:0:70:L3--.wav
256,192,69201,1,0,0:0:0:70:3.wav
182,192,69278,5,0,0:0:0:70:7-.wav
109,192,69278,1,0,0:0:0:70:L3-.wav
329,192,69355,1,0,0:0:0:70:5#.wav
475,192,69432,1,0,0:0:0:70:1+.wav
36,192,69432,1,0,0:0:0:70:L6--.wav
402,192,69510,1,0,0:0:0:70:6.wav
182,192,69587,1,0,0:0:0:70:L6-.wav
256,192,69587,1,0,0:0:0:70:3.wav
475,192,69664,1,0,0:0:0:70:1+.wav
402,192,69742,5,0,0:0:0:70:7.wav
36,192,69742,1,0,0:0:0:70:L5--.wav
329,192,69819,1,0,0:0:0:70:5.wav
109,192,69896,1,0,0:0:0:70:L5-.wav
256,192,69896,1,0,0:0:0:70:2.wav
402,192,69974,5,0,0:0:0:70:7.wav
329,192,70051,1,0,0:0:0:70:6.wav
36,192,70051,1,0,0:0:0:70:L4--.wav
256,192,70128,1,0,0:0:0:70:4.wav
109,192,70206,1,0,0:0:0:70:L4-.wav
182,192,70206,1,0,0:0:0:70:1.wav
402,192,70283,1,0,0:0:0:70:6.wav
36,192,70360,1,0,0:0:0:70:L3--.wav
329,192,70360,1,0,0:0:0:70:5#.wav
256,192,70438,1,0,0:0:0:70:3.wav
182,192,70515,5,0,0:0:0:70:7-.wav
109,192,70515,1,0,0:0:0:70:L3-.wav
329,192,70592,1,0,0:0:0:70:5#.wav
475,192,70670,1,0,0:0:0:70:1+.wav
36,192,70670,1,0,0:0:0:70:L6--.wav
402,192,70747,1,0,0:0:0:70:6.wav
109,192,70824,1,0,0:0:0:70:L6-.wav
256,192,70824,1,0,0:0:0:70:3.wav
475,192,70902,1,0,0:0:0:70:1+.wav
402,192,70979,5,0,0:0:0:70:7.wav
36,192,70979,1,0,0:0:0:70:L5--.wav
329,192,71056,1,0,0:0:0:70:5.wav
109,192,71134,1,0,0:0:0:70:L5-.wav
256,192,71134,1,0,0:0:0:70:2.wav
402,192,71211,5,0,0:0:0:70:7.wav
36,192,71288,1,0,0:0:0:70:L4--.wav
329,192,71288,1,0,0:0:0:70:6.wav
256,192,71365,1,0,0:0:0:70:4.wav
182,192,71443,1,0,0:0:0:70:1.wav
109,192,71443,1,0,0:0:0:70:L4-.wav
402,192,71520,1,0,0:0:0:70:6.wav
36,192,71597,1,0,0:0:0:70:L3--.wav
329,192,71597,1,0,0:0:0:70:5#.wav
256,192,71675,1,0,0:0:0:70:3.wav
182,192,71752,5,0,0:0:0:70:7-.wav
109,192,71752,1,0,0:0:0:70:L3-.wav
402,192,71829,1,0,0:0:0:70:5#.wav
475,192,71907,1,0,0:0:0:70:1+.wav
36,192,71907,1,0,0:0:0:70:L6--.wav
402,192,71984,1,0,0:0:0:70:6.wav
182,192,72061,1,0,0:0:0:70:L6-.wav
256,192,72061,1,0,0:0:0:70:3.wav
475,192,72139,1,0,0:0:0:70:1+.wav
402,192,72216,5,0,0:0:0:70:7.wav
36,192,72216,1,0,0:0:0:70:L5--.wav
329,192,72293,1,0,0:0:0:70:5.wav
182,192,72371,1,0,0:0:0:70:L5-.wav
256,192,72371,1,0,0:0:0:70:2.wav
402,192,72448,5,0,0:0:0:70:7.wav
329,192,72525,1,0,0:0:0:70:6.wav
36,192,72525,1,0,0:0:0:70:L4--.wav
256,192,72603,1,0,0:0:0:70:4.wav
182,192,72680,1,0,0:0:0:70:1.wav
109,192,72680,1,0,0:0:0:70:L4-.wav
475,192,72757,1,0,0:0:0:70:6.wav
36,192,72835,1,0,0:0:0:70:L3--.wav
402,192,72835,1,0,0:0:0:70:5#.wav
329,192,72912,1,0,0:0:0:70:3.wav
256,192,72989,5,0,0:0:0:70:7-.wav
109,192,72989,1,0,0:0:0:70:L3-.wav
329,192,73067,1,0,0:0:0:70:5#.wav
182,192,73144,1,0,0:0:0:70:6.wav
402,192,73144,1,0,0:0:0:70:1+.wav
36,192,73144,1,0,0:0:0:70:L6--.wav
475,192,73144,1,0,0:0:0:70:3+.wav
256,192,73298,1,0,0:0:0:70:L1.wav
109,192,73298,1,0,0:0:0:70:L6-.wav
36,192,73453,1,0,0:0:0:70:L6--.wav
475,192,73608,1,0,0:0:0:70:3+.wav
329,192,73608,1,0,0:0:0:70:5+.wav
109,192,73608,1,0,0:0:0:70:L6-.wav
182,192,73608,1,0,0:0:0:70:L1.wav
36,192,73762,1,0,0:0:0:70:L4--.wav
475,192,73762,1,0,0:0:0:70:4+.wav
402,192,73762,1,0,0:0:0:70:6+.wav
256,192,73917,1,0,0:0:0:70:L4-.wav
109,192,73917,1,0,0:0:0:70:L6-.wav
36,192,74072,1,0,0:0:0:70:L4--.wav
475,192,74226,1,0,0:0:0:70:7+.wav
182,192,74226,1,0,0:0:0:70:L4-.wav
109,192,74226,1,0,0:0:0:70:L6-.wav
36,192,74381,1,0,0:0:0:70:L5--.wav
329,192,74381,1,0,0:0:0:70:2+.wav
475,192,74381,1,0,0:0:0:70:7+.wav
256,192,74536,1,0,0:0:0:70:L7-.wav
109,192,74536,1,0,0:0:0:70:L5-.wav
329,192,74613,1,0,0:0:0:70:2+.wav
402,192,74613,1,0,0:0:0:70:5+.wav
36,192,74690,1,0,0:0:0:70:L5--.wav
109,192,74845,1,0,0:0:0:70:L5-.wav
182,192,74845,1,0,0:0:0:70:L7-.wav
475,192,74845,1,0,0:0:0:70:6+.wav
329,192,74845,1,0,0:0:0:70:2+.wav
36,192,75000,1,0,0:0:0:70:L1-.wav
402,192,75000,1,0,0:0:0:70:3+.wav
256,192,75000,1,0,0:0:0:70:1+.wav
109,192,75154,1,0,0:0:0:70:L3.wav
182,192,75154,1,0,0:0:0:70:L1.wav
329,192,75309,1,0,0:0:0:70:1+.wav
256,192,75309,1,0,0:0:0:70:6.wav
36,192,75309,1,0,0:0:0:70:L1-.wav
402,192,75463,1,0,0:0:0:70:2+.wav
256,192,75463,1,0,0:0:0:70:6.wav
109,192,75463,1,0,0:0:0:70:L3.wav
182,192,75463,1,0,0:0:0:70:L1.wav
329,192,75618,1,0,0:0:0:70:1+.wav
36,192,75618,1,0,0:0:0:70:L2--.wav
475,192,75618,1,0,0:0:0:70:3+.wav
256,192,75618,1,0,0:0:0:70:6.wav
182,192,75773,1,0,0:0:0:70:L4-.wav
109,192,75773,1,0,0:0:0:70:L2-.wav
36,192,75927,1,0,0:0:0:70:L2--.wav
256,192,76082,1,0,0:0:0:70:L4-.wav
109,192,76082,1,0,0:0:0:70:L2-.wav
475,192,76082,1,0,0:0:0:70:5+.wav
329,192,76159,1,0,0:0:0:70:1#+.wav
36,192,76237,1,0,0:0:0:70:L3--.wav
402,192,76237,1,0,0:0:0:70:2+.wav
182,192,76237,1,0,0:0:0:70:5.wav
109,192,76391,1,0,0:0:0:70:L3-.wav
256,192,76391,1,0,0:0:0:70:L5-.wav
475,192,76469,1,0,0:0:0:70:7.wav
329,192,76469,1,0,0:0:0:70:5.wav
36,192,76546,1,0,0:0:0:70:L3--.wav
109,192,76701,1,0,0:0:0:70:L3-.wav
329,192,76701,1,0,0:0:0:70:5.wav
182,192,76701,1,0,0:0:0:70:L5-.wav
402,192,76855,1,0,0:0:0:70:6.wav
36,192,76855,1,0,0:0:0:70:L4--.wav
256,192,77010,1,0,0:0:0:70:L4-.wav
109,192,77010,1,0,0:0:0:70:L6-.wav
36,192,77164,1,0,0:0:0:70:L4--.wav
182,192,77319,1,0,0:0:0:70:L4-.wav
402,192,77319,1,0,0:0:0:70:3+.wav
109,192,77319,1,0,0:0:0:70:L6-.wav
36,192,77474,1,0,0:0:0:70:L4--.wav
475,192,77474,1,0,0:0:0:70:1++.wav
402,192,77551,1,0,0:0:0:70:7+.wav
109,192,77628,1,0,0:0:0:70:L6-.wav
182,192,77628,1,0,0:0:0:70:L4-.wav
329,192,77628,1,0,0:0:0:70:5+.wav
402,192,77706,1,0,0:0:0:70:3+.wav
36,192,77783,1,0,0:0:0:70:L4--.wav
402,192,77783,1,0,0:0:0:70:3+.wav
182,192,77938,1,0,0:0:0:70:L4-.wav
329,192,77938,1,0,0:0:0:70:5+.wav
109,192,77938,1,0,0:0:0:70:L6-.wav
36,192,78092,1,0,0:0:0:70:L4--.wav
256,192,78092,1,0,0:0:0:70:1+.wav
475,192,78092,1,0,0:0:0:70:6+.wav
402,192,78092,1,0,0:0:0:70:4+.wav
329,192,78247,1,0,0:0:0:70:L4-.wav
109,192,78247,1,0,0:0:0:70:L6-.wav
36,192,78402,1,0,0:0:0:70:L4--.wav
402,192,78556,1,0,0:0:0:70:5+.wav
109,192,78556,1,0,0:0:0:70:L6-.wav
256,192,78556,1,0,0:0:0:70:L4-.wav
329,192,78634,1,0,0:0:0:70:6+.wav
402,192,78711,1,0,0:0:0:70:2+.wav
475,192,78711,1,0,0:0:0:70:1++.wav
36,192,78711,1,0,0:0:0:70:L5--.wav
256,192,78711,1,0,0:0:0:70:7+.wav
182,192,78865,1,0,0:0:0:70:L7-.wav
109,192,78865,1,0,0:0:0:70:L5-.wav
475,192,78943,1,0,0:0:0:70:7+.wav
329,192,78943,1,0,0:0:0:70:1+.wav
36,192,79020,1,0,0:0:0:70:L5--.wav
402,192,79175,1,0,0:0:0:70:5+.wav
329,192,79175,1,0,0:0:0:70:2+.wav
256,192,79175,1,0,0:0:0:70:L7-.wav
109,192,79175,1,0,0:0:0:70:L5-.wav
475,192,79329,1,0,0:0:0:70:5#+.wav
182,192,79329,1,0,0:0:0:70:7.wav
36,192,79329,1,0,0:0:0:70:L3--.wav
109,192,79484,1,0,0:0:0:70:L3-.wav
256,192,79484,1,0,0:0:0:70:L5#-.wav
329,192,79561,1,0,0:0:0:70:7.wav
475,192,79561,1,0,0:0:0:70:4+.wav
36,192,79639,1,0,0:0:0:70:L3--.wav
182,192,79793,1,0,0:0:0:70:L5#-.wav
329,192,79793,1,0,0:0:0:70:7.wav
402,192,79793,1,0,0:0:0:70:3+.wav
109,192,79793,1,0,0:0:0:70:L3-.wav
256,192,79948,1,0,0:0:0:70:5#.wav
402,192,79948,1,0,0:0:0:70:3+.wav
36,192,79948,1,0,0:0:0:70:L3--.wav
109,192,80103,1,0,0:0:0:70:L3-.wav
182,192,80103,1,0,0:0:0:70:L5#-.wav
475,192,80180,1,0,0:0:0:70:1+.wav
329,192,80180,1,0,0:0:0:70:5#.wav
36,192,80257,1,0,0:0:0:70:L3--.wav
109,192,80412,1,0,0:0:0:70:L3-.wav
182,192,80412,1,0,0:0:0:70:L5#-.wav
256,192,80412,1,0,0:0:0:70:7.wav
402,192,80412,1,0,0:0:0:70:5#.wav
36,192,80567,1,0,0:0:0:70:L4--.wav
329,192,80567,1,0,0:0:0:70:4.wav
182,192,80567,1,0,0:0:0:70:6.wav
109,192,80721,1,0,0:0:0:70:L4-.wav
256,192,80721,1,0,0:0:0:70:L6-.wav
475,192,80876,1,0,0:0:0:70:3+.wav
36,192,80876,1,0,0:0:0:70:L4--.wav
256,192,81030,1,0,0:0:0:70:L6-.wav
109,192,81030,1,0,0:0:0:70:L4-.wav
329,192,81108,1,0,0:0:0:70:1#+.wav
36,192,81185,1,0,0:0:0:70:L5--.wav
256,192,81185,1,0,0:0:0:70:7.wav
402,192,81185,1,0,0:0:0:70:2+.wav
182,192,81340,1,0,0:0:0:70:L7-.wav
109,192,81340,1,0,0:0:0:70:L5-.wav
329,192,81417,1,0,0:0:0:70:3+.wav
256,192,81417,1,0,0:0:0:70:7.wav
36,192,81494,1,0,0:0:0:70:L5--.wav
402,192,81649,1,0,0:0:0:70:5+.wav
256,192,81649,1,0,0:0:0:70:7.wav
109,192,81649,1,0,0:0:0:70:L5-.wav
182,192,81649,1,0,0:0:0:70:L7-.wav
329,192,81804,1,0,0:0:0:70:1+.wav
475,192,81804,1,0,0:0:0:70:6+.wav
36,192,81804,1,0,0:0:0:70:L6--.wav
182,192,81958,1,0,0:0:0:70:L1.wav
109,192,81958,1,0,0:0:0:70:L6-.wav
402,192,81958,1,0,0:0:0:70:3+.wav
36,192,82113,1,0,0:0:0:70:L6--.wav
475,192,82113,1,0,0:0:0:70:7+.wav
256,192,82113,1,0,0:0:0:70:1+.wav
182,192,82268,1,0,0:0:0:70:L1.wav
109,192,82268,1,0,0:0:0:70:L6-.wav
329,192,82268,1,0,0:0:0:70:3+.wav
402,192,82422,1,0,0:0:0:70:1++.wav
256,192,82422,1,0,0:0:0:70:1+.wav
36,192,82422,1,0,0:0:0:70:L6--.wav
329,192,82577,1,0,0:0:0:70:2++.wav
475,192,82577,1,0,0:0:0:70:3++.wav
329,192,82731,1,0,0:0:0:70:2++.wav
475,192,82731,1,0,0:0:0:70:3++.wav
36,192,83041,1,0,0:0:0:70:L6--.wav
256,192,83041,1,0,0:0:0:70:1+.wav
402,192,83041,1,0,0:0:0:70:3+.wav
182,192,83195,1,0,0:0:0:70:L1.wav
109,192,83195,1,0,0:0:0:70:L6-.wav
36,192,83350,1,0,0:0:0:70:L6--.wav
402,192,83505,1,0,0:0:0:70:5+.wav
256,192,83505,1,0,0:0:0:70:3+.wav
182,192,83505,1,0,0:0:0:70:L1.wav
109,192,83505,1,0,0:0:0:70:L6-.wav
36,192,83659,1,0,0:0:0:70:L4--.wav
329,192,83659,1,0,0:0:0:70:4+.wav
475,192,83659,1,0,0:0:0:70:6+.wav
109,192,83814,1,0,0:0:0:70:L6-.wav
256,192,83814,1,0,0:0:0:70:L4-.wav
36,192,83969,1,0,0:0:0:70:L4--.wav
475,192,84123,1,0,0:0:0:70:7+.wav
109,192,84123,1,0,0:0:0:70:L6-.wav
256,192,84123,1,0,0:0:0:70:L4-.wav
36,192,84278,1,0,0:0:0:70:L5--.wav
329,192,84278,1,0,0:0:0:70:2+.wav
475,192,84278,1,0,0:0:0:70:7+.wav
109,192,84432,1,0,0:0:0:70:L5-.wav
256,192,84432,1,0,0:0:0:70:L7-.wav
402,192,84510,1,0,0:0:0:70:5+.wav
329,192,84510,1,0,0:0:0:70:2+.wav
36,192,84587,1,0,0:0:0:70:L5--.wav
109,192,84742,1,0,0:0:0:70:L5-.wav
182,192,84742,1,0,0:0:0:70:L7-.wav
475,192,84742,1,0,0:0:0:70:6+.wav
329,192,84742,1,0,0:0:0:70:2+.wav
36,192,84896,1,0,0:0:0:70:L1-.wav
256,192,84896,1,0,0:0:0:70:1+.wav
402,192,84896,1,0,0:0:0:70:3+.wav
109,192,85051,1,0,0:0:0:70:L3.wav
182,192,85051,1,0,0:0:0:70:L1.wav
36,192,85206,1,0,0:0:0:70:L1-.wav
329,192,85206,1,0,0:0:0:70:1+.wav
256,192,85206,1,0,0:0:0:70:6.wav
109,192,85360,1,0,0:0:0:70:L3.wav
182,192,85360,1,0,0:0:0:70:L1.wav
402,192,85360,1,0,0:0:0:70:2+.wav
329,192,85360,1,0,0:0:0:70:6.wav
475,192,85515,1,0,0:0:0:70:6.wav
256,192,85515,1,0,0:0:0:70:1+.wav
402,192,85515,1,0,0:0:0:70:3+.wav
36,192,85515,1,0,0:0:0:70:L2--.wav
182,192,85670,1,0,0:0:0:70:L4-.wav
109,192,85670,1,0,0:0:0:70:L2-.wav
36,192,85824,1,0,0:0:0:70:L2--.wav
256,192,85979,1,0,0:0:0:70:L4-.wav
109,192,85979,1,0,0:0:0:70:L2-.wav
475,192,85979,1,0,0:0:0:70:5+.wav
329,192,86056,1,0,0:0:0:70:1#+.wav
402,192,86134,1,0,0:0:0:70:2+.wav
256,192,86134,1,0,0:0:0:70:5.wav
36,192,86134,1,0,0:0:0:70:L3--.wav
109,192,86288,1,0,0:0:0:70:L3-.wav
182,192,86288,1,0,0:0:0:70:L5-.wav
256,192,86365,1,0,0:0:0:70:7.wav
329,192,86365,1,0,0:0:0:70:5.wav
36,192,86443,1,0,0:0:0:70:L3--.wav
256,192,86597,1,0,0:0:0:70:L5-.wav
402,192,86597,1,0,0:0:0:70:5.wav
109,192,86597,1,0,0:0:0:70:L3-.wav
475,192,86752,1,0,0:0:0:70:6.wav
36,192,86752,1,0,0:0:0:70:L4--.wav
256,192,86907,1,0,0:0:0:70:L4-.wav
182,192,86907,1,0,0:0:0:70:L6-.wav
36,192,87061,1,0,0:0:0:70:L4--.wav
182,192,87216,1,0,0:0:0:70:L4-.wav
109,192,87216,1,0,0:0:0:70:L6-.wav
329,192,87216,1,0,0:0:0:70:3+.wav
475,192,87371,1,0,0:0:0:70:1++.wav
36,192,87371,1,0,0:0:0:70:L4--.wav
402,192,87448,1,0,0:0:0:70:7+.wav
182,192,87525,1,0,0:0:0:70:L4-.wav
109,192,87525,1,0,0:0:0:70:L6-.wav
329,192,87525,1,0,0:0:0:70:5+.wav
402,192,87603,1,0,0:0:0:70:3+.wav
36,192,87680,1,0,0:0:0:70:L4--.wav
402,192,87680,1,0,0:0:0:70:3+.wav
109,192,87835,1,0,0:0:0:70:L6-.wav
329,192,87835,1,0,0:0:0:70:5+.wav
182,192,87835,1,0,0:0:0:70:L4-.wav
256,192,87989,1,0,0:0:0:70:4+.wav
36,192,87989,1,0,0:0:0:70:L4--.wav
475,192,87989,1,0,0:0:0:70:6+.wav
402,192,87989,1,0,0:0:0:70:1+.wav
109,192,88144,1,0,0:0:0:70:L6-.wav
182,192,88144,1,0,0:0:0:70:L4-.wav
36,192,88298,1,0,0:0:0:70:L4--.wav
329,192,88453,1,0,0:0:0:70:5+.wav
109,192,88453,1,0,0:0:0:70:L6-.wav
256,192,88453,1,0,0:0:0:70:L4-.wav
402,192,88530,1,0,0:0:0:70:6+.wav
475,192,88608,1,0,0:0:0:70:1++.wav
329,192,88608,1,0,0:0:0:70:2+.wav
182,192,88608,1,0,0:0:0:70:7+.wav
36,192,88608,1,0,0:0:0:70:L5--.wav
109,192,88762,1,0,0:0:0:70:L5-.wav
256,192,88762,1,0,0:0:0:70:L7-.wav
475,192,88840,1,0,0:0:0:70:7+.wav
329,192,88840,1,0,0:0:0:70:2+.wav
36,192,88917,1,0,0:0:0:70:L5--.wav
109,192,89072,1,0,0:0:0:70:L5-.wav
256,192,89072,1,0,0:0:0:70:L7-.wav
402,192,89072,1,0,0:0:0:70:5+.wav
329,192,89072,1,0,0:0:0:70:2+.wav
329,192,89226,1,0,0:0:0:70:5#+.wav
36,192,89226,1,0,0:0:0:70:L3--.wav
475,192,89226,1,0,0:0:0:70:7.wav
182,192,89381,1,0,0:0:0:70:L5#-.wav
109,192,89381,1,0,0:0:0:70:L3-.wav
256,192,89458,1,0,0:0:0:70:7.wav
402,192,89458,1,0,0:0:0:70:4+.wav
36,192,89536,1,0,0:0:0:70:L3--.wav
109,192,89690,1,0,0:0:0:70:L3-.wav
329,192,89690,1,0,0:0:0:70:7.wav
402,192,89690,1,0,0:0:0:70:3+.wav
182,192,89690,1,0,0:0:0:70:L5#-.wav
256,192,89845,1,0,0:0:0:70:5#.wav
36,192,89845,1,0,0:0:0:70:L3--.wav
475,192,89845,1,0,0:0:0:70:3+.wav
182,192,90000,1,0,0:0:0:70:L5#-.wav
109,192,90000,1,0,0:0:0:70:L3-.wav
256,192,90077,1,0,0:0:0:70:5#.wav
402,192,90077,1,0,0:0:0:70:1+.wav
36,192,90154,1,0,0:0:0:70:L3--.wav
329,192,90309,1,0,0:0:0:70:5#.wav
256,192,90309,1,0,0:0:0:70:7.wav
109,192,90309,1,0,0:0:0:70:L3-.wav
182,192,90309,1,0,0:0:0:70:L5#-.wav
329,192,90463,1,0,0:0:0:70:6.wav
36,192,90463,1,0,0:0:0:70:L4--.wav
402,192,90463,1,0,0:0:0:70:4.wav
256,192,90618,1,0,0:0:0:70:L6-.wav
109,192,90618,1,0,0:0:0:70:L4-.wav
36,192,90773,1,0,0:0:0:70:L4--.wav
475,192,90773,1,0,0:0:0:70:3+.wav
109,192,90927,1,0,0:0:0:70:L4-.wav
256,192,90927,1,0,0:0:0:70:L6-.wav
329,192,91005,1,0,0:0:0:70:1#+.wav
182,192,91082,1,0,0:0:0:70:7.wav
36,192,91082,1,0,0:0:0:70:L5--.wav
402,192,91082,1,0,0:0:0:70:2+.wav
256,192,91237,1,0,0:0:0:70:L7-.wav
109,192,91237,1,0,0:0:0:70:L5-.wav
329,192,91314,1,0,0:0:0:70:7.wav
475,192,91314,1,0,0:0:0:70:3+.wav
36,192,91391,1,0,0:0:0:70:L5--.wav
329,192,91546,1,0,0:0:0:70:7.wav
402,192,91546,1,0,0:0:0:70:5+.wav
182,192,91546,1,0,0:0:0:70:L7-.wav
109,192,91546,1,0,0:0:0:70:L5-.wav
402,192,91701,1,0,0:0:0:70:2+.wav
256,192,91701,1,0,0:0:0:70:3+.wav
36,192,91701,1,0,0:0:0:70:L6--.wav
475,192,91701,1,0,0:0:0:70:6+.wav
109,192,91855,1,0,0:0:0:70:L1-.wav
329,192,91855,1,0,0:0:0:70:L6-.wav
36,192,92010,1,0,0:0:0:70:L6--.wav
109,192,92164,1,0,0:0:0:70:L1-.wav
329,192,92164,1,0,0:0:0:70:L6-.wav
36,192,92319,1,0,0:0:0:70:L6--.wav
256,192,92319,1,0,0:0:0:70:1#+.wav
475,192,92319,1,0,0:0:0:70:3+.wav
109,192,92474,1,0,0:0:0:70:L6-.wav
182,192,92474,1,0,0:0:0:50:1#.wav
36,192,92628,1,0,0:0:0:70:L6--.wav
182,192,92783,1,0,0:0:0:50:1#.wav
109,192,92783,1,0,0:0:0:70:L6-.wav
36,192,92938,1,0,0:0:0:70:L1#--.wav
109,192,93092,1,0,0:0:0:70:L4-.wav
256,192,93092,1,0,0:0:0:70:L1#-.wav
402,192,93170,1,0,0:0:0:70:2#+.wav
36,192,93247,1,0,0:0:0:70:L1#--.wav
256,192,93402,1,0,0:0:0:70:L4-.wav
109,192,93402,1,0,0:0:0:70:L1#-.wav
475,192,93402,1,0,0:0:0:70:4+.wav
329,192,93556,1,0,0:0:0:70:6#.wav
475,192,93556,1,0,0:0:0:70:4+.wav
36,192,93556,1,0,0:0:0:70:L2#--.wav
475,192,93711,1,0,0:0:0:70:4+.wav
256,192,93711,1,0,0:0:0:70:L5-.wav
109,192,93711,1,0,0:0:0:70:L2#-.wav
36,192,93865,1,0,0:0:0:70:L2#--.wav
475,192,93865,1,0,0:0:0:70:4++.wav
402,192,93865,1,0,0:0:0:70:6#+.wav
256,192,94020,1,0,0:0:0:70:L5-.wav
109,192,94020,1,0,0:0:0:70:L2#-.wav
475,192,94020,1,0,0:0:0:70:4+.wav
36,192,94175,1,0,0:0:0:70:L1--.wav
402,192,94175,1,0,0:0:0:70:2#+.wav
329,192,94175,1,0,0:0:0:70:6#.wav
109,192,94329,1,0,0:0:0:70:L1-.wav
182,192,94329,1,0,0:0:0:70:L2#-.wav
475,192,94407,1,0,0:0:0:70:4+.wav
36,192,94484,1,0,0:0:0:70:L1--.wav
182,192,94639,1,0,0:0:0:70:L2#-.wav
109,192,94639,1,0,0:0:0:70:L1-.wav
329,192,94639,1,0,0:0:0:70:5+.wav
256,192,94793,1,0,0:0:0:70:4+.wav
402,192,94793,1,0,0:0:0:70:5#+.wav
36,192,94793,1,0,0:0:0:70:L4--.wav
109,192,94948,1,0,0:0:0:70:L4-.wav
475,192,94948,1,0,0:0:0:70:4++.wav
329,192,94948,1,0,0:0:0:70:5#++.wav
182,192,94948,1,0,0:0:0:70:L5#-.wav
36,192,95103,1,0,0:0:0:70:L4--.wav
475,192,95257,1,0,0:0:0:70:4++.wav
182,192,95257,1,0,0:0:0:70:L5#-.wav
109,192,95257,1,0,0:0:0:70:L4-.wav
329,192,95257,1,0,0:0:0:70:5#++.wav
36,192,95412,1,0,0:0:0:70:L1#--.wav
402,192,95412,1,0,0:0:0:70:1#+.wav
256,192,95412,1,0,0:0:0:70:4++.wav
182,192,95567,1,0,0:0:0:70:L1#-.wav
329,192,95567,1,0,0:0:0:70:L4-.wav
475,192,95644,1,0,0:0:0:70:5+.wav
36,192,95721,1,0,0:0:0:70:L1#--.wav
182,192,95876,1,0,0:0:0:70:L4-.wav
475,192,95876,1,0,0:0:0:70:5#+.wav
109,192,95876,1,0,0:0:0:70:L1#-.wav
36,192,96030,1,0,0:0:0:70:L2#--.wav
402,192,96030,1,0,0:0:0:70:2#+.wav
329,192,96030,1,0,0:0:0:70:5+.wav
256,192,96185,1,0,0:0:0:70:L5-.wav
109,192,96185,1,0,0:0:0:70:L2#-.wav
402,192,96262,1,0,0:0:0:70:5#+.wav
36,192,96340,1,0,0:0:0:70:L2#--.wav
182,192,96494,1,0,0:0:0:70:L5-.wav
109,192,96494,1,0,0:0:0:70:L2#-.wav
475,192,96494,1,0,0:0:0:70:6#+.wav
256,192,96649,1,0,0:0:0:70:1+.wav
36,192,96649,1,0,0:0:0:70:L5#--.wav
329,192,96726,1,0,0:0:0:70:2#+.wav
109,192,96804,1,0,0:0:0:70:L5#-.wav
182,192,96804,1,0,0:0:0:70:L1.wav
402,192,96804,1,0,0:0:0:70:6#+.wav
475,192,96881,1,0,0:0:0:70:1++.wav
36,192,96958,1,0,0:0:0:70:L5#--.wav
109,192,97113,1,0,0:0:0:70:L5#-.wav
256,192,97113,1,0,0:0:0:70:L1.wav
36,192,97268,1,0,0:0:0:70:L4#--.wav
182,192,97422,1,0,0:0:0:70:L6#-.wav
109,192,97422,1,0,0:0:0:70:L4#-.wav
475,192,97422,1,0,0:0:0:70:1+++.wav
329,192,97422,1,0,0:0:0:70:5#++.wav
36,192,97577,1,0,0:0:0:70:L4#--.wav
475,192,97577,1,0,0:0:0:70:1+++.wav
329,192,97577,1,0,0:0:0:70:5#++.wav
256,192,97731,1,0,0:0:0:70:L6#-.wav
109,192,97731,1,0,0:0:0:70:L4#-.wav
36,192,97886,1,0,0:0:0:70:L1#--.wav
329,192,97886,1,0,0:0:0:70:1#+.wav
402,192,97886,1,0,0:0:0:70:5#.wav
182,192,98041,1,0,0:0:0:70:L4-.wav
109,192,98041,1,0,0:0:0:70:L1#-.wav
329,192,98118,1,0,0:0:0:70:2#+.wav
36,192,98195,1,0,0:0:0:70:L1#--.wav
256,192,98350,1,0,0:0:0:70:L4-.wav
182,192,98350,1,0,0:0:0:70:L1#-.wav
475,192,98350,1,0,0:0:0:70:4+.wav
475,192,98505,1,0,0:0:0:70:4+.wav
36,192,98505,1,0,0:0:0:70:L2#--.wav
329,192,98505,1,0,0:0:0:70:6#.wav
109,192,98659,1,0,0:0:0:70:L2#-.wav
475,192,98659,1,0,0:0:0:70:4+.wav
256,192,98659,1,0,0:0:0:70:L5-.wav
475,192,98814,1,0,0:0:0:70:4++.wav
36,192,98814,1,0,0:0:0:70:L2#--.wav
402,192,98814,1,0,0:0:0:70:6#+.wav
109,192,98969,1,0,0:0:0:70:L2#-.wav
256,192,98969,1,0,0:0:0:70:L5-.wav
475,192,98969,1,0,0:0:0:70:4+.wav
402,192,99123,1,0,0:0:0:70:3+.wav
36,192,99123,1,0,0:0:0:70:L1--.wav
329,192,99123,1,0,0:0:0:70:5+.wav
256,192,99278,1,0,0:0:0:70:L3-.wav
182,192,99278,1,0,0:0:0:70:L1-.wav
475,192,99355,1,0,0:0:0:70:5#+.wav
36,192,99432,1,0,0:0:0:70:L1--.wav
109,192,99587,1,0,0:0:0:70:L1-.wav
182,192,99587,1,0,0:0:0:70:L3-.wav
329,192,99587,1,0,0:0:0:70:6#+.wav
256,192,99742,1,0,0:0:0:70:4+.wav
402,192,99742,1,0,0:0:0:70:5#+.wav
36,192,99742,1,0,0:0:0:70:L4--.wav
182,192,99896,1,0,0:0:0:70:L5#-.wav
109,192,99896,1,0,0:0:0:70:L4-.wav
329,192,99896,1,0,0:0:0:70:4++.wav
475,192,99896,1,0,0:0:0:70:5#++.wav
36,192,100051,1,0,0:0:0:70:L4--.wav
329,192,100206,1,0,0:0:0:70:4++.wav
182,192,100206,1,0,0:0:0:70:L5#-.wav
109,192,100206,1,0,0:0:0:70:L4-.wav
475,192,100206,1,0,0:0:0:70:5#++.wav
36,192,100360,1,0,0:0:0:70:L1#--.wav
402,192,100360,1,0,0:0:0:70:1#+.wav
256,192,100360,1,0,0:0:0:70:4+.wav
109,192,100515,1,0,0:0:0:70:L1#-.wav
329,192,100515,1,0,0:0:0:70:L4-.wav
475,192,100592,1,0,0:0:0:70:5+.wav
36,192,100670,1,0,0:0:0:70:L1#--.wav
109,192,100824,1,0,0:0:0:70:L1#-.wav
182,192,100824,1,0,0:0:0:70:L4-.wav
475,192,100824,1,0,0:0:0:70:5#+.wav
402,192,100979,1,0,0:0:0:70:2#+.wav
36,192,100979,1,0,0:0:0:70:L2#--.wav
256,192,100979,1,0,0:0:0:70:5+.wav
182,192,101134,1,0,0:0:0:70:L5-.wav
109,192,101134,1,0,0:0:0:70:L2#-.wav
402,192,101211,1,0,0:0:0:70:5#+.wav
36,192,101288,1,0,0:0:0:70:L2#--.wav
475,192,101443,1,0,0:0:0:70:6#+.wav
256,192,101443,1,0,0:0:0:70:L5-.wav
109,192,101443,1,0,0:0:0:70:L2#-.wav
36,192,101597,1,0,0:0:0:70:L5#--.wav
475,192,101597,1,0,0:0:0:70:6#+.wav
402,192,101752,1,0,0:0:0:70:5#+.wav
256,192,101752,1,0,0:0:0:70:L1.wav
109,192,101752,1,0,0:0:0:70:L5#-.wav
329,192,101752,1,0,0:0:0:70:1+.wav
36,192,101907,1,0,0:0:0:70:L5#--.wav
109,192,102061,1,0,0:0:0:70:L5#-.wav
256,192,102061,1,0,0:0:0:70:L1.wav
36,192,102216,1,0,0:0:0:70:L4#--.wav
109,192,102371,1,0,0:0:0:70:L4#-.wav
182,192,102371,1,0,0:0:0:70:L6#-.wav
475,192,102371,1,0,0:0:0:70:1+++.wav
329,192,102371,1,0,0:0:0:70:5#++.wav
36,192,102525,1,0,0:0:0:70:L4#--.wav
475,192,102525,1,0,0:0:0:70:1+++.wav
329,192,102525,1,0,0:0:0:70:5#++.wav
109,192,102680,1,0,0:0:0:70:L4#-.wav
182,192,102680,1,0,0:0:0:70:L6#-.wav
36,192,102835,1,0,0:0:0:70:L1#--.wav
256,192,102835,1,0,0:0:0:70:1#+.wav
402,192,102835,1,0,0:0:0:70:5#.wav
109,192,102989,1,0,0:0:0:70:L1#-.wav
182,192,102989,1,0,0:0:0:70:L4-.wav
329,192,103067,1,0,0:0:0:70:2#+.wav
36,192,103144,1,0,0:0:0:70:L1#--.wav
475,192,103298,1,0,0:0:0:70:4+.wav
109,192,103298,1,0,0:0:0:70:L1#-.wav
256,192,103298,1,0,0:0:0:70:L4-.wav
329,192,103453,1,0,0:0:0:70:6#.wav
475,192,103453,1,0,0:0:0:70:4+.wav
36,192,103453,1,0,0:0:0:70:L2#--.wav
475,192,103608,1,0,0:0:0:70:4+.wav
109,192,103608,1,0,0:0:0:70:L2#-.wav
256,192,103608,1,0,0:0:0:70:L5-.wav
402,192,103762,1,0,0:0:0:70:6#+.wav
36,192,103762,1,0,0:0:0:70:L2#--.wav
475,192,103762,1,0,0:0:0:70:4++.wav
475,192,103917,1,0,0:0:0:70:4+.wav
182,192,103917,1,0,0:0:0:70:L5-.wav
109,192,103917,1,0,0:0:0:70:L2#-.wav
36,192,104072,1,0,0:0:0:70:L1--.wav
402,192,104072,1,0,0:0:0:70:6#.wav
256,192,104072,1,0,0:0:0:70:2#+.wav
329,192,104226,1,0,0:0:0:70:L2#-.wav
182,192,104226,1,0,0:0:0:70:L1-.wav
475,192,104304,1,0,0:0:0:70:5#+.wav
36,192,104381,1,0,0:0:0:70:L1--.wav
109,192,104536,1,0,0:0:0:70:L1-.wav
329,192,104536,1,0,0:0:0:70:5+.wav
182,192,104536,1,0,0:0:0:70:L2#-.wav
36,192,104690,1,0,0:0:0:70:L4--.wav
402,192,104690,1,0,0:0:0:70:5#+.wav
256,192,104690,1,0,0:0:0:70:4+.wav
109,192,104845,1,0,0:0:0:70:L4-.wav
182,192,104845,1,0,0:0:0:70:L5#-.wav
329,192,104845,1,0,0:0:0:70:4++.wav
475,192,104845,1,0,0:0:0:70:5#++.wav
36,192,105000,1,0,0:0:0:70:L4--.wav
256,192,105154,1,0,0:0:0:70:L5#-.wav
109,192,105154,1,0,0:0:0:70:L4-.wav
475,192,105154,1,0,0:0:0:70:5#++.wav
329,192,105154,1,0,0:0:0:70:4++.wav
475,192,105309,1,0,0:0:0:70:1#+.wav
36,192,105309,1,0,0:0:0:70:L1#--.wav
329,192,105309,1,0,0:0:0:70:4+.wav
256,192,105463,1,0,0:0:0:70:L4-.wav
109,192,105463,1,0,0:0:0:70:L1#-.wav
402,192,105541,1,0,0:0:0:70:5+.wav
36,192,105618,1,0,0:0:0:70:L1#--.wav
182,192,105773,1,0,0:0:0:70:L4-.wav
475,192,105773,1,0,0:0:0:70:5#+.wav
109,192,105773,1,0,0:0:0:70:L1#-.wav
402,192,105927,1,0,0:0:0:70:2#+.wav
256,192,105927,1,0,0:0:0:70:5+.wav
36,192,105927,1,0,0:0:0:70:L2#--.wav
329,192,106082,1,0,0:0:0:70:L5-.wav
109,192,106082,1,0,0:0:0:70:L2#-.wav
475,192,106159,1,0,0:0:0:70:5#+.wav
36,192,106237,1,0,0:0:0:70:L2#--.wav
109,192,106391,1,0,0:0:0:70:L2#-.wav
402,192,106391,1,0,0:0:0:70:6#+.wav
182,192,106391,1,0,0:0:0:70:L5-.wav
256,192,106469,1,0,0:0:0:70:1+.wav
329,192,106546,1,0,0:0:0:70:2#+.wav
36,192,106546,1,0,0:0:0:70:L5#--.wav
402,192,106623,1,0,0:0:0:70:5#+.wav
256,192,106701,1,0,0:0:0:70:L1.wav
475,192,106701,1,0,0:0:0:70:1++.wav
109,192,106701,1,0,0:0:0:70:L5#-.wav
36,192,106855,1,0,0:0:0:70:L5#--.wav
109,192,107010,1,0,0:0:0:70:L5#-.wav
256,192,107010,1,0,0:0:0:70:L1.wav
36,192,107164,1,0,0:0:0:70:L4--.wav
329,192,107319,1,0,0:0:0:70:1+++.wav
475,192,107319,1,0,0:0:0:70:5#++.wav
182,192,107319,1,0,0:0:0:70:L6#-.wav
109,192,107319,1,0,0:0:0:70:L4#-.wav
475,192,107474,1,0,0:0:0:70:5#++.wav
329,192,107474,1,0,0:0:0:70:1+++.wav
36,192,107474,1,0,0:0:0:70:L4--.wav
182,192,107628,1,0,0:0:0:70:L6#-.wav
109,192,107628,1,0,0:0:0:70:L4#-.wav
36,192,107783,1,0,0:0:0:70:L1#--.wav
402,192,107783,1,0,0:0:0:70:5#.wav
256,192,107783,1,0,0:0:0:70:1#+.wav
182,192,107938,1,0,0:0:0:70:L4-.wav
109,192,107938,1,0,0:0:0:70:L1#-.wav
329,192,108015,1,0,0:0:0:70:2#+.wav
36,192,108092,1,0,0:0:0:70:L1#--.wav
475,192,108247,1,0,0:0:0:70:4+.wav
256,192,108247,1,0,0:0:0:70:L4-.wav
109,192,108247,1,0,0:0:0:70:L1#-.wav
475,192,108402,1,0,0:0:0:70:4+.wav
36,192,108402,1,0,0:0:0:70:L2#--.wav
475,192,108556,1,0,0:0:0:70:4+.wav
256,192,108556,1,0,0:0:0:70:L5-.wav
109,192,108556,1,0,0:0:0:70:L2#-.wav
329,192,108711,1,0,0:0:0:70:6#+.wav
36,192,108711,1,0,0:0:0:70:L2#--.wav
475,192,108711,1,0,0:0:0:70:4++.wav
182,192,108865,1,0,0:0:0:70:L5-.wav
109,192,108865,1,0,0:0:0:70:L2#-.wav
475,192,108865,1,0,0:0:0:70:4+.wav
36,192,109020,1,0,0:0:0:70:L1--.wav
256,192,109020,1,0,0:0:0:70:3+.wav
402,192,109020,1,0,0:0:0:70:5+.wav
182,192,109175,1,0,0:0:0:70:L3-.wav
109,192,109175,1,0,0:0:0:70:L1-.wav
329,192,109252,1,0,0:0:0:70:5#+.wav
36,192,109329,1,0,0:0:0:70:L1--.wav
256,192,109484,1,0,0:0:0:70:L3-.wav
475,192,109484,1,0,0:0:0:70:6#+.wav
109,192,109484,1,0,0:0:0:70:L1-.wav
182,192,109639,1,0,0:0:0:70:4+.wav
36,192,109639,1,0,0:0:0:70:L4--.wav
402,192,109639,1,0,0:0:0:70:5#+.wav
256,192,109793,1,0,0:0:0:70:L5#-.wav
329,192,109793,1,0,0:0:0:70:4++.wav
475,192,109793,1,0,0:0:0:70:5#++.wav
109,192,109793,1,0,0:0:0:70:L4-.wav
36,192,109948,1,0,0:0:0:70:L4--.wav
182,192,110103,1,0,0:0:0:70:L5#-.wav
475,192,110103,1,0,0:0:0:70:5#++.wav
329,192,110103,1,0,0:0:0:70:4++.wav
109,192,110103,1,0,0:0:0:70:L4-.wav
402,192,110257,1,0,0:0:0:70:1#+.wav
256,192,110257,1,0,0:0:0:70:4+.wav
36,192,110257,1,0,0:0:0:70:L1#--.wav
109,192,110412,1,0,0:0:0:70:L1#-.wav
329,192,110412,1,0,0:0:0:70:L4-.wav
475,192,110489,1,0,0:0:0:70:5+.wav
36,192,110567,1,0,0:0:0:70:L1#--.wav
475,192,110721,1,0,0:0:0:70:5#+.wav
182,192,110721,1,0,0:0:0:70:L4-.wav
109,192,110721,1,0,0:0:0:70:L1#-.wav
256,192,110876,1,0,0:0:0:70:2#+.wav
36,192,110876,1,0,0:0:0:70:L2#--.wav
402,192,110876,1,0,0:0:0:70:5+.wav
109,192,111030,1,0,0:0:0:70:L2#-.wav
329,192,111030,1,0,0:0:0:70:L5-.wav
475,192,111108,1,0,0:0:0:70:5#+.wav
36,192,111185,1,0,0:0:0:70:L2#--.wav
182,192,111340,1,0,0:0:0:70:L5-.wav
109,192,111340,1,0,0:0:0:70:L2#-.wav
329,192,111340,1,0,0:0:0:70:6#+.wav
329,192,111494,1,0,0:0:0:70:6#+.wav
36,192,111494,1,0,0:0:0:70:L5#--.wav
475,192,111649,1,0,0:0:0:70:5#+.wav
402,192,111649,1,0,0:0:0:70:1+.wav
109,192,111649,1,0,0:0:0:70:L5#-.wav
256,192,111649,1,0,0:0:0:70:L1.wav
36,192,111804,1,0,0:0:0:70:L5#--.wav
109,192,111958,1,0,0:0:0:70:L5#-.wav
329,192,111958,1,0,0:0:0:70:L1.wav
36,192,112113,1,0,0:0:0:70:L5#--.wav
109,192,112268,1,0,0:0:0:70:L5#-.wav
329,192,112268,1,0,0:0:0:70:L1.wav
36,192,112422,1,0,0:0:0:70:L5#--.wav
329,192,112577,1,0,0:0:0:70:L1.wav
109,192,112577,1,0,0:0:0:70:L5#-.wav
475,192,112654,1,0,0:0:0:70:1+.wav
402,192,112731,1,0,0:0:0:70:6.wav
329,192,112809,1,0,0:0:0:70:3.wav
402,192,112886,1,0,0:0:0:70:1+.wav
36,192,112886,1,0,0:0:0:70:L6--.wav
329,192,112963,5,0,0:0:0:70:7.wav
256,192,113041,1,0,0:0:0:70:5.wav
182,192,113118,1,0,0:0:0:70:2.wav
256,192,113195,5,0,0:0:0:70:7.wav
182,192,113273,1,0,0:0:0:70:6.wav
109,192,113350,1,0,0:0:0:70:4.wav
36,192,113427,1,0,0:0:0:70:1.wav
402,192,113505,1,0,0:0:0:70:6.wav
109,192,113505,1,0,0:0:0:70:L4--.wav
329,192,113582,1,0,0:0:0:70:5#.wav
256,192,113659,1,0,0:0:0:70:3.wav
182,192,113737,5,0,0:0:0:70:7-.wav
256,192,113814,1,0,0:0:0:70:5#.wav
475,192,113891,1,0,0:0:0:70:1+.wav
402,192,113969,1,0,0:0:0:70:6.wav
329,192,114046,1,0,0:0:0:70:3.wav
402,192,114123,1,0,0:0:0:70:1+.wav
36,192,114123,1,0,0:0:0:70:L6--.wav
329,192,114201,5,0,0:0:0:70:7.wav
256,192,114278,1,0,0:0:0:70:5.wav
182,192,114355,1,0,0:0:0:70:2.wav
256,192,114432,5,0,0:0:0:70:7.wav
182,192,114510,1,0,0:0:0:70:6.wav
109,192,114587,1,0,0:0:0:70:4.wav
36,192,114664,1,0,0:0:0:70:1.wav
402,192,114742,1,0,0:0:0:70:6.wav
109,192,114742,1,0,0:0:0:70:L4--.wav
329,192,114819,1,0,0:0:0:70:5#.wav
256,192,114896,1,0,0:0:0:70:3.wav
182,192,114974,5,0,0:0:0:70:7-.wav
256,192,115051,1,0,0:0:0:70:5#.wav
475,192,115128,1,0,0:0:0:70:1+.wav
402,192,115206,1,0,0:0:0:70:6.wav
329,192,115283,1,0,0:0:0:70:3.wav
475,192,115360,1,0,0:0:0:70:1+.wav
109,192,115360,1,0,0:0:0:70:L6--.wav
402,192,115438,5,0,0:0:0:70:7.wav
329,192,115515,1,0,0:0:0:70:5.wav
256,192,115592,1,0,0:0:0:70:2.wav
402,192,115670,5,0,0:0:0:70:7.wav
329,192,115747,1,0,0:0:0:70:6.wav
256,192,115824,1,0,0:0:0:70:4.wav
182,192,115902,1,0,0:0:0:70:1.wav
329,192,115979,1,0,0:0:0:70:6.wav
36,192,115979,1,0,0:0:0:70:L4--.wav
256,192,116056,1,0,0:0:0:70:5#.wav
182,192,116134,1,0,0:0:0:70:3.wav
109,192,116211,5,0,0:0:0:70:7-.wav
182,192,116288,1,0,0:0:0:70:5#.wav
402,192,116365,1,0,0:0:0:70:1+.wav
329,192,116443,1,0,0:0:0:70:6.wav
256,192,116520,1,0,0:0:0:70:3.wav
475,192,116597,1,0,0:0:0:70:1+.wav
109,192,116597,1,0,0:0:0:70:L6--.wav
402,192,116675,5,0,0:0:0:70:7.wav
329,192,116752,1,0,0:0:0:70:5.wav
256,192,116829,1,0,0:0:0:70:2.wav
402,192,116907,5,0,0:0:0:70:7.wav
329,192,116984,1,0,0:0:0:70:6.wav
256,192,117061,1,0,0:0:0:70:4.wav
182,192,117139,1,0,0:0:0:70:1.wav
329,192,117216,1,0,0:0:0:70:6.wav
36,192,117216,1,0,0:0:0:70:L4--.wav
256,192,117293,1,0,0:0:0:70:5#.wav
182,192,117371,1,0,0:0:0:70:3.wav
109,192,117448,5,0,0:0:0:70:7-.wav
182,192,117525,1,0,0:0:0:70:5#.wav
475,192,117603,1,0,0:0:0:70:1+.wav
402,192,117680,1,0,0:0:0:70:6.wav
329,192,117757,1,0,0:0:0:70:3.wav
402,192,117835,1,0,0:0:0:70:1+.wav
36,192,117835,1,0,0:0:0:70:L6--.wav
329,192,117912,5,0,0:0:0:70:7.wav
256,192,117989,1,0,0:0:0:70:5.wav
182,192,118067,1,0,0:0:0:70:2.wav
109,192,118144,5,0,0:0:0:70:7.wav
182,192,118221,1,0,0:0:0:70:6.wav
109,192,118298,1,0,0:0:0:70:4.wav
36,192,118376,1,0,0:0:0:70:1.wav
402,192,118453,1,0,0:0:0:70:6.wav
109,192,118453,1,0,0:0:0:70:L4--.wav
329,192,118530,1,0,0:0:0:70:5#.wav
256,192,118608,1,0,0:0:0:70:3.wav
182,192,118685,5,0,0:0:0:70:7-.wav
109,192,118762,1,0,0:0:0:70:5#.wav
475,192,118840,1,0,0:0:0:70:1+.wav
402,192,118917,1,0,0:0:0:70:6.wav
329,192,118994,1,0,0:0:0:70:3.wav
475,192,119072,1,0,0:0:0:70:1+.wav
36,192,119072,1,0,0:0:0:70:L6--.wav
402,192,119149,5,0,0:0:0:70:7.wav
329,192,119226,1,0,0:0:0:70:5.wav
256,192,119304,1,0,0:0:0:70:2.wav
329,192,119381,5,0,0:0:0:70:7.wav
256,192,119458,1,0,0:0:0:70:6.wav
182,192,119536,1,0,0:0:0:70:4.wav
109,192,119613,1,0,0:0:0:70:1.wav
329,192,119690,1,0,0:0:0:70:6.wav
36,192,119690,1,0,0:0:0:70:L4--.wav
256,192,119768,1,0,0:0:0:70:5#.wav
182,192,119845,1,0,0:0:0:70:3.wav
109,192,119922,5,0,0:0:0:70:7-.wav
182,192,120000,1,0,0:0:0:70:5#.wav
475,192,120077,1,0,0:0:0:70:1+.wav
402,192,120154,1,0,0:0:0:70:6.wav
329,192,120231,1,0,0:0:0:70:3.wav
475,192,120309,1,0,0:0:0:70:1+.wav
109,192,120309,1,0,0:0:0:70:L6--.wav
402,192,120386,5,0,0:0:0:70:7.wav
329,192,120463,1,0,0:0:0:70:5.wav
256,192,120541,1,0,0:0:0:70:2.wav
402,192,120618,5,0,0:0:0:70:7.wav
329,192,120695,1,0,0:0:0:70:6.wav
256,192,120773,1,0,0:0:0:70:4.wav
182,192,120850,1,0,0:0:0:70:1.wav
329,192,120927,1,0,0:0:0:70:6.wav
36,192,120927,1,0,0:0:0:70:L4--.wav
256,192,121005,1,0,0:0:0:70:5#.wav
182,192,121082,1,0,0:0:0:70:3.wav
109,192,121159,5,0,0:0:0:70:7-.wav
182,192,121237,1,0,0:0:0:70:5#.wav
475,192,121314,1,0,0:0:0:70:1+.wav
402,192,121391,1,0,0:0:0:70:6.wav
329,192,121469,1,0,0:0:0:70:3.wav
402,192,121546,1,0,0:0:0:70:1+.wav
36,192,121546,1,0,0:0:0:70:L6--.wav
329,192,121623,5,0,0:0:0:70:7.wav
256,192,121701,1,0,0:0:0:70:5.wav
182,192,121778,1,0,0:0:0:70:2.wav
329,192,121855,5,0,0:0:0:70:7.wav
256,192,121932,1,0,0:0:0:70:6.wav
182,192,122010,1,0,0:0:0:70:4.wav
109,192,122087,1,0,0:0:0:70:1.wav
402,192,122164,1,0,0:0:0:70:6.wav
36,192,122164,1,0,0:0:0:70:L4--.wav
329,192,122242,1,0,0:0:0:70:5#.wav
256,192,122319,1,0,0:0:0:70:3.wav
182,192,122396,5,0,0:0:0:70:7-.wav
329,192,122474,1,0,0:0:0:70:5#.wav
36,192,122474,1,0,0:0:0:70:L6--.wav
