osu file format v14

[General]
AudioFilename: 2m3.mp3
AudioLeadIn: 0
PreviewTime: -1
Countdown: 0
SampleSet: Soft
StackLeniency: 0.7
Mode: 3
LetterboxInBreaks: 0
SpecialStyle: 0
WidescreenStoryboard: 1

[Editor]
DistanceSpacing: 1.2
BeatDivisor: 8
GridSize: 4
TimelineZoom: 1.5

[Metadata]
Title:Piano Pack
TitleUnicode:Piano Pack
Artist:KawaEE
ArtistUnicode:KawaEE
Creator:KawaEE
Version:SC : Koi wa Chaos no Shimobenari
Source:
Tags:Piano
BeatmapID:556212
BeatmapSetID:236952

[Difficulty]
HPDrainRate:8
CircleSize:7
OverallDifficulty:8
ApproachRate:5
SliderMultiplier:1.4
SliderTickRate:1

[Events]
//Background and Video events
0,0,"7777.jpg",0,0
//Break Periods
//Storyboard Layer 0 (Background)
//Storyboard Layer 1 (Fail)
//Storyboard Layer 2 (Pass)
//Storyboard Layer 3 (Foreground)
//Storyboard Sound Samples

[TimingPoints]
0,405.405405405405,4,2,1,1,1,0

[HitObjects]
329,192,2837,5,0,0:0:0:70:1#+.wav
36,192,2837,1,0,0:0:0:70:L1#-.wav
475,192,2837,1,0,0:0:0:70:1#++.wav
182,192,2837,1,0,0:0:0:70:L1#--.wav
256,192,3243,1,0,0:0:0:70:7.wav
402,192,3243,1,0,0:0:0:70:7+.wav
36,192,3243,1,0,0:0:0:70:L7--.wav
109,192,3243,1,0,0:0:0:70:L7---.wav
329,192,3648,1,0,0:0:0:70:5.wav
475,192,3648,1,0,0:0:0:70:5+.wav
36,192,3648,1,0,0:0:0:70:L5---.wav
256,192,3749,1,0,0:0:0:70:4#.wav
402,192,3749,1,0,0:0:0:70:4#+.wav
109,192,3749,1,0,0:0:0:70:L4#---.wav
329,192,3851,1,0,0:0:0:70:3.wav
182,192,3851,1,0,0:0:0:70:3+.wav
36,192,3851,1,0,0:0:0:70:L3---.wav
475,192,4256,1,0,0:0:0:70:7+.wav
329,192,4256,1,0,0:0:0:70:7.wav
182,192,4256,1,0,0:0:0:70:L7---.wav
36,192,4256,1,0,0:0:0:70:L7--.wav
182,192,4662,1,0,0:0:0:70:5.wav
329,192,4662,1,0,0:0:0:70:5+.wav
36,192,4662,1,0,0:0:0:70:L5#---.wav
402,192,4864,1,0,0:0:0:70:7+.wav
256,192,4864,1,0,0:0:0:70:7.wav
109,192,4864,1,0,0:0:0:70:L7---.wav
329,192,5067,1,0,0:0:0:70:1+.wav
475,192,5067,1,0,0:0:0:70:1++.wav
182,192,5067,1,0,0:0:0:70:L1-.wav
182,192,5270,5,0,0:0:0:70:1#+.wav
475,192,5270,1,0,0:0:0:70:1#++.wav
36,192,5270,1,0,0:0:0:70:L1#--.wav
402,192,5320,1,0,0:0:0:70:1#++.wav
329,192,5346,1,0,0:0:0:70:1#++.wav
256,192,5371,1,0,0:0:0:70:7+.wav
182,192,5396,1,0,0:0:0:70:6+.wav
109,192,5422,1,0,0:0:0:70:5+.wav
36,192,5447,1,0,0:0:0:70:4#+.wav
475,192,5472,1,0,0:0:0:70:3+.wav
402,192,5498,1,0,0:0:0:70:2#+.wav
329,192,5523,1,0,0:0:0:70:1#+.wav
256,192,5548,1,0,0:0:0:70:7.wav
182,192,5574,1,0,0:0:0:70:6.wav
109,192,5599,1,0,0:0:0:70:5#.wav
36,192,5624,1,0,0:0:0:70:4#.wav
475,192,5650,1,0,0:0:0:70:3.wav
402,192,5675,1,0,0:0:0:70:2#.wav
329,192,5701,1,0,0:0:0:70:1#.wav
256,192,5726,1,0,0:0:0:70:L7-.wav
182,192,5777,1,0,0:0:0:70:L1#--.wav
36,192,5777,1,0,0:0:0:70:L1#-.wav
329,192,6081,1,0,0:0:0:70:7.wav
182,192,6081,1,0,0:0:0:70:3.wav
36,192,6081,1,0,0:0:0:70:L1#--.wav
402,192,6182,1,0,0:0:0:70:1+.wav
475,192,6283,5,0,0:0:0:70:1#+.wav
109,192,6283,1,0,0:0:0:70:L1#-.wav
256,192,6283,1,0,0:0:0:70:L3-.wav
402,192,6486,1,0,0:0:0:70:3+.wav
182,192,6486,1,0,0:0:0:70:3.wav
36,192,6486,1,0,0:0:0:70:L5#---.wav
329,192,6689,5,0,0:0:0:70:1#+.wav
109,192,6689,1,0,0:0:0:70:L1#-.wav
256,192,6689,1,0,0:0:0:70:L3-.wav
36,192,6891,1,0,0:0:0:70:L1#--.wav
475,192,6891,1,0,0:0:0:70:3+.wav
329,192,6993,1,0,0:0:0:70:3.wav
402,192,7094,5,0,0:0:0:70:1#+.wav
109,192,7094,1,0,0:0:0:70:L1#-.wav
256,192,7094,1,0,0:0:0:70:L3-.wav
475,192,7195,1,0,0:0:0:70:3+.wav
36,192,7297,1,0,0:0:0:70:L5#---.wav
182,192,7499,1,0,0:0:0:70:L1#-.wav
329,192,7499,1,0,0:0:0:70:L3-.wav
475,192,7499,1,0,0:0:0:70:4#+.wav
36,192,7702,1,0,0:0:0:70:L4#--.wav
402,192,7702,1,0,0:0:0:70:5+.wav
256,192,7804,1,0,0:0:0:70:6#.wav
329,192,7905,1,0,0:0:0:70:4#+.wav
109,192,7905,1,0,0:0:0:70:L4#-.wav
182,192,7905,1,0,0:0:0:70:L6#-.wav
402,192,8108,1,0,0:0:0:70:3+.wav
36,192,8108,1,0,0:0:0:70:L1#--.wav
475,192,8209,1,0,0:0:0:70:4#+.wav
109,192,8310,1,0,0:0:0:70:L4#-.wav
256,192,8310,1,0,0:0:0:70:L6#-.wav
402,192,8412,1,0,0:0:0:70:3+.wav
36,192,8513,1,0,0:0:0:70:L4#--.wav
256,192,8716,1,0,0:0:0:70:L6#-.wav
109,192,8716,1,0,0:0:0:70:L4#-.wav
182,192,8918,1,0,0:0:0:70:5#.wav
329,192,8918,1,0,0:0:0:70:5#+.wav
36,192,8918,1,0,0:0:0:70:L1#--.wav
402,192,9121,1,0,0:0:0:70:7+.wav
256,192,9121,1,0,0:0:0:70:7.wav
109,192,9121,1,0,0:0:0:70:L1#-.wav
329,192,9324,5,0,0:0:0:70:1#+.wav
475,192,9324,1,0,0:0:0:70:1#++.wav
36,192,9324,1,0,0:0:0:70:L6---.wav
402,192,9527,1,0,0:0:0:70:L3-.wav
182,192,9527,1,0,0:0:0:70:L1#-.wav
475,192,9729,1,0,0:0:0:70:7+.wav
329,192,9729,1,0,0:0:0:70:7.wav
36,192,9729,1,0,0:0:0:70:L3--.wav
256,192,9932,1,0,0:0:0:70:L3-.wav
109,192,9932,1,0,0:0:0:70:L1#-.wav
475,192,10135,5,0,0:0:0:70:1#+.wav
329,192,10135,1,0,0:0:0:70:5+.wav
182,192,10135,1,0,0:0:0:70:6.wav
36,192,10135,1,0,0:0:0:70:L6---.wav
402,192,10236,1,0,0:0:0:70:4#+.wav
109,192,10337,1,0,0:0:0:70:L1#-.wav
256,192,10337,1,0,0:0:0:70:L3-.wav
329,192,10439,1,0,0:0:0:70:6.wav
475,192,10439,1,0,0:0:0:70:3+.wav
36,192,10540,1,0,0:0:0:70:L3--.wav
329,192,10743,5,0,0:0:0:70:1#+.wav
256,192,10743,1,0,0:0:0:70:6.wav
475,192,10743,1,0,0:0:0:70:4#+.wav
109,192,10743,1,0,0:0:0:70:L1#-.wav
182,192,10743,1,0,0:0:0:70:L3-.wav
256,192,10945,1,0,0:0:0:70:1+.wav
402,192,10945,1,0,0:0:0:70:5#+.wav
329,192,10945,1,0,0:0:0:70:2#+.wav
36,192,10945,1,0,0:0:0:70:L5#--.wav
109,192,10945,1,0,0:0:0:70:L5#---.wav
402,192,11249,1,0,0:0:0:70:1++.wav
475,192,11249,1,0,0:0:0:70:2#+.wav
329,192,11249,1,0,0:0:0:70:1+.wav
36,192,11249,1,0,0:0:0:70:L5#--.wav
109,192,11249,1,0,0:0:0:70:L5#---.wav
329,192,11554,1,0,0:0:0:70:5#+.wav
402,192,11554,1,0,0:0:0:70:2#+.wav
256,192,11554,1,0,0:0:0:70:1+.wav
109,192,11554,1,0,0:0:0:70:L1--.wav
182,192,11554,1,0,0:0:0:70:L1-.wav
402,192,11858,1,0,0:0:0:70:4#+.wav
329,192,11858,1,0,0:0:0:70:1+.wav
36,192,11858,1,0,0:0:0:70:L5#--.wav
109,192,11858,1,0,0:0:0:70:L5#---.wav
402,192,12162,1,0,0:0:0:70:2#+.wav
256,192,12162,1,0,0:0:0:70:1+.wav
109,192,12162,1,0,0:0:0:70:L1--.wav
182,192,12162,1,0,0:0:0:70:L1-.wav
475,192,12162,1,0,0:0:0:70:5#+.wav
36,192,12364,1,0,0:0:0:70:L1--.wav
329,192,12364,1,0,0:0:0:70:L1-.wav
256,192,12567,1,0,0:0:0:70:3.wav
402,192,12567,1,0,0:0:0:70:7.wav
36,192,12567,1,0,0:0:0:70:L1#--.wav
329,192,12668,1,0,0:0:0:70:1+.wav
402,192,12770,5,0,0:0:0:70:1#+.wav
182,192,12770,1,0,0:0:0:70:L3-.wav
109,192,12770,1,0,0:0:0:70:L1#-.wav
256,192,12972,1,0,0:0:0:70:3.wav
475,192,12972,1,0,0:0:0:70:3+.wav
36,192,12972,1,0,0:0:0:70:L5#---.wav
402,192,13175,5,0,0:0:0:70:1#+.wav
109,192,13175,1,0,0:0:0:70:L1#-.wav
329,192,13175,1,0,0:0:0:70:L3-.wav
36,192,13378,1,0,0:0:0:70:L1#--.wav
475,192,13378,1,0,0:0:0:70:3+.wav
329,192,13479,1,0,0:0:0:70:3.wav
402,192,13581,5,0,0:0:0:70:1#+.wav
256,192,13581,1,0,0:0:0:70:L3-.wav
109,192,13581,1,0,0:0:0:70:L1#-.wav
475,192,13682,1,0,0:0:0:70:3+.wav
36,192,13783,1,0,0:0:0:70:L5#---.wav
256,192,13986,1,0,0:0:0:70:L3-.wav
109,192,13986,1,0,0:0:0:70:L1#-.wav
402,192,13986,1,0,0:0:0:70:4#+.wav
36,192,14189,1,0,0:0:0:70:L3--.wav
475,192,14189,1,0,0:0:0:70:5+.wav
256,192,14290,1,0,0:0:0:70:7.wav
402,192,14391,1,0,0:0:0:70:4#+.wav
182,192,14391,1,0,0:0:0:70:L3-.wav
109,192,14391,1,0,0:0:0:70:L7--.wav
329,192,14594,1,0,0:0:0:70:3+.wav
256,192,14594,1,0,0:0:0:70:7.wav
36,192,14594,1,0,0:0:0:70:L7---.wav
475,192,14695,1,0,0:0:0:70:4#+.wav
182,192,14797,1,0,0:0:0:70:L3-.wav
109,192,14797,1,0,0:0:0:70:L7--.wav
402,192,14898,1,0,0:0:0:70:7.wav
256,192,14898,1,0,0:0:0:70:3+.wav
36,192,14999,1,0,0:0:0:70:L3--.wav
256,192,15202,1,0,0:0:0:70:L3-.wav
109,192,15202,1,0,0:0:0:70:L7--.wav
329,192,15405,1,0,0:0:0:70:5+.wav
182,192,15405,1,0,0:0:0:70:5.wav
36,192,15405,1,0,0:0:0:70:L7---.wav
256,192,15608,1,0,0:0:0:70:7.wav
402,192,15608,1,0,0:0:0:70:7+.wav
109,192,15608,1,0,0:0:0:70:L7--.wav
329,192,15810,1,0,0:0:0:70:1#+.wav
475,192,15810,1,0,0:0:0:70:1#++.wav
182,192,15810,1,0,0:0:0:70:L4#--.wav
36,192,15810,1,0,0:0:0:70:L4#---.wav
36,192,16216,1,0,0:0:0:70:L5#---.wav
256,192,16216,1,0,0:0:0:70:L5#--.wav
402,192,16216,1,0,0:0:0:70:7+.wav
329,192,16216,1,0,0:0:0:70:7.wav
329,192,16621,1,0,0:0:0:70:5.wav
475,192,16621,1,0,0:0:0:70:5+.wav
109,192,16621,1,0,0:0:0:70:L6---.wav
182,192,16621,1,0,0:0:0:70:L6--.wav
402,192,16722,1,0,0:0:0:70:4#+.wav
256,192,16722,1,0,0:0:0:70:4#.wav
182,192,16824,1,0,0:0:0:70:3.wav
329,192,16824,1,0,0:0:0:70:3+.wav
36,192,16824,1,0,0:0:0:70:L6#--.wav
475,192,17229,1,0,0:0:0:70:7+.wav
329,192,17229,1,0,0:0:0:70:7.wav
36,192,17229,1,0,0:0:0:70:L7---.wav
182,192,17229,1,0,0:0:0:70:L7--.wav
182,192,17635,1,0,0:0:0:70:5.wav
329,192,17635,1,0,0:0:0:70:5+.wav
36,192,17635,1,0,0:0:0:70:L5#---.wav
256,192,17837,1,0,0:0:0:70:7.wav
402,192,17837,1,0,0:0:0:70:7+.wav
109,192,17837,1,0,0:0:0:70:L7---.wav
475,192,18040,1,0,0:0:0:70:1++.wav
329,192,18040,1,0,0:0:0:70:1+.wav
182,192,18040,1,0,0:0:0:70:L1--.wav
109,192,18243,5,0,0:0:0:70:1#+.wav
475,192,18243,1,0,0:0:0:70:1#++.wav
36,192,18243,1,0,0:0:0:70:L1#--.wav
402,192,18268,1,0,0:0:0:70:1#++.wav
329,192,18293,1,0,0:0:0:70:1#++.wav
256,192,18319,1,0,0:0:0:70:7+.wav
182,192,18344,1,0,0:0:0:70:6+.wav
109,192,18369,1,0,0:0:0:70:5+.wav
36,192,18395,1,0,0:0:0:70:4#+.wav
475,192,18420,1,0,0:0:0:70:3+.wav
402,192,18445,1,0,0:0:0:70:2#+.wav
329,192,18471,1,0,0:0:0:70:1#+.wav
256,192,18496,1,0,0:0:0:70:7.wav
182,192,18521,1,0,0:0:0:70:6.wav
109,192,18547,1,0,0:0:0:70:5#.wav
36,192,18572,1,0,0:0:0:70:4#.wav
475,192,18597,1,0,0:0:0:70:3.wav
402,192,18623,1,0,0:0:0:70:2#.wav
329,192,18648,1,0,0:0:0:70:1#.wav
256,192,18673,1,0,0:0:0:70:L7-.wav
182,192,18699,1,0,0:0:0:70:5-.wav
109,192,18724,1,0,0:0:0:70:L1#--.wav
36,192,18749,1,0,0:0:0:70:L1#-.wav
475,192,19054,1,0,0:0:0:70:1#+.wav
329,192,19054,1,0,0:0:0:70:3.wav
36,192,19054,1,0,0:0:0:70:L1#--.wav
256,192,19256,1,0,0:0:0:70:L3-.wav
109,192,19256,1,0,0:0:0:70:L1#-.wav
36,192,19459,1,0,0:0:0:70:L5#---.wav
329,192,19662,1,0,0:0:0:70:5#.wav
182,192,19662,1,0,0:0:0:70:L3-.wav
109,192,19662,1,0,0:0:0:70:L1#-.wav
475,192,19864,1,0,0:0:0:70:1#+.wav
402,192,19864,1,0,0:0:0:70:6.wav
256,192,19864,1,0,0:0:0:70:3.wav
36,192,19864,1,0,0:0:0:70:L1#--.wav
182,192,20067,1,0,0:0:0:70:L3-.wav
109,192,20067,1,0,0:0:0:70:L1#-.wav
256,192,20270,1,0,0:0:0:70:1#+.wav
475,192,20270,1,0,0:0:0:70:3+.wav
329,192,20270,1,0,0:0:0:70:6.wav
36,192,20270,1,0,0:0:0:70:L5#---.wav
256,192,20472,1,0,0:0:0:70:1#+.wav
475,192,20472,1,0,0:0:0:70:3+.wav
329,192,20472,1,0,0:0:0:70:6.wav
182,192,20472,1,0,0:0:0:70:L3-.wav
36,192,20472,1,0,0:0:0:70:L1#-.wav
402,192,20675,1,0,0:0:0:70:7.wav
475,192,20675,1,0,0:0:0:70:5#+.wav
109,192,20675,1,0,0:0:0:70:L3--.wav
329,192,20878,1,0,0:0:0:70:7.wav
475,192,20878,1,0,0:0:0:70:5#+.wav
36,192,20878,1,0,0:0:0:70:L3-.wav
256,192,20878,1,0,0:0:0:70:L7--.wav
402,192,20979,1,0,0:0:0:70:4#+.wav
329,192,21081,1,0,0:0:0:70:3+.wav
109,192,21081,1,0,0:0:0:70:L7---.wav
402,192,21283,1,0,0:0:0:70:4#+.wav
182,192,21283,1,0,0:0:0:70:L3-.wav
256,192,21283,1,0,0:0:0:70:L7--.wav
475,192,21486,1,0,0:0:0:70:5#+.wav
329,192,21486,1,0,0:0:0:70:1+.wav
36,192,21486,1,0,0:0:0:70:L3--.wav
256,192,21689,1,0,0:0:0:70:L7--.wav
109,192,21689,1,0,0:0:0:70:L3-.wav
36,192,21891,1,0,0:0:0:70:L7---.wav
256,192,22094,1,0,0:0:0:70:L3-.wav
109,192,22094,1,0,0:0:0:70:L7--.wav
36,192,22297,1,0,0:0:0:70:L6--.wav
329,192,22499,1,0,0:0:0:70:5+.wav
475,192,22499,1,0,0:0:0:70:1#+.wav
109,192,22499,1,0,0:0:0:70:L1#-.wav
182,192,22499,1,0,0:0:0:70:L3-.wav
256,192,22601,1,0,0:0:0:70:6.wav
329,192,22702,1,0,0:0:0:70:5+.wav
475,192,22702,1,0,0:0:0:70:1#+.wav
36,192,22702,1,0,0:0:0:70:L6---.wav
475,192,22905,1,0,0:0:0:70:1#+.wav
329,192,22905,1,0,0:0:0:70:5+.wav
182,192,22905,1,0,0:0:0:70:L3-.wav
109,192,22905,1,0,0:0:0:70:L1#-.wav
402,192,23108,1,0,0:0:0:70:2#+.wav
256,192,23108,1,0,0:0:0:70:1+.wav
475,192,23108,1,0,0:0:0:70:5#+.wav
36,192,23108,1,0,0:0:0:70:L5#---.wav
182,192,23310,1,0,0:0:0:70:L5#--.wav
329,192,23310,1,0,0:0:0:70:L1-.wav
402,192,23513,1,0,0:0:0:70:1+.wav
475,192,23513,1,0,0:0:0:70:2#+.wav
36,192,23513,1,0,0:0:0:70:L5#---.wav
109,192,23716,1,0,0:0:0:70:L5#--.wav
256,192,23716,1,0,0:0:0:70:L1-.wav
182,192,23918,1,0,0:0:0:70:5#.wav
329,192,23918,1,0,0:0:0:70:3+.wav
402,192,23918,1,0,0:0:0:70:3.wav
36,192,23918,1,0,0:0:0:70:L1#--.wav
109,192,24121,1,0,0:0:0:70:L1#-.wav
256,192,24121,1,0,0:0:0:70:L3-.wav
475,192,24121,1,0,0:0:0:70:1#+.wav
182,192,24324,1,0,0:0:0:70:L5#---.wav
329,192,24324,1,0,0:0:0:70:3.wav
475,192,24324,1,0,0:0:0:70:1#+.wav
36,192,24527,1,0,0:0:0:70:L1#-.wav
109,192,24527,1,0,0:0:0:70:L3-.wav
256,192,24527,1,0,0:0:0:70:7.wav
329,192,24527,1,0,0:0:0:70:3.wav
36,192,24729,1,0,0:0:0:70:L1#--.wav
475,192,24729,1,0,0:0:0:70:1#+.wav
182,192,24729,1,0,0:0:0:70:5.wav
329,192,24729,1,0,0:0:0:70:3.wav
402,192,24932,1,0,0:0:0:70:L3-.wav
109,192,24932,1,0,0:0:0:70:L1#-.wav
36,192,25135,1,0,0:0:0:70:L5#---.wav
475,192,25135,1,0,0:0:0:70:1#++.wav
182,192,25135,1,0,0:0:0:70:3+.wav
329,192,25135,1,0,0:0:0:70:5#+.wav
109,192,25337,1,0,0:0:0:70:L1#-.wav
256,192,25337,1,0,0:0:0:70:L3-.wav
329,192,25540,1,0,0:0:0:70:5#.wav
402,192,25540,1,0,0:0:0:70:1#+.wav
182,192,25540,1,0,0:0:0:70:3.wav
36,192,25540,1,0,0:0:0:70:L1#--.wav
256,192,25743,1,0,0:0:0:70:L3-.wav
109,192,25743,1,0,0:0:0:70:L1#-.wav
36,192,25945,1,0,0:0:0:70:L5#---.wav
402,192,26148,1,0,0:0:0:70:5#.wav
329,192,26148,1,0,0:0:0:70:L3-.wav
109,192,26148,1,0,0:0:0:70:L1#-.wav
36,192,26351,1,0,0:0:0:70:L1#--.wav
475,192,26351,1,0,0:0:0:70:1#+.wav
182,192,26351,1,0,0:0:0:70:6.wav
256,192,26351,1,0,0:0:0:70:3.wav
109,192,26554,1,0,0:0:0:70:L1#-.wav
329,192,26554,1,0,0:0:0:70:L3-.wav
402,192,26756,1,0,0:0:0:70:1#+.wav
475,192,26756,1,0,0:0:0:70:3+.wav
256,192,26756,1,0,0:0:0:70:6.wav
36,192,26756,1,0,0:0:0:70:L5#---.wav
182,192,26959,1,0,0:0:0:70:L3-.wav
109,192,26959,1,0,0:0:0:70:L1#-.wav
256,192,26959,1,0,0:0:0:70:6.wav
475,192,26959,1,0,0:0:0:70:3+.wav
402,192,26959,1,0,0:0:0:70:1#+.wav
329,192,27162,1,0,0:0:0:70:7.wav
475,192,27162,1,0,0:0:0:70:5#+.wav
36,192,27162,1,0,0:0:0:70:L3--.wav
256,192,27364,1,0,0:0:0:70:7.wav
475,192,27364,1,0,0:0:0:70:5#+.wav
109,192,27364,1,0,0:0:0:70:L3-.wav
402,192,27466,1,0,0:0:0:70:4#+.wav
329,192,27567,1,0,0:0:0:70:3+.wav
36,192,27567,1,0,0:0:0:70:L7---.wav
402,192,27770,1,0,0:0:0:70:4#+.wav
109,192,27770,1,0,0:0:0:70:L3-.wav
475,192,27972,1,0,0:0:0:70:5#+.wav
329,192,27972,1,0,0:0:0:70:1+.wav
182,192,27972,1,0,0:0:0:70:L3--.wav
256,192,28175,1,0,0:0:0:70:L3-.wav
109,192,28378,1,0,0:0:0:70:L7---.wav
256,192,28581,1,0,0:0:0:70:L3-.wav
36,192,28783,1,0,0:0:0:70:L6---.wav
475,192,28986,1,0,0:0:0:70:1#+.wav
329,192,28986,1,0,0:0:0:70:5+.wav
182,192,28986,1,0,0:0:0:70:L3-.wav
109,192,28986,1,0,0:0:0:70:L1#-.wav
256,192,29087,1,0,0:0:0:70:6.wav
329,192,29189,1,0,0:0:0:70:5+.wav
475,192,29189,1,0,0:0:0:70:1#+.wav
36,192,29189,1,0,0:0:0:70:L6---.wav
329,192,29391,1,0,0:0:0:70:5+.wav
475,192,29391,1,0,0:0:0:70:1#+.wav
109,192,29391,1,0,0:0:0:70:L1#-.wav
182,192,29391,1,0,0:0:0:70:L3-.wav
402,192,29594,1,0,0:0:0:70:5#+.wav
475,192,29594,1,0,0:0:0:70:2#+.wav
256,192,29594,1,0,0:0:0:70:1+.wav
36,192,29594,1,0,0:0:0:70:L7---.wav
109,192,29797,1,0,0:0:0:70:L5#--.wav
329,192,29797,1,0,0:0:0:70:L1-.wav
475,192,29999,1,0,0:0:0:70:2#+.wav
402,192,29999,1,0,0:0:0:70:1+.wav
36,192,29999,1,0,0:0:0:70:L7---.wav
109,192,30202,1,0,0:0:0:70:L5#--.wav
256,192,30202,1,0,0:0:0:70:L1-.wav
402,192,30405,1,0,0:0:0:70:3+.wav
182,192,30405,1,0,0:0:0:70:5#.wav
36,192,30405,1,0,0:0:0:70:L1#--.wav
329,192,30405,1,0,0:0:0:70:3.wav
475,192,30608,1,0,0:0:0:70:1#+.wav
109,192,30608,1,0,0:0:0:70:L1#-.wav
256,192,30608,1,0,0:0:0:70:L3-.wav
475,192,30810,1,0,0:0:0:70:1#+.wav
329,192,30810,1,0,0:0:0:70:3.wav
36,192,30810,1,0,0:0:0:70:L5#---.wav
402,192,31013,1,0,0:0:0:70:7.wav
329,192,31013,1,0,0:0:0:70:3.wav
256,192,31013,1,0,0:0:0:70:L3-.wav
109,192,31013,1,0,0:0:0:70:L1#-.wav
475,192,31216,1,0,0:0:0:70:1#+.wav
329,192,31216,1,0,0:0:0:70:3.wav
36,192,31216,1,0,0:0:0:70:L1#--.wav
256,192,31418,1,0,0:0:0:70:L3-.wav
109,192,31418,1,0,0:0:0:70:L1#-.wav
475,192,31621,1,0,0:0:0:70:1#++.wav
329,192,31621,1,0,0:0:0:70:3+.wav
402,192,31621,1,0,0:0:0:70:5#+.wav
36,192,31621,1,0,0:0:0:70:L5#---.wav
182,192,31824,1,0,0:0:0:70:L3-.wav
109,192,31824,1,0,0:0:0:70:L1#-.wav
475,192,32027,1,0,0:0:0:70:5+.wav
256,192,32027,1,0,0:0:0:70:1#+.wav
329,192,32027,1,0,0:0:0:70:3+.wav
36,192,32027,1,0,0:0:0:70:L6---.wav
402,192,32229,1,0,0:0:0:70:4#+.wav
182,192,32229,1,0,0:0:0:70:L3-.wav
109,192,32229,1,0,0:0:0:70:L1#-.wav
475,192,32432,1,0,0:0:0:70:5+.wav
329,192,32432,1,0,0:0:0:70:1#+.wav
36,192,32432,1,0,0:0:0:70:L3--.wav
256,192,32432,1,0,0:0:0:70:6.wav
402,192,32635,1,0,0:0:0:70:4#+.wav
182,192,32635,1,0,0:0:0:70:L3-.wav
109,192,32635,1,0,0:0:0:70:L1#-.wav
475,192,32837,1,0,0:0:0:70:5+.wav
256,192,32837,1,0,0:0:0:70:1#+.wav
36,192,32837,1,0,0:0:0:70:L6---.wav
329,192,32837,1,0,0:0:0:70:6.wav
402,192,33040,1,0,0:0:0:70:4#+.wav
182,192,33040,1,0,0:0:0:70:L3-.wav
109,192,33040,1,0,0:0:0:70:L1#-.wav
329,192,33243,1,0,0:0:0:70:3+.wav
36,192,33243,1,0,0:0:0:70:L3--.wav
475,192,33445,1,0,0:0:0:70:5+.wav
182,192,33445,1,0,0:0:0:70:1#+.wav
109,192,33445,1,0,0:0:0:70:L3-.wav
36,192,33445,1,0,0:0:0:70:L1#-.wav
256,192,33445,1,0,0:0:0:70:6.wav
36,192,33648,1,0,0:0:0:70:L6---.wav
329,192,33851,1,0,0:0:0:70:1#+.wav
256,192,33851,1,0,0:0:0:70:5+.wav
182,192,33851,1,0,0:0:0:70:L3-.wav
109,192,33851,1,0,0:0:0:70:L1#-.wav
475,192,33851,1,0,0:0:0:70:6.wav
475,192,34054,1,0,0:0:0:70:4#+.wav
36,192,34054,1,0,0:0:0:70:L3--.wav
329,192,34256,1,0,0:0:0:70:1#+.wav
256,192,34256,1,0,0:0:0:70:3+.wav
182,192,34256,1,0,0:0:0:70:L3-.wav
109,192,34256,1,0,0:0:0:70:L1#-.wav
402,192,34256,1,0,0:0:0:70:6.wav
36,192,34459,1,0,0:0:0:70:L6---.wav
329,192,34662,1,0,0:0:0:70:1#+.wav
256,192,34662,1,0,0:0:0:70:3+.wav
109,192,34662,1,0,0:0:0:70:L1#-.wav
182,192,34662,1,0,0:0:0:70:L3-.wav
402,192,34662,1,0,0:0:0:70:6.wav
256,192,34864,1,0,0:0:0:70:6.wav
475,192,34864,1,0,0:0:0:70:4#+.wav
36,192,34864,1,0,0:0:0:70:L3--.wav
402,192,35067,1,0,0:0:0:70:3+.wav
109,192,35067,1,0,0:0:0:70:L1#-.wav
182,192,35067,1,0,0:0:0:70:L3-.wav
256,192,35067,1,0,0:0:0:70:6.wav
475,192,35270,1,0,0:0:0:70:4#+.wav
329,192,35270,1,0,0:0:0:70:5#.wav
36,192,35270,1,0,0:0:0:70:L1#--.wav
402,192,35472,1,0,0:0:0:70:3+.wav
109,192,35472,1,0,0:0:0:70:L1#-.wav
256,192,35472,1,0,0:0:0:70:L3-.wav
475,192,35675,1,0,0:0:0:70:4#+.wav
329,192,35675,1,0,0:0:0:70:5#.wav
36,192,35675,1,0,0:0:0:70:L5#---.wav
402,192,35878,1,0,0:0:0:70:3+.wav
109,192,35878,1,0,0:0:0:70:L1#-.wav
256,192,35878,1,0,0:0:0:70:L3-.wav
475,192,36081,1,0,0:0:0:70:4#+.wav
329,192,36081,1,0,0:0:0:70:5#.wav
36,192,36081,1,0,0:0:0:70:L1#--.wav
402,192,36283,1,0,0:0:0:70:3+.wav
109,192,36283,1,0,0:0:0:70:L1#-.wav
256,192,36283,1,0,0:0:0:70:L3-.wav
402,192,36486,1,0,0:0:0:70:3+.wav
475,192,36486,1,0,0:0:0:70:7+.wav
36,192,36486,1,0,0:0:0:70:L5#---.wav
475,192,36689,1,0,0:0:0:70:5#+.wav
109,192,36689,1,0,0:0:0:70:L1#-.wav
256,192,36689,1,0,0:0:0:70:L3-.wav
36,192,36891,1,0,0:0:0:70:L1#--.wav
475,192,37094,1,0,0:0:0:70:4#+.wav
329,192,37094,1,0,0:0:0:70:7.wav
36,192,37094,1,0,0:0:0:70:L1#-.wav
182,192,37094,1,0,0:0:0:70:L4-.wav
402,192,37297,1,0,0:0:0:70:4+.wav
109,192,37297,1,0,0:0:0:70:L5#---.wav
475,192,37499,1,0,0:0:0:70:4#+.wav
36,192,37499,1,0,0:0:0:70:L1#-.wav
256,192,37499,1,0,0:0:0:70:L4-.wav
402,192,37702,1,0,0:0:0:70:4+.wav
109,192,37702,1,0,0:0:0:70:L1#--.wav
475,192,37905,1,0,0:0:0:70:4#+.wav
36,192,37905,1,0,0:0:0:70:L1#-.wav
256,192,37905,1,0,0:0:0:70:L4-.wav
475,192,38108,1,0,0:0:0:70:4+.wav
109,192,38108,1,0,0:0:0:70:L5#---.wav
402,192,38209,1,0,0:0:0:70:2#+.wav
329,192,38310,1,0,0:0:0:70:1#+.wav
36,192,38310,1,0,0:0:0:70:L1#-.wav
182,192,38310,1,0,0:0:0:70:L4-.wav
256,192,38513,1,0,0:0:0:70:5+.wav
329,192,38513,1,0,0:0:0:70:1#+.wav
475,192,38513,1,0,0:0:0:70:6.wav
109,192,38513,1,0,0:0:0:70:L6---.wav
402,192,38716,1,0,0:0:0:70:4#+.wav
36,192,38716,1,0,0:0:0:70:L1#-.wav
182,192,38716,1,0,0:0:0:70:L3-.wav
256,192,38918,1,0,0:0:0:70:5+.wav
329,192,38918,1,0,0:0:0:70:1#+.wav
109,192,38918,1,0,0:0:0:70:L3--.wav
475,192,38918,1,0,0:0:0:70:6.wav
402,192,39121,1,0,0:0:0:70:4#+.wav
36,192,39121,1,0,0:0:0:70:L1#-.wav
182,192,39121,1,0,0:0:0:70:L3-.wav
256,192,39324,1,0,0:0:0:70:5+.wav
329,192,39324,1,0,0:0:0:70:1#+.wav
109,192,39324,1,0,0:0:0:70:L6---.wav
475,192,39324,1,0,0:0:0:70:6.wav
402,192,39527,1,0,0:0:0:70:4#+.wav
182,192,39527,1,0,0:0:0:70:L3-.wav
36,192,39527,1,0,0:0:0:70:L1#-.wav
256,192,39729,1,0,0:0:0:70:6.wav
329,192,39729,1,0,0:0:0:70:3+.wav
109,192,39729,1,0,0:0:0:70:L1#--.wav
36,192,39932,1,0,0:0:0:70:L1#-.wav
182,192,39932,1,0,0:0:0:70:L3-.wav
475,192,39932,1,0,0:0:0:70:5+.wav
402,192,39932,1,0,0:0:0:70:1#+.wav
329,192,39932,1,0,0:0:0:70:6#.wav
36,192,40135,1,0,0:0:0:70:L6---.wav
475,192,40337,1,0,0:0:0:70:5+.wav
329,192,40337,1,0,0:0:0:70:1#+.wav
182,192,40337,1,0,0:0:0:70:L6#--.wav
109,192,40337,1,0,0:0:0:70:L1#-.wav
256,192,40337,1,0,0:0:0:70:6#.wav
402,192,40540,1,0,0:0:0:70:4#+.wav
329,192,40540,1,0,0:0:0:70:1#+.wav
36,192,40540,1,0,0:0:0:70:L6---.wav
256,192,40540,1,0,0:0:0:70:6#.wav
109,192,40743,1,0,0:0:0:70:L1#-.wav
256,192,40743,1,0,0:0:0:70:3+.wav
329,192,40743,1,0,0:0:0:70:1#+.wav
182,192,40743,1,0,0:0:0:70:L6#--.wav
475,192,40743,1,0,0:0:0:70:6#.wav
36,192,40945,1,0,0:0:0:70:L6---.wav
402,192,41148,1,0,0:0:0:70:3+.wav
329,192,41148,1,0,0:0:0:70:1#+.wav
109,192,41148,1,0,0:0:0:70:L1#-.wav
256,192,41148,1,0,0:0:0:70:L6#--.wav
182,192,41148,1,0,0:0:0:70:6#.wav
475,192,41351,1,0,0:0:0:70:4#+.wav
329,192,41351,1,0,0:0:0:70:1#+.wav
36,192,41351,1,0,0:0:0:70:L6---.wav
256,192,41351,1,0,0:0:0:70:6#.wav
256,192,41554,1,0,0:0:0:70:3+.wav
109,192,41554,1,0,0:0:0:70:L1#-.wav
182,192,41554,1,0,0:0:0:70:L6#--.wav
402,192,41554,1,0,0:0:0:70:6#.wav
475,192,41756,1,0,0:0:0:70:4#+.wav
329,192,41756,1,0,0:0:0:70:2#+.wav
36,192,41756,1,0,0:0:0:70:L7---.wav
182,192,41756,1,0,0:0:0:70:7.wav
402,192,41959,1,0,0:0:0:70:3+.wav
329,192,41959,1,0,0:0:0:70:7.wav
109,192,41959,1,0,0:0:0:70:L2#-.wav
475,192,42162,1,0,0:0:0:70:4#+.wav
36,192,42162,1,0,0:0:0:70:L4#--.wav
329,192,42162,1,0,0:0:0:70:7.wav
329,192,42364,1,0,0:0:0:70:7.wav
402,192,42364,1,0,0:0:0:70:3+.wav
182,192,42364,1,0,0:0:0:70:L2#-.wav
475,192,42567,1,0,0:0:0:70:4#+.wav
36,192,42567,1,0,0:0:0:70:L7--.wav
256,192,42567,1,0,0:0:0:70:7.wav
329,192,42770,1,0,0:0:0:70:3+.wav
109,192,42770,1,0,0:0:0:70:L2#-.wav
402,192,42972,1,0,0:0:0:70:4#+.wav
182,192,42972,1,0,0:0:0:70:L4#--.wav
256,192,43175,1,0,0:0:0:70:2#+.wav
329,192,43175,1,0,0:0:0:70:1+.wav
475,192,43175,1,0,0:0:0:70:1++.wav
36,192,43175,1,0,0:0:0:70:L5#--.wav
109,192,43175,1,0,0:0:0:70:L5#---.wav
329,192,43581,1,0,0:0:0:70:1+.wav
475,192,43581,1,0,0:0:0:70:5#+.wav
256,192,43581,1,0,0:0:0:70:2#+.wav
36,192,43581,1,0,0:0:0:70:L5#--.wav
182,192,43581,1,0,0:0:0:70:L5#---.wav
402,192,43783,1,0,0:0:0:70:4#+.wav
475,192,43986,1,0,0:0:0:70:5#+.wav
256,192,43986,1,0,0:0:0:70:2#+.wav
329,192,43986,1,0,0:0:0:70:1+.wav
182,192,43986,1,0,0:0:0:70:L5#---.wav
36,192,43986,1,0,0:0:0:70:L5#--.wav
475,192,44189,1,0,0:0:0:70:5#+.wav
402,192,44239,1,0,0:0:0:70:3+.wav
329,192,44290,1,0,0:0:0:70:2#+.wav
256,192,44341,1,0,0:0:0:70:1#+.wav
182,192,44391,1,0,0:0:0:70:7.wav
109,192,44442,1,0,0:0:0:70:6.wav
475,192,44493,1,0,0:0:0:70:5#.wav
256,192,44493,1,0,0:0:0:70:L5#---.wav
36,192,44493,1,0,0:0:0:70:L5#--.wav
402,192,44543,1,0,0:0:0:70:4#.wav
329,192,44594,1,0,0:0:0:70:3.wav
256,192,44645,1,0,0:0:0:70:2#.wav
182,192,44695,1,0,0:0:0:70:1#.wav
109,192,44746,1,0,0:0:0:70:7-.wav
36,192,44797,1,0,0:0:0:70:6-.wav
182,192,44847,1,0,0:0:0:100:L5#-.wav
475,192,44898,1,0,0:0:0:100:L1-.wav
109,192,44898,1,0,0:0:0:70:L5#--.wav
256,192,44898,1,0,0:0:0:70:L5#---.wav
256,192,44999,1,0,0:0:0:70:L5#---.wav
109,192,44999,1,0,0:0:0:70:L5#--.wav
182,192,45202,1,0,0:0:0:70:1+.wav
475,192,45202,1,0,0:0:0:70:6+.wav
329,192,45202,1,0,0:0:0:70:2#+.wav
36,192,45202,1,0,0:0:0:70:L5#--.wav
402,192,45405,1,0,0:0:0:70:5#+.wav
329,192,45405,1,0,0:0:0:70:2#+.wav
256,192,45405,1,0,0:0:0:70:1+.wav
109,192,45405,1,0,0:0:0:70:L2#--.wav
475,192,45608,1,0,0:0:0:70:6+.wav
329,192,45608,1,0,0:0:0:70:2#+.wav
182,192,45608,1,0,0:0:0:70:1+.wav
36,192,45608,1,0,0:0:0:70:L1--.wav
402,192,45810,1,0,0:0:0:70:2#+.wav
256,192,45810,1,0,0:0:0:70:1+.wav
329,192,45810,1,0,0:0:0:70:5#+.wav
109,192,45810,1,0,0:0:0:70:L5#---.wav
36,192,45810,1,0,0:0:0:70:L5#--.wav
256,192,46216,1,0,0:0:0:70:1+++.wav
329,192,46216,1,0,0:0:0:70:1++.wav
475,192,46216,1,0,0:0:0:70:2#++.wav
182,192,46216,1,0,0:0:0:70:L5#---.wav
36,192,46216,1,0,0:0:0:70:L5#--.wav
36,192,46418,1,0,0:0:0:70:L5#--.wav
182,192,46418,1,0,0:0:0:70:L5#---.wav
475,192,46418,1,0,0:0:0:70:2#+.wav
329,192,46418,1,0,0:0:0:70:1+.wav
402,192,46418,1,0,0:0:0:70:6+.wav
402,192,46520,1,0,0:0:0:70:5#+.wav
329,192,46545,1,0,0:0:0:70:4#+.wav
256,192,46570,1,0,0:0:0:70:4+.wav
182,192,46596,1,0,0:0:0:70:3+.wav
109,192,46621,1,0,0:0:0:70:2#+.wav
36,192,46646,1,0,0:0:0:70:1#+.wav
475,192,46672,1,0,0:0:0:70:1+.wav
402,192,46697,1,0,0:0:0:70:7.wav
329,192,46722,1,0,0:0:0:70:6.wav
256,192,46748,1,0,0:0:0:70:5#.wav
182,192,46773,1,0,0:0:0:70:5.wav
109,192,46798,1,4,0:0:0:70:4#.wav
36,192,46824,1,4,0:0:0:70:3.wav
475,192,46849,1,0,0:0:0:70:2#.wav
402,192,46874,1,0,0:0:0:70:1#.wav
329,192,46900,1,0,0:0:0:70:1.wav
256,192,46925,1,0,0:0:0:70:5#+.wav
329,192,47027,1,0,0:0:0:70:1+.wav
402,192,47027,1,0,0:0:0:70:2#+.wav
475,192,47027,1,0,0:0:0:70:6+.wav
182,192,47027,1,0,0:0:0:70:L5#---.wav
36,192,47027,1,0,0:0:0:70:L5#--.wav
256,192,47229,1,0,0:0:0:70:1+.wav
329,192,47229,1,0,0:0:0:70:2#+.wav
402,192,47229,1,0,0:0:0:70:5#+.wav
36,192,47229,1,0,0:0:0:70:L5#--.wav
182,192,47229,1,0,0:0:0:70:L5#---.wav
256,192,47635,1,0,0:0:0:70:7-.wav
182,192,47635,1,0,0:0:0:70:L5#---.wav
36,192,47635,1,0,0:0:0:70:L5#--.wav
256,192,48040,1,0,0:0:0:70:3+.wav
36,192,48040,1,0,0:0:0:70:L1#--.wav
475,192,48040,1,0,0:0:0:70:1#++.wav
402,192,48040,1,0,0:0:0:70:5#+.wav
109,192,48243,1,0,0:0:0:70:L1#-.wav
182,192,48243,1,0,0:0:0:70:L3-.wav
36,192,48445,1,0,0:0:0:70:L5#---.wav
256,192,48445,1,0,0:0:0:70:3+.wav
329,192,48445,1,0,0:0:0:70:7+.wav
402,192,48445,1,0,0:0:0:70:5#+.wav
182,192,48648,1,0,0:0:0:70:L3-.wav
109,192,48648,1,0,0:0:0:70:L1#-.wav
475,192,48851,1,0,0:0:0:70:5#+.wav
329,192,48851,1,0,0:0:0:70:1#++.wav
256,192,48851,1,0,0:0:0:70:3+.wav
36,192,48851,1,0,0:0:0:70:L1#--.wav
402,192,48952,1,0,0:0:0:70:7+.wav
182,192,49054,1,0,0:0:0:70:L3-.wav
109,192,49054,1,0,0:0:0:70:L1#-.wav
475,192,49155,1,0,0:0:0:70:3+.wav
329,192,49155,1,0,0:0:0:70:5#+.wav
256,192,49256,1,0,0:0:0:70:L5#---.wav
475,192,49459,1,0,0:0:0:70:7+.wav
402,192,49459,1,0,0:0:0:70:3+.wav
109,192,49459,1,0,0:0:0:70:L1#-.wav
182,192,49459,1,0,0:0:0:70:L3-.wav
256,192,49662,1,0,0:0:0:70:4#+.wav
475,192,49662,1,0,0:0:0:70:1#++.wav
36,192,49662,1,0,0:0:0:70:L4#--.wav
329,192,49864,1,0,0:0:0:70:7+.wav
109,192,49864,1,0,0:0:0:70:L4#-.wav
182,192,49864,1,0,0:0:0:70:L6#-.wav
256,192,50067,1,0,0:0:0:70:4#+.wav
475,192,50067,1,0,0:0:0:70:1#++.wav
36,192,50067,1,0,0:0:0:70:L1#--.wav
329,192,50168,1,0,0:0:0:70:7+.wav
109,192,50270,1,0,0:0:0:70:L4#-.wav
182,192,50270,1,0,0:0:0:70:L6#-.wav
475,192,50371,1,0,0:0:0:70:1#++.wav
256,192,50371,1,0,0:0:0:70:4#+.wav
36,192,50472,1,0,0:0:0:70:L4#--.wav
182,192,50675,1,0,0:0:0:70:L4#-.wav
402,192,50675,1,0,0:0:0:70:L6#-.wav
36,192,50878,1,0,0:0:0:70:L1#--.wav
182,192,51081,1,0,0:0:0:70:L6#-.wav
109,192,51081,1,0,0:0:0:70:L4#-.wav
256,192,51081,1,0,0:0:0:70:5#+.wav
402,192,51081,1,0,0:0:0:70:5#.wav
36,192,51283,1,0,0:0:0:70:L2#--.wav
329,192,51283,1,0,0:0:0:70:6#+.wav
475,192,51283,1,0,0:0:0:70:6#.wav
36,192,51486,1,0,0:0:0:70:L2#-.wav
182,192,51486,1,0,0:0:0:70:L5#-.wav
256,192,51486,1,0,0:0:0:70:1+.wav
475,192,51486,1,0,0:0:0:70:1++.wav
256,192,51689,1,0,0:0:0:70:6#+.wav
402,192,51689,1,0,0:0:0:70:6#.wav
109,192,51689,1,0,0:0:0:70:L6---.wav
182,192,51891,1,0,0:0:0:70:L5#-.wav
36,192,51891,1,0,0:0:0:70:L2#-.wav
475,192,51891,1,0,0:0:0:70:1++.wav
329,192,51891,1,0,0:0:0:70:1+.wav
36,192,52094,1,0,0:0:0:70:L2#--.wav
256,192,52094,1,0,0:0:0:70:6#+.wav
402,192,52094,1,0,0:0:0:70:6#.wav
329,192,52297,1,0,0:0:0:70:1+.wav
475,192,52297,1,0,0:0:0:70:1++.wav
109,192,52297,1,0,0:0:0:70:L2#-.wav
182,192,52297,1,0,0:0:0:70:L5#-.wav
36,192,52499,1,0,0:0:0:70:L6---.wav
402,192,52499,1,0,0:0:0:70:1#++.wav
475,192,52499,1,0,0:0:0:70:1#+.wav
36,192,52702,1,0,0:0:0:70:L2#-.wav
182,192,52702,1,0,0:0:0:70:L5#-.wav
329,192,52702,1,0,0:0:0:70:1+.wav
475,192,52702,1,0,0:0:0:70:1++.wav
256,192,52702,1,0,0:0:0:70:2#+.wav
109,192,52905,1,0,0:0:0:70:L5#---.wav
182,192,53108,1,0,0:0:0:70:2#+.wav
329,192,53108,1,0,0:0:0:70:1+.wav
475,192,53108,1,0,0:0:0:70:5#+.wav
36,192,53310,1,0,0:0:0:70:L5#--.wav
109,192,53310,1,0,0:0:0:70:L1-.wav
329,192,53310,1,0,0:0:0:70:1+.wav
402,192,53310,1,0,0:0:0:70:4#+.wav
182,192,53513,1,0,0:0:0:70:L1--.wav
329,192,53513,1,0,0:0:0:70:1+.wav
475,192,53513,1,0,0:0:0:70:5#+.wav
402,192,53716,1,0,0:0:0:70:1+.wav
475,192,53716,1,0,0:0:0:70:1++.wav
256,192,53716,1,0,0:0:0:70:L1-.wav
109,192,53716,1,0,0:0:0:70:L5#--.wav
109,192,53918,1,0,0:0:0:70:L5#--.wav
36,192,53918,1,0,0:0:0:70:L5#---.wav
402,192,53918,1,0,0:0:0:70:5#+.wav
36,192,54121,1,0,0:0:0:70:L6#--.wav
182,192,54121,1,0,0:0:0:70:L6---.wav
402,192,54121,1,0,0:0:0:70:5#+.wav
329,192,54121,1,0,0:0:0:70:2#+.wav
256,192,54324,1,0,0:0:0:70:L1-.wav
109,192,54324,1,0,0:0:0:70:L1--.wav
475,192,54324,1,0,0:0:0:70:5#+.wav
402,192,54324,1,0,0:0:0:70:7+.wav
329,192,54527,1,0,0:0:0:70:5#+.wav
475,192,54527,1,0,0:0:0:70:1#++.wav
182,192,54527,1,0,0:0:0:70:3+.wav
36,192,54527,1,0,0:0:0:70:L1#--.wav
109,192,54729,1,0,0:0:0:70:L1#-.wav
402,192,54729,1,0,0:0:0:70:L3-.wav
329,192,54932,1,0,0:0:0:70:5#+.wav
475,192,54932,1,0,0:0:0:70:7+.wav
182,192,54932,1,0,0:0:0:70:3+.wav
36,192,54932,1,0,0:0:0:70:L5#---.wav
109,192,55135,1,0,0:0:0:70:L1#-.wav
402,192,55135,1,0,0:0:0:70:L3-.wav
36,192,55337,1,0,0:0:0:70:L5#---.wav
475,192,55337,1,0,0:0:0:70:1#++.wav
256,192,55337,1,0,0:0:0:70:3+.wav
402,192,55439,1,0,0:0:0:70:7+.wav
36,192,55540,1,0,0:0:0:70:L1#-.wav
182,192,55540,1,0,0:0:0:70:L3-.wav
256,192,55641,1,0,0:0:0:70:3+.wav
475,192,55641,1,0,0:0:0:70:5#+.wav
109,192,55743,1,0,0:0:0:70:L5#---.wav
36,192,55945,1,0,0:0:0:70:L1#-.wav
182,192,55945,1,0,0:0:0:70:L3-.wav
329,192,55945,1,0,0:0:0:70:7+.wav
402,192,55945,1,0,0:0:0:70:3+.wav
109,192,56148,1,0,0:0:0:70:L3--.wav
475,192,56148,1,0,0:0:0:70:1#++.wav
329,192,56148,1,0,0:0:0:70:3+.wav
329,192,56351,1,0,0:0:0:70:3+.wav
402,192,56351,1,0,0:0:0:70:7+.wav
256,192,56351,1,0,0:0:0:70:L3-.wav
109,192,56351,1,0,0:0:0:70:L7--.wav
329,192,56554,1,0,0:0:0:70:3+.wav
475,192,56554,1,0,0:0:0:70:1#++.wav
36,192,56554,1,0,0:0:0:70:L7---.wav
402,192,56655,1,0,0:0:0:70:7+.wav
109,192,56756,1,0,0:0:0:70:L3-.wav
256,192,56756,1,0,0:0:0:70:L7--.wav
475,192,56858,1,0,0:0:0:70:1#++.wav
329,192,56858,1,0,0:0:0:70:3+.wav
36,192,56959,1,0,0:0:0:70:L3--.wav
109,192,57162,1,0,0:0:0:70:L3-.wav
402,192,57162,1,0,0:0:0:70:L7--.wav
36,192,57364,1,0,0:0:0:70:L7---.wav
36,192,57567,1,0,0:0:0:70:L3-.wav
182,192,57567,1,0,0:0:0:70:L7--.wav
402,192,57567,1,0,0:0:0:70:5#.wav
329,192,57567,1,0,0:0:0:70:5#+.wav
475,192,57770,1,0,0:0:0:70:6+.wav
256,192,57770,1,0,0:0:0:70:6.wav
109,192,57770,1,0,0:0:0:70:L4#--.wav
329,192,57972,1,0,0:0:0:70:7+.wav
475,192,57972,1,0,0:0:0:70:7.wav
36,192,57972,1,0,0:0:0:70:L4#-.wav
182,192,57972,1,0,0:0:0:70:L6-.wav
256,192,58175,1,0,0:0:0:70:6.wav
475,192,58175,1,0,0:0:0:70:6+.wav
109,192,58175,1,0,0:0:0:70:L1#--.wav
329,192,58378,1,0,0:0:0:70:7+.wav
475,192,58378,1,0,0:0:0:70:7.wav
182,192,58378,1,0,0:0:0:70:L6-.wav
36,192,58378,1,0,0:0:0:70:L4#-.wav
475,192,58581,1,0,0:0:0:70:6+.wav
256,192,58581,1,0,0:0:0:70:6.wav
109,192,58581,1,0,0:0:0:70:L4#--.wav
182,192,58783,1,0,0:0:0:70:L6-.wav
36,192,58783,1,0,0:0:0:70:L4#-.wav
329,192,58783,1,0,0:0:0:70:7+.wav
475,192,58783,1,0,0:0:0:70:7.wav
475,192,58986,1,0,0:0:0:70:1#+.wav
402,192,58986,1,0,0:0:0:70:1#++.wav
109,192,58986,1,0,0:0:0:70:L1#--.wav
36,192,59189,1,0,0:0:0:70:L5#---.wav
182,192,59189,1,0,0:0:0:70:L5#--.wav
256,192,59189,1,0,0:0:0:70:2#+.wav
475,192,59189,1,0,0:0:0:70:1++.wav
329,192,59189,1,0,0:0:0:70:1+.wav
475,192,59594,1,0,0:0:0:70:5#+.wav
329,192,59594,1,0,0:0:0:70:1+.wav
256,192,59594,1,0,0:0:0:70:2#+.wav
182,192,59594,1,0,0:0:0:70:L5#--.wav
36,192,59594,1,0,0:0:0:70:L5#---.wav
402,192,59797,1,0,0:0:0:70:4#+.wav
475,192,59999,1,0,0:0:0:70:5#+.wav
329,192,59999,1,0,0:0:0:70:1+.wav
36,192,59999,1,0,0:0:0:70:L5#---.wav
182,192,59999,1,0,0:0:0:70:L5#--.wav
475,192,60202,1,0,0:0:0:70:1++.wav
402,192,60202,1,0,0:0:0:70:1+.wav
329,192,60405,1,0,0:0:0:70:5#+.wav
182,192,60405,1,0,0:0:0:70:L5#--.wav
36,192,60405,1,0,0:0:0:70:L5#---.wav
402,192,60608,1,0,0:0:0:70:2#++.wav
475,192,60608,1,0,0:0:0:70:5#+.wav
36,192,60608,1,0,0:0:0:70:L5#---.wav
182,192,60608,1,0,0:0:0:70:L5#--.wav
475,192,60810,1,0,0:0:0:70:1++.wav
256,192,60810,1,0,0:0:0:70:5#+.wav
36,192,61013,1,0,0:0:0:70:L5#---.wav
36,192,61216,1,0,0:0:0:70:L5#--.wav
182,192,61216,1,0,0:0:0:70:L1-.wav
475,192,61216,1,0,0:0:0:70:2#+.wav
256,192,61216,1,0,0:0:0:70:1+.wav
329,192,61216,1,0,0:0:0:70:5#+.wav
36,192,61418,1,0,0:0:0:70:L5#---.wav
256,192,61418,1,0,0:0:0:70:1+.wav
475,192,61418,1,0,0:0:0:70:2#+.wav
329,192,61418,1,0,0:0:0:70:5#+.wav
475,192,61621,1,0,0:0:0:70:2#+.wav
329,192,61621,1,0,0:0:0:70:5#+.wav
256,192,61621,1,0,0:0:0:70:1+.wav
182,192,61621,1,0,0:0:0:70:L1-.wav
36,192,61621,1,0,0:0:0:70:L5#--.wav
36,192,61824,1,0,0:0:0:70:L5#---.wav
256,192,61824,1,0,0:0:0:70:1+.wav
329,192,61824,1,0,0:0:0:70:5#+.wav
475,192,61824,1,0,0:0:0:70:2#+.wav
329,192,62027,1,0,0:0:0:70:5#+.wav
475,192,62027,1,0,0:0:0:70:2#+.wav
256,192,62027,1,0,0:0:0:70:1+.wav
36,192,62027,1,0,0:0:0:70:L5#--.wav
182,192,62027,1,0,0:0:0:70:L1-.wav
256,192,62229,1,0,0:0:0:70:1+.wav
475,192,62229,1,0,0:0:0:70:2#+.wav
329,192,62229,1,0,0:0:0:70:5#+.wav
36,192,62229,1,0,0:0:0:70:L5#---.wav
256,192,62432,1,0,0:0:0:70:1+.wav
475,192,62432,1,0,0:0:0:70:2#+.wav
329,192,62432,1,0,0:0:0:70:5#+.wav
182,192,62432,1,0,0:0:0:70:L1-.wav
36,192,62432,1,0,0:0:0:70:L5#--.wav
36,192,62635,1,0,0:0:0:70:L5#---.wav
475,192,62635,1,0,0:0:0:70:2#+.wav
329,192,62635,1,0,0:0:0:70:5#+.wav
256,192,62635,1,0,0:0:0:70:1+.wav
329,192,62837,1,0,0:0:0:70:5#+.wav
475,192,62837,1,0,0:0:0:70:2#+.wav
256,192,62837,1,0,0:0:0:70:1+.wav
36,192,62837,1,0,0:0:0:70:L5#--.wav
182,192,62837,1,0,0:0:0:70:L1-.wav
36,192,63040,1,0,0:0:0:70:L5#---.wav
475,192,63040,1,0,0:0:0:70:2#+.wav
329,192,63040,1,0,0:0:0:70:5#+.wav
256,192,63040,1,0,0:0:0:70:1+.wav
256,192,63243,1,0,0:0:0:70:1+.wav
475,192,63243,1,0,0:0:0:70:2#+.wav
329,192,63243,1,0,0:0:0:70:5#+.wav
182,192,63243,1,0,0:0:0:70:L1-.wav
36,192,63243,1,0,0:0:0:70:L5#--.wav
36,192,63445,1,0,0:0:0:70:L5#--.wav
402,192,63445,1,0,0:0:0:70:6+.wav
256,192,63445,1,0,0:0:0:70:1+.wav
329,192,63648,1,0,0:0:0:70:5#+.wav
256,192,63648,1,0,0:0:0:70:1+.wav
109,192,63648,1,0,0:0:0:70:L2#--.wav
256,192,63851,1,0,0:0:0:70:4#+.wav
182,192,63851,1,0,0:0:0:70:1+.wav
36,192,63851,1,0,0:0:0:70:L1--.wav
256,192,64054,1,0,0:0:0:70:1+.wav
329,192,64054,1,0,0:0:0:70:2#+.wav
475,192,64054,1,0,0:0:0:70:5#+.wav
109,192,64054,1,0,0:0:0:70:L5#---.wav
36,192,64054,1,0,0:0:0:70:L5#--.wav
475,192,64459,1,0,0:0:0:70:2#+.wav
329,192,64459,1,0,0:0:0:70:5#+.wav
36,192,64459,1,0,0:0:0:70:L5#--.wav
182,192,64459,1,0,0:0:0:70:L1-.wav
256,192,64560,1,0,0:0:0:70:1+.wav
475,192,64662,1,0,0:0:0:70:2#+.wav
329,192,64662,1,0,0:0:0:70:5#+.wav
36,192,64662,1,0,0:0:0:70:L5#---.wav
182,192,64864,1,0,0:0:0:70:L1-.wav
36,192,64864,1,0,0:0:0:70:L5#--.wav
475,192,64864,1,0,0:0:0:70:2#+.wav
329,192,64864,1,0,0:0:0:70:5#+.wav
256,192,64966,1,0,0:0:0:70:1+.wav
475,192,65067,1,0,0:0:0:70:2#+.wav
329,192,65067,1,0,0:0:0:70:5#+.wav
36,192,65067,1,0,0:0:0:70:L5#---.wav
329,192,65270,1,0,0:0:0:70:5#+.wav
475,192,65270,1,0,0:0:0:70:2#+.wav
36,192,65270,1,0,0:0:0:70:L5#--.wav
182,192,65270,1,0,0:0:0:70:L1-.wav
256,192,65371,1,0,0:0:0:70:1+.wav
475,192,65472,1,0,0:0:0:70:2#+.wav
329,192,65472,1,0,0:0:0:70:5#+.wav
36,192,65472,1,0,0:0:0:70:L5#---.wav
182,192,65675,1,0,0:0:0:70:L1-.wav
36,192,65675,1,0,0:0:0:70:L5#--.wav
329,192,65675,1,0,0:0:0:70:5#+.wav
475,192,65675,1,0,0:0:0:70:2#+.wav
256,192,65777,1,0,0:0:0:70:1+.wav
329,192,65878,1,0,0:0:0:70:5#+.wav
475,192,65878,1,0,0:0:0:70:2#+.wav
36,192,65878,1,0,0:0:0:70:L5#---.wav
329,192,66081,1,0,0:0:0:70:5#+.wav
475,192,66081,1,0,0:0:0:70:2#+.wav
36,192,66081,1,0,0:0:0:70:L5#--.wav
182,192,66081,1,0,0:0:0:70:L1-.wav
256,192,66182,1,0,0:0:0:70:1+.wav
475,192,66283,1,0,0:0:0:70:2#+.wav
329,192,66283,1,0,0:0:0:70:5#+.wav
36,192,66283,1,0,0:0:0:70:L5#---.wav
475,192,66486,1,0,0:0:0:70:2#+.wav
329,192,66486,1,0,0:0:0:70:5#+.wav
182,192,66486,1,0,0:0:0:70:L1-.wav
36,192,66486,1,0,0:0:0:70:L5#--.wav
256,192,66587,1,0,0:0:0:70:1+.wav
475,192,66689,1,0,0:0:0:70:6+.wav
36,192,66689,1,0,0:0:0:70:L5#---.wav
36,192,66891,1,0,0:0:0:70:L5#--.wav
182,192,66891,1,0,0:0:0:70:L1-.wav
329,192,66891,1,0,0:0:0:70:5#+.wav
256,192,66891,1,0,0:0:0:70:1+.wav
256,192,67094,1,0,0:0:0:70:1+.wav
402,192,67094,1,0,0:0:0:70:7+.wav
36,192,67094,1,0,0:0:0:70:L5#---.wav
475,192,67297,1,0,0:0:0:70:1++.wav
256,192,67297,1,0,0:0:0:70:1+.wav
182,192,67297,1,0,0:0:0:70:L1-.wav
36,192,67297,1,0,0:0:0:70:L5#--.wav
182,192,67499,1,0,0:0:0:70:L1#--.wav
402,192,67499,1,0,0:0:0:70:1#+.wav
36,192,67499,1,0,0:0:0:70:L1#-.wav
475,192,67499,1,0,0:0:0:70:1#++.wav
402,192,67905,1,0,0:0:0:70:7.wav
182,192,67905,1,0,0:0:0:70:7+.wav
36,192,67905,1,0,0:0:0:70:L7--.wav
256,192,67905,1,0,0:0:0:70:L7---.wav
36,192,68310,1,0,0:0:0:70:L5---.wav
329,192,68310,1,0,0:0:0:70:5.wav
475,192,68310,1,0,0:0:0:70:5+.wav
109,192,68412,1,0,0:0:0:70:L4#---.wav
256,192,68412,1,0,0:0:0:70:4#.wav
402,192,68412,1,0,0:0:0:70:4#+.wav
36,192,68513,1,0,0:0:0:70:L3---.wav
329,192,68513,1,0,0:0:0:70:3+.wav
182,192,68513,1,0,0:0:0:70:3.wav
182,192,68918,1,0,0:0:0:70:L7---.wav
36,192,68918,1,0,0:0:0:70:L7--.wav
402,192,68918,1,0,0:0:0:70:7.wav
256,192,68918,1,0,0:0:0:70:7+.wav
329,192,69324,1,0,0:0:0:70:5#.wav
182,192,69324,1,0,0:0:0:70:5#+.wav
36,192,69324,1,0,0:0:0:70:L5#---.wav
109,192,69527,1,0,0:0:0:70:L7---.wav
256,192,69527,1,0,0:0:0:70:7.wav
402,192,69527,1,0,0:0:0:70:7+.wav
182,192,69729,1,0,0:0:0:70:L1--.wav
329,192,69729,1,0,0:0:0:70:1+.wav
475,192,69729,1,0,0:0:0:70:1++.wav
182,192,69932,5,0,0:0:0:70:1#+.wav
36,192,69932,1,0,0:0:0:70:L1#--.wav
475,192,69932,1,0,0:0:0:70:1#++.wav
402,192,69983,1,0,0:0:0:70:1#++.wav
329,192,70008,1,0,0:0:0:70:1#++.wav
256,192,70033,1,0,0:0:0:70:7+.wav
182,192,70059,1,0,0:0:0:70:6+.wav
109,192,70084,1,0,0:0:0:70:5+.wav
36,192,70109,1,0,0:0:0:70:4#+.wav
475,192,70135,1,0,0:0:0:70:3+.wav
402,192,70160,1,0,0:0:0:70:2#+.wav
329,192,70185,1,0,0:0:0:70:1#+.wav
256,192,70211,1,0,0:0:0:70:7.wav
182,192,70236,1,0,0:0:0:70:6.wav
109,192,70261,1,0,0:0:0:70:5#.wav
36,192,70287,1,0,0:0:0:70:4#.wav
475,192,70312,1,0,0:0:0:70:3.wav
402,192,70337,1,0,0:0:0:70:2#.wav
329,192,70363,1,0,0:0:0:70:1#.wav
256,192,70388,1,0,0:0:0:70:L7-.wav
36,192,70439,1,0,0:0:0:70:L1#-.wav
182,192,70439,1,0,0:0:0:70:L1#--.wav
