osu file format v13

[General]
AudioFilename: 2m3.mp3
AudioLeadIn: 0
PreviewTime: -1
Countdown: 0
SampleSet: Soft
StackLeniency: 0.7
Mode: 3
LetterboxInBreaks: 0
SpecialStyle: 0
WidescreenStoryboard: 1

[Editor]
DistanceSpacing: 1.2
BeatDivisor: 4
GridSize: 4
TimelineZoom: 1.2

[Metadata]
Title:Piano Pack
TitleUnicode:Piano Pack
Artist:KawaEE
ArtistUnicode:KawaEE
Creator:KawaEE
Version:MX : umiyuri Kaitei Tan
Source:
Tags:Piano
BeatmapID:556211
BeatmapSetID:236952

[Difficulty]
HPDrainRate:7
CircleSize:7
OverallDifficulty:7
ApproachRate:5
SliderMultiplier:1.4
SliderTickRate:1

[Events]
//Background and Video events
0,0,"7777.jpg",0,0
//Break Periods
//Storyboard Layer 0 (Background)
//Storyboard Layer 1 (Fail)
//Storyboard Layer 2 (Pass)
//Storyboard Layer 3 (Foreground)
//Storyboard Sound Samples

[TimingPoints]
0,468.75,4,2,0,10,1,0

[HitObjects]
109,192,3750,128,0,4218:0:0:0:100:L2#-.wav
402,192,3750,128,0,4218:0:0:0:70:2#.wav
36,192,4687,1,0,0:0:0:70:L2#--.wav
36,192,4921,1,0,0:0:0:70:L2#--.wav
36,192,5156,1,0,0:0:0:70:L2#--.wav
36,192,5390,1,0,0:0:0:70:L2#--.wav
36,192,5625,1,0,0:0:0:70:L2#--.wav
402,192,5625,1,0,0:0:0:70:6#.wav
329,192,5859,1,0,0:0:0:70:4.wav
182,192,5859,1,0,0:0:0:70:L2#-.wav
109,192,5859,1,0,0:0:0:70:L6#--.wav
329,192,5976,1,0,0:0:0:70:4.wav
36,192,6093,1,0,0:0:0:70:L4--.wav
475,192,6093,1,0,0:0:0:70:1+.wav
402,192,6328,1,0,0:0:0:70:6#.wav
256,192,6328,1,0,0:0:0:70:L4-.wav
109,192,6328,1,0,0:0:0:70:L1-.wav
402,192,6445,1,0,0:0:0:70:6#.wav
36,192,6562,1,0,0:0:0:70:L5--.wav
475,192,6562,1,0,0:0:0:70:2+.wav
329,192,6796,1,0,0:0:0:70:4+.wav
182,192,6796,1,0,0:0:0:70:L2-.wav
109,192,6796,1,0,0:0:0:70:L5-.wav
329,192,6914,1,0,0:0:0:70:4+.wav
36,192,7031,1,0,0:0:0:70:L5--.wav
475,192,7031,1,0,0:0:0:70:5+.wav
182,192,7265,1,0,0:0:0:70:L5-.wav
109,192,7265,1,0,0:0:0:70:L2-.wav
402,192,7265,1,0,0:0:0:70:2+.wav
329,192,7382,1,0,0:0:0:70:1+.wav
36,192,7500,1,0,0:0:0:70:L2#--.wav
256,192,7500,1,0,0:0:0:70:6#.wav
182,192,7734,1,0,0:0:0:70:L2-.wav
109,192,7734,1,0,0:0:0:70:L6#--.wav
475,192,7734,1,0,0:0:0:70:2+.wav
475,192,7851,1,0,0:0:0:70:2+.wav
402,192,7968,1,0,0:0:0:70:1+.wav
36,192,7968,1,0,0:0:0:70:L4--.wav
329,192,8085,1,0,0:0:0:70:6#.wav
109,192,8203,1,0,0:0:0:70:L1-.wav
182,192,8203,1,0,0:0:0:70:L4-.wav
329,192,8203,1,0,0:0:0:70:6#.wav
402,192,8320,1,0,0:0:0:70:1+.wav
36,192,8437,1,0,0:0:0:70:L5--.wav
475,192,8437,1,0,0:0:0:70:2+.wav
256,192,8671,1,0,0:0:0:70:L5-.wav
109,192,8671,1,0,0:0:0:70:L2-.wav
402,192,8671,1,0,0:0:0:70:4+.wav
329,192,8906,1,0,0:0:0:70:2+.wav
36,192,8906,1,0,0:0:0:70:L5--.wav
475,192,9140,1,0,0:0:0:70:L5-.wav
109,192,9140,1,0,0:0:0:70:L2-.wav
256,192,9140,1,2,0:0:0:0:
402,192,9375,1,0,0:0:0:70:6#.wav
36,192,9375,1,0,0:0:0:70:L2#--.wav
182,192,9609,1,0,0:0:0:70:L2#-.wav
109,192,9609,1,0,0:0:0:70:L6#--.wav
329,192,9609,1,0,0:0:0:70:4.wav
36,192,9843,1,0,0:0:0:70:L4--.wav
475,192,9843,1,0,0:0:0:70:1+.wav
182,192,10078,1,0,0:0:0:70:L4-.wav
109,192,10078,1,0,0:0:0:70:L1-.wav
402,192,10078,1,0,0:0:0:70:6#.wav
402,192,10195,1,0,0:0:0:70:6#.wav
36,192,10312,1,0,0:0:0:70:L5--.wav
475,192,10312,1,0,0:0:0:70:2+.wav
475,192,10429,1,0,0:0:0:70:2+.wav
329,192,10546,1,0,0:0:0:70:4+.wav
109,192,10546,1,0,0:0:0:70:L2-.wav
256,192,10546,1,0,0:0:0:70:L5-.wav
36,192,10781,1,0,0:0:0:70:L5--.wav
475,192,10781,1,0,0:0:0:70:2+.wav
109,192,11015,1,0,0:0:0:70:L2-.wav
256,192,11015,1,0,0:0:0:70:L5-.wav
402,192,11015,1,0,0:0:0:70:1+.wav
329,192,11250,1,0,0:0:0:70:6#.wav
36,192,11250,1,0,0:0:0:70:L2#--.wav
109,192,11484,1,0,0:0:0:70:L2#-.wav
182,192,11484,1,0,0:0:0:70:L6#--.wav
475,192,11484,1,0,0:0:0:70:2+.wav
36,192,11718,1,0,0:0:0:70:L4--.wav
402,192,11718,1,0,0:0:0:70:1+.wav
475,192,11953,1,0,0:0:0:70:2+.wav
256,192,11953,1,0,0:0:0:70:L4-.wav
109,192,11953,1,0,0:0:0:70:L1-.wav
329,192,12187,1,0,0:0:0:70:6#.wav
256,192,12187,1,0,0:0:0:70:L4-.wav
109,192,12187,1,0,0:0:0:70:L6#--.wav
36,192,12187,1,0,0:0:0:70:L6#-.wav
109,192,12421,1,0,0:0:0:70:L6#--.wav
256,192,12421,1,0,0:0:0:70:L4-.wav
36,192,12421,1,0,0:0:0:70:L6#-.wav
36,192,12656,1,0,0:0:0:70:L6#-.wav
256,192,12656,1,0,0:0:0:70:L4-.wav
109,192,12656,1,0,0:0:0:70:L6#--.wav
329,192,12890,1,0,0:0:0:70:2+.wav
402,192,13007,1,0,0:0:0:70:4+.wav
475,192,13125,1,0,0:0:0:70:5+.wav
36,192,13125,1,0,0:0:0:70:L2#--.wav
256,192,13359,1,0,0:0:0:70:L2#-.wav
109,192,13359,1,0,0:0:0:70:L6#--.wav
475,192,13359,1,0,0:0:0:70:5+.wav
36,192,13593,1,0,0:0:0:70:L4--.wav
475,192,13593,1,0,0:0:0:70:5+.wav
182,192,13828,1,0,0:0:0:70:L4-.wav
109,192,13828,1,0,0:0:0:70:L1-.wav
402,192,13828,1,0,0:0:0:70:4+.wav
329,192,13945,1,0,0:0:0:70:2+.wav
256,192,14062,1,0,0:0:0:70:1+.wav
36,192,14062,1,0,0:0:0:70:L5--.wav
109,192,14296,1,0,0:0:0:70:L2-.wav
182,192,14296,1,0,0:0:0:70:L5-.wav
475,192,14296,1,0,0:0:0:70:2+.wav
36,192,14531,1,0,0:0:0:70:L5--.wav
329,192,14531,1,0,0:0:0:70:6#.wav
109,192,14765,1,0,0:0:0:70:L2-.wav
256,192,14765,1,0,0:0:0:70:L5-.wav
36,192,15000,1,0,0:0:0:70:L2#--.wav
402,192,15000,1,0,0:0:0:70:1+.wav
475,192,15234,1,0,0:0:0:70:2+.wav
109,192,15234,1,0,0:0:0:70:L6#--.wav
256,192,15234,1,0,0:0:0:70:L2#-.wav
36,192,15468,1,0,0:0:0:70:L4--.wav
402,192,15468,1,0,0:0:0:70:1+.wav
475,192,15703,1,0,0:0:0:70:4+.wav
182,192,15703,1,0,0:0:0:70:L4-.wav
109,192,15703,1,0,0:0:0:70:L1-.wav
329,192,15937,1,0,0:0:0:70:2+.wav
36,192,15937,1,0,0:0:0:70:L5--.wav
109,192,16171,1,0,0:0:0:70:L2-.wav
256,192,16171,1,0,0:0:0:70:L5-.wav
36,192,16406,1,0,0:0:0:70:L5--.wav
329,192,16406,1,0,0:0:0:70:2+.wav
402,192,16640,1,0,0:0:0:70:1+.wav
109,192,16640,1,0,0:0:0:70:L2-.wav
256,192,16640,1,0,0:0:0:70:L5-.wav
329,192,16757,1,0,0:0:0:70:6#.wav
475,192,16875,1,0,0:0:0:70:5+.wav
36,192,16875,1,0,0:0:0:70:L2#--.wav
475,192,17109,1,0,0:0:0:70:5+.wav
256,192,17109,1,0,0:0:0:70:L6#--.wav
109,192,17109,1,0,0:0:0:70:L2#-.wav
475,192,17343,1,0,0:0:0:70:5+.wav
36,192,17343,1,0,0:0:0:70:L4--.wav
402,192,17578,1,0,0:0:0:70:4+.wav
182,192,17578,1,0,0:0:0:70:L4-.wav
109,192,17578,1,0,0:0:0:70:L1-.wav
329,192,17695,1,0,0:0:0:70:2+.wav
256,192,17812,1,0,0:0:0:70:1+.wav
36,192,17812,1,0,0:0:0:70:L5--.wav
475,192,18046,1,0,0:0:0:70:2+.wav
109,192,18046,1,0,0:0:0:70:L2-.wav
182,192,18046,1,0,0:0:0:70:L5-.wav
329,192,18281,1,0,0:0:0:70:6#.wav
36,192,18281,1,0,0:0:0:70:L5--.wav
475,192,18515,1,0,0:0:0:70:2+.wav
109,192,18515,1,0,0:0:0:70:L2-.wav
182,192,18515,1,0,0:0:0:70:L5-.wav
36,192,18750,1,0,0:0:0:70:L2#--.wav
402,192,18750,1,0,0:0:0:70:1+.wav
475,192,18984,1,0,0:0:0:70:2+.wav
109,192,18984,1,0,0:0:0:70:L2#-.wav
256,192,18984,1,0,0:0:0:70:L6#--.wav
36,192,19218,1,0,0:0:0:70:L4--.wav
402,192,19218,1,0,0:0:0:70:1+.wav
475,192,19453,1,0,0:0:0:70:4+.wav
109,192,19453,1,0,0:0:0:70:L1-.wav
182,192,19453,1,0,0:0:0:70:L4-.wav
329,192,19687,1,0,0:0:0:70:6#.wav
36,192,19687,1,0,0:0:0:70:L6#--.wav
109,192,19921,1,0,0:0:0:70:L4-.wav
256,192,19921,1,0,0:0:0:70:L6#-.wav
329,192,20156,1,0,0:0:0:70:1+.wav
36,192,20156,1,0,0:0:0:70:L6#--.wav
402,192,20273,1,0,0:0:0:70:2+.wav
475,192,20390,1,0,0:0:0:70:4+.wav
402,192,20625,1,0,0:0:0:70:5+.wav
402,192,20859,1,0,0:0:0:70:5+.wav
402,192,21093,1,0,0:0:0:70:5+.wav
329,192,21328,1,0,0:0:0:70:4+.wav
182,192,21445,1,0,0:0:0:70:2+.wav
109,192,21562,1,0,0:0:0:70:1+.wav
182,192,21796,1,0,0:0:0:70:2+.wav
36,192,22031,1,0,0:0:0:70:6#.wav
182,192,22265,1,0,0:0:0:70:2+.wav
109,192,22500,1,0,0:0:0:70:1+.wav
182,192,22734,1,0,0:0:0:70:2+.wav
109,192,22968,1,0,0:0:0:70:1+.wav
329,192,23203,1,0,0:0:0:70:4+.wav
182,192,23437,1,0,0:0:0:70:2+.wav
475,192,23671,1,2,0:0:0:0:
36,192,23671,1,2,0:0:0:0:
329,192,23906,1,0,0:0:0:70:2+.wav
256,192,24023,1,0,0:0:0:70:1+.wav
109,192,24140,1,0,0:0:0:70:6#.wav
475,192,24375,1,0,0:0:0:70:5+.wav
475,192,24609,1,0,0:0:0:70:5+.wav
475,192,24843,1,0,0:0:0:70:5+.wav
402,192,25078,1,0,0:0:0:70:4+.wav
256,192,25195,1,0,0:0:0:70:2+.wav
182,192,25312,1,0,0:0:0:70:1+.wav
329,192,25546,1,0,0:0:0:70:6+.wav
475,192,25781,1,0,0:0:0:70:6#+.wav
256,192,26015,1,0,0:0:0:70:2+.wav
182,192,26132,1,0,0:0:0:70:1+.wav
36,192,26250,1,0,0:0:0:70:5.wav
182,192,26484,1,0,0:0:0:70:1+.wav
475,192,26718,1,0,0:0:0:70:4+.wav
402,192,26953,1,0,0:0:0:70:2+.wav
329,192,27070,1,0,0:0:0:70:1+.wav
402,192,27187,1,0,0:0:0:70:6#.wav
36,192,27187,1,0,0:0:0:70:L4-.wav
109,192,27187,1,0,0:0:0:70:L6#-.wav
182,192,27187,1,0,0:0:0:70:L6#--.wav
36,192,27421,1,0,0:0:0:70:L4-.wav
109,192,27421,1,0,0:0:0:70:L6#-.wav
182,192,27421,1,0,0:0:0:70:L6#--.wav
329,192,27656,1,0,0:0:0:70:5.wav
182,192,27656,1,0,0:0:0:70:L6#--.wav
109,192,27656,1,0,0:0:0:70:L6#-.wav
36,192,27656,1,0,0:0:0:70:L4-.wav
256,192,27890,1,0,0:0:0:70:4.wav
36,192,28125,1,0,0:0:0:70:L2#--.wav
182,192,28359,1,0,0:0:0:70:L2#-.wav
475,192,28359,1,0,0:0:0:70:2+.wav
36,192,28593,1,0,0:0:0:70:L2#--.wav
475,192,28828,1,0,0:0:0:70:2+.wav
182,192,28828,1,0,0:0:0:70:L2#-.wav
36,192,29062,1,0,0:0:0:70:L2#--.wav
402,192,29062,1,0,0:0:0:70:1+.wav
182,192,29296,1,0,0:0:0:70:L2#-.wav
329,192,29296,1,0,0:0:0:70:6#.wav
256,192,29531,1,0,0:0:0:70:6.wav
36,192,29531,1,0,0:0:0:70:L2#--.wav
402,192,29765,1,0,0:0:0:70:1+.wav
182,192,29765,1,0,0:0:0:70:L2#-.wav
36,192,30000,1,0,0:0:0:70:L4--.wav
329,192,30000,1,0,0:0:0:70:6#.wav
256,192,30234,1,0,0:0:0:70:L4-.wav
36,192,30468,1,0,0:0:0:70:L4--.wav
256,192,30703,1,0,0:0:0:70:L4-.wav
475,192,30703,1,0,0:0:0:70:4.wav
475,192,30937,1,0,0:0:0:70:4.wav
36,192,30937,1,0,0:0:0:70:L2--.wav
109,192,31171,1,0,0:0:0:70:L2-.wav
402,192,31171,1,0,0:0:0:70:2#.wav
36,192,31406,1,0,0:0:0:70:L2--.wav
329,192,31406,1,0,0:0:0:70:2.wav
329,192,31640,1,0,0:0:0:70:2.wav
109,192,31640,1,0,0:0:0:70:L2-.wav
36,192,31875,1,0,0:0:0:70:L2#--.wav
475,192,32109,1,0,0:0:0:70:2+.wav
182,192,32109,1,0,0:0:0:70:L2#-.wav
475,192,32343,1,0,0:0:0:70:2+.wav
36,192,32343,1,0,0:0:0:70:L2#--.wav
182,192,32578,1,0,0:0:0:70:L2#-.wav
475,192,32578,1,0,0:0:0:70:2+.wav
36,192,32812,1,0,0:0:0:70:L2#--.wav
402,192,32812,1,0,0:0:0:70:1+.wav
329,192,33046,1,0,0:0:0:70:6#.wav
182,192,33046,1,0,0:0:0:70:L2#-.wav
36,192,33281,1,0,0:0:0:70:L2#--.wav
256,192,33281,1,0,0:0:0:70:6.wav
182,192,33515,1,0,0:0:0:70:L2#-.wav
329,192,33515,1,0,0:0:0:70:4.wav
329,192,33750,1,0,0:0:0:70:4.wav
36,192,33750,1,0,0:0:0:70:L4--.wav
109,192,33984,1,0,0:0:0:70:L4-.wav
475,192,33984,1,0,0:0:0:70:2+.wav
36,192,34218,1,0,0:0:0:70:L4--.wav
475,192,34218,1,0,0:0:0:70:1+.wav
109,192,34453,1,0,0:0:0:70:L4-.wav
402,192,34453,1,0,0:0:0:70:6#.wav
36,192,34687,1,0,0:0:0:70:L6#--.wav
475,192,34687,1,0,0:0:0:70:2+.wav
182,192,34921,1,0,0:0:0:70:L6#-.wav
402,192,35156,1,0,0:0:0:70:1+.wav
36,192,35156,1,0,0:0:0:70:L6#--.wav
329,192,35390,1,0,0:0:0:70:6#.wav
182,192,35390,1,0,0:0:0:70:L6#-.wav
36,192,35625,1,0,0:0:0:70:L2#--.wav
109,192,35859,1,0,0:0:0:70:L2#-.wav
182,192,35859,1,0,0:0:0:70:4.wav
402,192,35859,1,0,0:0:0:70:2#.wav
475,192,36093,1,0,0:0:0:70:2+.wav
256,192,36093,1,0,0:0:0:70:6#.wav
36,192,36093,1,0,0:0:0:70:L2#--.wav
109,192,36328,1,0,0:0:0:70:L2#-.wav
475,192,36328,1,0,0:0:0:70:2+.wav
329,192,36328,1,0,0:0:0:70:4+.wav
36,192,36562,1,0,0:0:0:70:L2#--.wav
109,192,36796,1,0,0:0:0:70:L2#-.wav
256,192,36796,1,0,0:0:0:70:6#.wav
475,192,36796,1,0,0:0:0:70:2+.wav
329,192,37031,1,0,0:0:0:70:6.wav
182,192,37031,1,0,0:0:0:70:4.wav
36,192,37031,1,0,0:0:0:70:L2#--.wav
402,192,37265,1,0,0:0:0:70:6#.wav
256,192,37265,1,0,0:0:0:70:5.wav
109,192,37265,1,0,0:0:0:70:L2#-.wav
36,192,37500,1,0,0:0:0:70:L4--.wav
109,192,37734,1,0,0:0:0:70:L4-.wav
329,192,37734,1,0,0:0:0:70:2#.wav
182,192,37734,1,0,0:0:0:70:4.wav
402,192,37968,1,0,0:0:0:70:6#.wav
256,192,37968,1,0,0:0:0:70:5.wav
36,192,37968,1,0,0:0:0:70:L4--.wav
109,192,38203,1,0,0:0:0:70:L4-.wav
475,192,38203,1,0,0:0:0:70:2+.wav
329,192,38203,1,0,0:0:0:70:4+.wav
36,192,38437,1,0,0:0:0:70:L2--.wav
109,192,38671,1,0,0:0:0:70:L2-.wav
329,192,38671,1,0,0:0:0:70:6.wav
475,192,38671,1,0,0:0:0:70:2+.wav
329,192,38906,1,0,0:0:0:70:6.wav
182,192,38906,1,0,0:0:0:70:4.wav
36,192,38906,1,0,0:0:0:70:L2--.wav
109,192,39140,1,0,0:0:0:70:L2-.wav
329,192,39140,1,0,0:0:0:70:6.wav
475,192,39140,1,0,0:0:0:70:1+.wav
182,192,39375,1,0,0:0:0:70:5.wav
402,192,39375,1,0,0:0:0:70:6#.wav
36,192,39375,1,0,0:0:0:70:L2#--.wav
256,192,39609,1,0,0:0:0:70:L2#-.wav
36,192,39843,1,0,0:0:0:70:L2#--.wav
109,192,40078,1,0,0:0:0:70:L2#-.wav
402,192,40078,1,0,0:0:0:70:2.wav
182,192,40078,1,0,0:0:0:70:4.wav
36,192,40312,1,0,0:0:0:70:L2#--.wav
475,192,40312,1,0,0:0:0:70:6#.wav
256,192,40312,1,0,0:0:0:70:2#.wav
182,192,40546,1,0,0:0:0:70:L2#-.wav
36,192,40781,1,0,0:0:0:70:L2#--.wav
182,192,41015,1,0,0:0:0:70:L2#-.wav
402,192,41015,1,0,0:0:0:70:2#.wav
256,192,41015,1,0,0:0:0:70:6#.wav
36,192,41250,1,0,0:0:0:70:L4--.wav
329,192,41250,1,0,0:0:0:70:4+.wav
475,192,41250,1,0,0:0:0:70:1+.wav
109,192,41484,1,0,0:0:0:70:L1-.wav
256,192,41484,1,0,0:0:0:70:4.wav
402,192,41484,1,0,0:0:0:70:6#.wav
475,192,41718,1,0,0:0:0:70:2#+.wav
36,192,41718,1,0,0:0:0:70:L4-.wav
329,192,41718,1,0,0:0:0:70:4.wav
182,192,41953,1,0,0:0:0:70:L6-.wav
36,192,42187,1,0,0:0:0:70:L4-.wav
475,192,42187,1,0,0:0:0:70:2+.wav
256,192,42187,1,0,0:0:0:70:4.wav
329,192,42656,1,0,0:0:0:70:6.wav
36,192,42656,1,0,0:0:0:70:L4--.wav
329,192,42890,1,0,0:0:0:70:6.wav
402,192,43125,1,0,0:0:0:70:6#.wav
36,192,43125,1,0,0:0:0:70:L2-.wav
109,192,43125,1,0,0:0:0:70:L5-.wav
256,192,43125,1,0,0:0:0:70:L5--.wav
402,192,43359,1,0,0:0:0:70:6#.wav
109,192,43359,1,0,0:0:0:70:L5-.wav
256,192,43359,1,0,0:0:0:70:L5--.wav
36,192,43359,1,0,0:0:0:70:L2-.wav
402,192,43593,1,0,0:0:0:70:6#.wav
182,192,43593,1,0,0:0:0:70:L6#--.wav
329,192,43828,1,0,0:0:0:70:4.wav
109,192,43828,1,0,0:0:0:70:L2-.wav
256,192,44062,1,0,0:0:0:70:L6#--.wav
109,192,44062,1,0,0:0:0:70:L2-.wav
475,192,44062,1,0,0:0:0:70:1+.wav
36,192,44062,1,0,0:0:0:70:L2#--.wav
329,192,44531,1,0,0:0:0:70:6#.wav
329,192,44765,1,0,0:0:0:70:6#.wav
109,192,44765,1,0,0:0:0:70:L2#-.wav
256,192,45000,1,0,0:0:0:70:L4--.wav
402,192,45000,1,0,0:0:0:70:1+.wav
182,192,45000,1,0,0:0:0:70:L4-.wav
36,192,45000,1,0,0:0:0:70:L1-.wav
329,192,45234,1,0,0:0:0:70:6#.wav
329,192,45468,1,0,0:0:0:70:6#.wav
475,192,45703,1,0,0:0:0:70:2#+.wav
402,192,45937,1,0,0:0:0:70:2+.wav
109,192,45937,1,0,0:0:0:70:L4-.wav
256,192,45937,1,0,0:0:0:70:L2-.wav
36,192,45937,1,0,0:0:0:70:L6#--.wav
36,192,46171,1,0,0:0:0:70:L6#--.wav
109,192,46171,1,0,0:0:0:70:L4-.wav
256,192,46171,1,0,0:0:0:70:L2-.wav
475,192,46406,1,0,0:0:0:70:2+.wav
402,192,46523,1,0,0:0:0:70:1+.wav
329,192,46640,1,0,0:0:0:70:6#.wav
402,192,46757,1,0,0:0:0:70:6.wav
36,192,46875,1,0,0:0:0:70:L2-.wav
109,192,46875,1,0,0:0:0:70:L5-.wav
256,192,46875,1,0,0:0:0:70:L5--.wav
475,192,46875,1,0,0:0:0:70:6#.wav
109,192,47343,1,0,0:0:0:70:L5-.wav
329,192,47343,1,0,0:0:0:70:6#.wav
36,192,47343,1,0,0:0:0:70:L2-.wav
402,192,47578,1,0,0:0:0:70:2+.wav
36,192,47812,1,0,0:0:0:70:L6#--.wav
109,192,47812,1,0,0:0:0:70:L4-.wav
256,192,47812,1,0,0:0:0:70:L2-.wav
475,192,47812,1,0,0:0:0:70:4+.wav
329,192,48046,1,0,0:0:0:70:6#.wav
256,192,48046,1,0,0:0:0:70:L2-.wav
109,192,48046,1,0,0:0:0:70:L4-.wav
36,192,48046,1,0,0:0:0:70:L6#--.wav
329,192,48281,1,0,0:0:0:70:6#.wav
36,192,48281,1,0,0:0:0:70:L2#-.wav
109,192,48281,1,0,0:0:0:70:L6#-.wav
329,192,48515,1,0,0:0:0:70:6#.wav
402,192,48750,1,0,0:0:0:70:1+.wav
109,192,48750,1,0,0:0:0:70:L4--.wav
256,192,48750,1,0,0:0:0:70:L4-.wav
36,192,48750,1,0,0:0:0:70:L1-.wav
475,192,48984,1,0,0:0:0:70:2+.wav
109,192,48984,1,0,0:0:0:70:L4--.wav
256,192,48984,1,0,0:0:0:70:L4-.wav
36,192,48984,1,0,0:0:0:70:L1-.wav
402,192,49218,1,0,0:0:0:70:1+.wav
256,192,49218,1,0,0:0:0:70:L4-.wav
329,192,49453,1,0,0:0:0:70:6#.wav
36,192,49453,1,0,0:0:0:70:L4--.wav
36,192,49687,1,0,0:0:0:70:L6#-.wav
402,192,49687,1,0,0:0:0:70:6#.wav
109,192,49687,1,0,0:0:0:70:L6#--.wav
256,192,49687,1,0,0:0:0:70:L4--.wav
256,192,49921,1,0,0:0:0:70:L4--.wav
36,192,49921,1,0,0:0:0:70:L6#-.wav
109,192,49921,1,0,0:0:0:70:L6#--.wav
475,192,50156,1,0,0:0:0:70:6#.wav
182,192,50156,1,0,0:0:0:70:L6#--.wav
402,192,50390,1,0,0:0:0:70:6.wav
109,192,50390,1,0,0:0:0:70:L6#-.wav
475,192,50625,1,0,0:0:0:70:6#.wav
329,192,50625,1,0,0:0:0:70:2.wav
36,192,50625,1,0,0:0:0:70:L5--.wav
329,192,50859,1,0,0:0:0:70:2.wav
475,192,50859,1,0,0:0:0:70:6#.wav
182,192,50859,1,0,0:0:0:70:L5-.wav
109,192,50859,1,0,0:0:0:70:L2-.wav
475,192,51093,1,0,0:0:0:70:6#.wav
329,192,51093,1,0,0:0:0:70:2.wav
36,192,51093,1,0,0:0:0:70:L5--.wav
256,192,51328,1,0,0:0:0:70:4.wav
402,192,51328,1,0,0:0:0:100:L6#-.wav
109,192,51328,1,0,0:0:0:70:L5-.wav
182,192,51328,1,0,0:0:0:70:L2-.wav
256,192,51562,1,0,0:0:0:70:4.wav
475,192,51562,1,0,0:0:0:70:1+.wav
109,192,51562,1,0,0:0:0:70:L2-.wav
182,192,51562,1,0,0:0:0:70:L6#--.wav
36,192,51562,1,0,0:0:0:70:L2#--.wav
182,192,51796,1,0,0:0:0:70:L6#--.wav
109,192,51796,1,0,0:0:0:70:L2-.wav
36,192,51796,1,0,0:0:0:70:L2#--.wav
329,192,52031,1,0,0:0:0:70:6#.wav
402,192,52031,1,0,0:0:0:70:4.wav
256,192,52031,1,0,0:0:0:70:L6#--.wav
36,192,52031,1,0,0:0:0:70:L2#-.wav
329,192,52265,1,0,0:0:0:70:6#.wav
402,192,52265,1,0,0:0:0:70:4.wav
109,192,52265,1,0,0:0:0:70:L2#--.wav
475,192,52500,1,0,0:0:0:70:1+.wav
256,192,52500,1,0,0:0:0:70:5.wav
36,192,52500,1,0,0:0:0:70:L4--.wav
402,192,52734,1,0,0:0:0:70:4.wav
329,192,52734,1,0,0:0:0:70:6#.wav
109,192,52734,1,0,0:0:0:70:L1-.wav
182,192,52734,1,0,0:0:0:70:L4-.wav
329,192,52968,1,0,0:0:0:70:6#.wav
402,192,52968,1,0,0:0:0:70:4.wav
36,192,52968,1,0,0:0:0:70:L4--.wav
256,192,53203,1,0,0:0:0:70:1+.wav
475,192,53203,1,0,0:0:0:70:2#+.wav
109,192,53203,1,0,0:0:0:70:L1-.wav
182,192,53203,1,0,0:0:0:70:L4-.wav
475,192,53437,1,0,0:0:0:70:2+.wav
256,192,53437,1,0,0:0:0:70:6#.wav
36,192,53437,1,0,0:0:0:70:L6#-.wav
109,192,53437,1,0,0:0:0:70:L6#--.wav
182,192,53437,1,0,0:0:0:70:L4--.wav
109,192,53671,1,0,0:0:0:70:L6#--.wav
182,192,53671,1,0,0:0:0:70:L4--.wav
36,192,53671,1,0,0:0:0:70:L6#-.wav
475,192,53906,1,0,0:0:0:70:2+.wav
36,192,53906,1,0,0:0:0:70:L6#--.wav
182,192,53906,1,0,0:0:0:70:L4--.wav
402,192,54023,1,0,0:0:0:70:1+.wav
329,192,54140,1,0,0:0:0:70:6#.wav
109,192,54140,1,0,0:0:0:70:L6#--.wav
402,192,54257,1,0,0:0:0:70:6.wav
475,192,54375,1,0,0:0:0:70:2.wav
256,192,54375,1,0,0:0:0:70:6#.wav
36,192,54375,1,0,0:0:0:70:L5--.wav
109,192,54609,1,0,0:0:0:70:L2-.wav
182,192,54609,1,0,0:0:0:70:L5-.wav
402,192,54843,1,0,0:0:0:70:6#.wav
256,192,54843,1,0,0:0:0:70:2.wav
36,192,54843,1,0,0:0:0:70:L5--.wav
109,192,55078,1,0,0:0:0:70:L2-.wav
182,192,55078,1,0,0:0:0:70:L5-.wav
475,192,55078,1,0,0:0:0:70:2+.wav
329,192,55078,1,0,0:0:0:70:4.wav
256,192,55312,1,0,0:0:0:70:L6#--.wav
109,192,55312,1,0,0:0:0:70:L2-.wav
329,192,55312,1,0,0:0:0:70:5.wav
475,192,55312,1,0,0:0:0:70:2#+.wav
36,192,55312,1,0,0:0:0:70:L2--.wav
256,192,55546,1,0,0:0:0:70:L6#--.wav
402,192,55546,1,0,0:0:0:70:2+.wav
329,192,55546,1,0,0:0:0:70:4.wav
109,192,55546,1,0,0:0:0:70:L2-.wav
36,192,55546,1,0,0:0:0:70:L2--.wav
182,192,55781,1,0,0:0:0:70:L2-.wav
36,192,55781,1,0,0:0:0:70:L6--.wav
402,192,55781,1,0,0:0:0:70:1+.wav
256,192,55781,1,0,0:0:0:70:1.wav
36,192,56015,1,0,0:0:0:70:L2--.wav
329,192,56015,1,0,0:0:0:100:L6#-.wav
182,192,56015,1,0,0:0:0:70:6#.wav
36,192,56250,1,0,0:0:0:70:L2#--.wav
256,192,56250,1,0,0:0:0:70:2.wav
402,192,56250,1,0,0:0:0:70:1+.wav
182,192,56484,1,0,0:0:0:70:L2-.wav
329,192,56484,1,0,0:0:0:70:L6#--.wav
36,192,56484,1,0,0:0:0:70:L2--.wav
36,192,56718,1,0,0:0:0:70:L2#--.wav
182,192,56953,1,0,0:0:0:70:L6#--.wav
36,192,56953,1,0,0:0:0:70:L2--.wav
109,192,56953,1,0,0:0:0:70:L2-.wav
402,192,56953,1,0,0:0:0:100:L6#-.wav
256,192,56953,1,0,0:0:0:70:4.wav
402,192,57187,1,0,0:0:0:100:L6#-.wav
256,192,57187,1,0,0:0:0:70:4.wav
36,192,57187,1,0,0:0:0:70:L2#--.wav
402,192,57421,1,0,0:0:0:100:L6#-.wav
256,192,57421,1,0,0:0:0:70:4.wav
109,192,57421,1,0,0:0:0:70:L2-.wav
182,192,57421,1,0,0:0:0:70:L6#--.wav
36,192,57421,1,0,0:0:0:70:L2--.wav
329,192,57656,1,0,0:0:0:70:5.wav
475,192,57656,1,0,0:0:0:70:2+.wav
36,192,57656,1,0,0:0:0:70:L2#--.wav
475,192,57890,1,0,0:0:0:70:1+.wav
329,192,57890,1,0,0:0:0:70:4.wav
109,192,57890,1,0,0:0:0:70:L2-.wav
182,192,57890,1,0,0:0:0:70:L6#--.wav
36,192,57890,1,0,0:0:0:70:L2--.wav
329,192,58125,1,0,0:0:0:70:4.wav
109,192,58125,1,0,0:0:0:70:L6--.wav
402,192,58125,1,0,0:0:0:70:1+.wav
36,192,58125,1,0,0:0:0:70:L4-.wav
182,192,58125,1,0,0:0:0:70:L4--.wav
256,192,58125,1,0,0:0:0:70:L1-.wav
109,192,58359,1,0,0:0:0:70:L6-.wav
36,192,58359,1,0,0:0:0:70:L4-.wav
182,192,58359,1,0,0:0:0:70:L4--.wav
256,192,58359,1,0,0:0:0:70:L1-.wav
475,192,58593,1,0,0:0:0:70:2#.wav
329,192,58593,1,0,0:0:0:70:6#.wav
256,192,58593,1,0,0:0:0:70:L1-.wav
109,192,58593,1,0,0:0:0:70:L6--.wav
36,192,58593,1,0,0:0:0:70:L4-.wav
182,192,58593,1,0,0:0:0:70:L4--.wav
329,192,58828,1,0,0:0:0:70:2.wav
402,192,58828,1,0,0:0:0:70:6.wav
36,192,58828,1,0,0:0:0:70:L4-.wav
182,192,58828,1,0,0:0:0:70:L4--.wav
256,192,58828,1,0,0:0:0:70:L1-.wav
109,192,58828,1,0,0:0:0:70:L6--.wav
402,192,59062,1,0,0:0:0:70:6.wav
329,192,59062,1,0,0:0:0:70:2.wav
256,192,59062,1,0,0:0:0:70:L1-.wav
109,192,59062,1,0,0:0:0:70:L6--.wav
36,192,59062,1,0,0:0:0:70:L4-.wav
182,192,59062,1,0,0:0:0:70:L4--.wav
475,192,59531,1,0,0:0:0:70:2+.wav
402,192,59765,1,0,0:0:0:70:6#.wav
402,192,60000,1,0,0:0:0:70:6#.wav
36,192,60000,1,0,0:0:0:70:L2#--.wav
329,192,60234,1,0,0:0:0:70:4.wav
109,192,60234,1,0,0:0:0:70:L2#-.wav
182,192,60234,1,0,0:0:0:70:L6#--.wav
329,192,60351,1,0,0:0:0:70:4.wav
475,192,60468,1,0,0:0:0:70:1+.wav
36,192,60468,1,0,0:0:0:70:L4--.wav
329,192,60703,1,0,0:0:0:70:6#.wav
109,192,60703,1,0,0:0:0:70:L1-.wav
182,192,60703,1,0,0:0:0:70:L4-.wav
329,192,60820,1,0,0:0:0:70:6#.wav
36,192,60937,1,0,0:0:0:70:L5--.wav
475,192,60937,1,0,0:0:0:70:1+.wav
402,192,61171,1,0,0:0:0:70:4+.wav
109,192,61171,1,0,0:0:0:70:L2-.wav
256,192,61171,1,0,0:0:0:70:L5-.wav
402,192,61289,1,0,0:0:0:70:4+.wav
475,192,61406,1,0,0:0:0:70:5+.wav
36,192,61406,1,0,0:0:0:70:L5--.wav
109,192,61640,1,0,0:0:0:70:L2-.wav
256,192,61640,1,0,0:0:0:70:L5-.wav
402,192,61640,1,0,0:0:0:70:2+.wav
329,192,61757,1,0,0:0:0:70:1+.wav
256,192,61875,1,0,0:0:0:70:6#.wav
36,192,61875,1,0,0:0:0:70:L2#--.wav
475,192,62109,1,0,0:0:0:70:2+.wav
109,192,62109,1,0,0:0:0:70:L2#-.wav
329,192,62109,1,0,0:0:0:70:L6#--.wav
475,192,62226,1,0,0:0:0:70:2+.wav
402,192,62343,1,0,0:0:0:70:1+.wav
36,192,62343,1,0,0:0:0:70:L4--.wav
329,192,62460,1,0,0:0:0:70:6#.wav
329,192,62578,1,0,0:0:0:70:6#.wav
182,192,62578,1,0,0:0:0:70:L4-.wav
109,192,62578,1,0,0:0:0:70:L1-.wav
402,192,62695,1,0,0:0:0:70:1+.wav
475,192,62812,1,0,0:0:0:70:2+.wav
36,192,62812,1,0,0:0:0:70:L5--.wav
402,192,63046,1,0,0:0:0:70:4+.wav
109,192,63046,1,0,0:0:0:70:L2-.wav
256,192,63046,1,0,0:0:0:70:L5-.wav
36,192,63281,1,0,0:0:0:70:L5--.wav
329,192,63281,1,0,0:0:0:70:2+.wav
475,192,63281,1,2,0:0:0:0:
109,192,63515,1,0,0:0:0:70:L2-.wav
256,192,63515,1,0,0:0:0:70:L5-.wav
402,192,63750,1,0,0:0:0:70:6#.wav
36,192,63750,1,0,0:0:0:70:L2#--.wav
329,192,63984,1,0,0:0:0:70:4.wav
109,192,63984,1,0,0:0:0:70:L2#-.wav
256,192,63984,1,0,0:0:0:70:L6#--.wav
475,192,64218,1,0,0:0:0:70:1+.wav
36,192,64218,1,0,0:0:0:70:L4--.wav
182,192,64453,1,0,0:0:0:70:L4-.wav
109,192,64453,1,0,0:0:0:70:L1-.wav
329,192,64453,1,0,0:0:0:70:6#.wav
402,192,64570,1,0,0:0:0:70:1+.wav
475,192,64687,1,0,0:0:0:70:2+.wav
36,192,64687,1,0,0:0:0:70:L5--.wav
475,192,64921,1,0,0:0:0:70:4+.wav
109,192,64921,1,0,0:0:0:70:L2-.wav
256,192,64921,1,0,0:0:0:70:L5-.wav
36,192,65156,1,0,0:0:0:70:L5--.wav
329,192,65156,1,0,0:0:0:70:2+.wav
256,192,65390,1,0,0:0:0:70:L5-.wav
109,192,65390,1,0,0:0:0:70:L2-.wav
402,192,65390,1,0,0:0:0:70:1+.wav
329,192,65507,1,0,0:0:0:70:6#.wav
329,192,65625,1,0,0:0:0:70:6#.wav
36,192,65625,1,0,0:0:0:70:L2#--.wav
182,192,65859,1,0,0:0:0:70:L2#-.wav
256,192,65859,1,0,0:0:0:70:L6#--.wav
475,192,65859,1,0,0:0:0:70:2+.wav
402,192,66093,1,0,0:0:0:70:1+.wav
36,192,66093,1,0,0:0:0:70:L4--.wav
109,192,66328,1,0,0:0:0:70:L1-.wav
182,192,66328,1,0,0:0:0:70:L4-.wav
475,192,66328,1,0,0:0:0:70:2+.wav
36,192,66562,1,0,0:0:0:70:L6#--.wav
329,192,66562,1,0,0:0:0:70:6#.wav
109,192,66796,1,0,0:0:0:70:L6#-.wav
256,192,66796,1,0,0:0:0:70:L4-.wav
475,192,66796,1,10,0:0:0:0:
36,192,67031,1,0,0:0:0:70:L6#--.wav
475,192,67031,1,10,0:0:0:0:
329,192,67265,1,0,0:0:0:70:5.wav
109,192,67265,1,0,0:0:0:70:L6#-.wav
256,192,67265,1,0,0:0:0:70:L4-.wav
402,192,67382,1,0,0:0:0:70:6.wav
475,192,67500,1,0,0:0:0:70:6#.wav
36,192,67500,1,0,0:0:0:70:L2#--.wav
402,192,67734,1,0,0:0:0:70:4.wav
256,192,67734,1,0,0:0:0:70:L6#--.wav
182,192,67734,1,0,0:0:0:70:L2#-.wav
402,192,67851,1,0,0:0:0:70:4.wav
475,192,67968,1,0,0:0:0:70:1+.wav
36,192,67968,1,0,0:0:0:70:L4--.wav
109,192,68203,1,0,0:0:0:70:L1-.wav
329,192,68203,1,0,0:0:0:70:6#.wav
256,192,68203,1,0,0:0:0:70:L4-.wav
402,192,68320,1,0,0:0:0:70:1+.wav
475,192,68437,1,0,0:0:0:70:2+.wav
36,192,68437,1,0,0:0:0:70:L6#--.wav
329,192,68671,1,0,0:0:0:70:4+.wav
109,192,68671,1,0,0:0:0:70:L2-.wav
182,192,68671,1,0,0:0:0:70:L5-.wav
329,192,68789,1,0,0:0:0:70:4+.wav
402,192,68906,1,0,0:0:0:70:5+.wav
36,192,68906,1,0,0:0:0:70:L5--.wav
475,192,69140,1,0,0:0:0:70:2+.wav
109,192,69140,1,0,0:0:0:70:L2-.wav
256,192,69140,1,0,0:0:0:70:L5-.wav
402,192,69257,1,0,0:0:0:70:1+.wav
329,192,69375,1,0,0:0:0:70:6#.wav
36,192,69375,1,0,0:0:0:70:L2#--.wav
329,192,69492,1,0,0:0:0:70:6#.wav
475,192,69609,1,0,0:0:0:70:2+.wav
109,192,69609,1,0,0:0:0:70:L2#-.wav
256,192,69609,1,0,0:0:0:70:L6#--.wav
475,192,69726,1,0,0:0:0:70:2+.wav
402,192,69843,1,0,0:0:0:70:1+.wav
36,192,69843,1,0,0:0:0:70:L4--.wav
329,192,69960,1,0,0:0:0:70:6#.wav
109,192,70078,1,0,0:0:0:70:L1-.wav
329,192,70078,1,0,0:0:0:70:6#.wav
182,192,70078,1,0,0:0:0:70:L4-.wav
402,192,70195,1,0,0:0:0:70:1+.wav
475,192,70312,1,0,0:0:0:70:2+.wav
36,192,70312,1,0,0:0:0:70:L5--.wav
402,192,70546,1,0,0:0:0:70:4+.wav
109,192,70546,1,0,0:0:0:70:L2-.wav
256,192,70546,1,0,0:0:0:70:L5-.wav
329,192,70781,1,0,0:0:0:70:2+.wav
36,192,70781,1,0,0:0:0:70:L5--.wav
256,192,71015,1,0,0:0:0:70:L5-.wav
109,192,71015,1,0,0:0:0:70:L2-.wav
402,192,71250,1,0,0:0:0:70:6#.wav
36,192,71250,1,0,0:0:0:70:L2#--.wav
182,192,71484,1,0,0:0:0:70:L6#--.wav
109,192,71484,1,0,0:0:0:70:L2#-.wav
329,192,71484,1,0,0:0:0:70:4.wav
475,192,71718,1,0,0:0:0:70:1+.wav
36,192,71718,1,0,0:0:0:70:L4--.wav
109,192,71953,1,0,0:0:0:70:L1-.wav
329,192,71953,1,0,0:0:0:70:6#.wav
182,192,71953,1,0,0:0:0:70:L4-.wav
329,192,72070,1,0,0:0:0:70:6#.wav
36,192,72187,1,0,0:0:0:70:L5--.wav
402,192,72187,1,0,0:0:0:70:2+.wav
475,192,72421,1,0,0:0:0:70:4+.wav
109,192,72421,1,0,0:0:0:70:L2-.wav
256,192,72421,1,0,0:0:0:70:L5-.wav
402,192,72656,1,0,0:0:0:70:2+.wav
36,192,72656,1,0,0:0:0:70:L5--.wav
329,192,72890,1,0,0:0:0:70:1+.wav
182,192,72890,1,0,0:0:0:70:L5-.wav
109,192,72890,1,0,0:0:0:70:L2-.wav
256,192,73125,1,0,0:0:0:70:6#.wav
36,192,73125,1,0,0:0:0:70:L2#--.wav
402,192,73359,1,0,0:0:0:70:2+.wav
109,192,73359,1,0,0:0:0:70:L2#-.wav
182,192,73359,1,0,0:0:0:70:L6#--.wav
329,192,73593,1,0,0:0:0:70:1+.wav
36,192,73593,1,0,0:0:0:70:L4--.wav
109,192,73828,1,0,0:0:0:70:L1-.wav
475,192,73828,1,0,0:0:0:70:2+.wav
256,192,73828,1,0,0:0:0:70:L4-.wav
109,192,74062,1,0,0:0:0:70:L6#--.wav
36,192,74062,1,0,0:0:0:70:L6#-.wav
256,192,74062,1,0,0:0:0:70:L4-.wav
402,192,74062,1,0,0:0:0:70:6#.wav
256,192,74296,1,0,0:0:0:70:L4-.wav
109,192,74296,1,0,0:0:0:70:L6#--.wav
36,192,74296,1,0,0:0:0:70:L6#-.wav
256,192,74531,1,0,0:0:0:70:L4-.wav
36,192,74531,1,0,0:0:0:70:L6#-.wav
109,192,74531,1,0,0:0:0:70:L6#--.wav
329,192,74765,1,0,0:0:0:70:2+.wav
402,192,74882,1,0,0:0:0:70:4+.wav
475,192,75000,1,0,0:0:0:70:5+.wav
36,192,75000,1,0,0:0:0:70:L2#--.wav
256,192,75234,1,0,0:0:0:70:L6#--.wav
109,192,75234,1,0,0:0:0:70:L2#-.wav
475,192,75234,1,0,0:0:0:70:5+.wav
475,192,75468,1,0,0:0:0:70:5+.wav
36,192,75468,1,0,0:0:0:70:L4--.wav
109,192,75703,1,0,0:0:0:70:L1-.wav
402,192,75703,1,0,0:0:0:70:4+.wav
256,192,75703,1,0,0:0:0:70:L4-.wav
329,192,75820,1,0,0:0:0:70:2+.wav
36,192,75937,1,0,0:0:0:70:L5--.wav
256,192,75937,1,0,0:0:0:70:1+.wav
402,192,76171,1,0,0:0:0:70:2+.wav
109,192,76171,1,0,0:0:0:70:L2-.wav
182,192,76171,1,0,0:0:0:70:L5-.wav
36,192,76406,1,0,0:0:0:70:L5--.wav
329,192,76406,1,0,0:0:0:70:6#.wav
109,192,76640,1,0,0:0:0:70:L2-.wav
256,192,76640,1,0,0:0:0:70:L5-.wav
329,192,76875,1,0,0:0:0:70:1+.wav
36,192,76875,1,0,0:0:0:70:L2#--.wav
109,192,77109,1,0,0:0:0:70:L2#-.wav
182,192,77109,1,0,0:0:0:70:L6#--.wav
402,192,77109,1,0,0:0:0:70:2+.wav
329,192,77343,1,0,0:0:0:70:1+.wav
36,192,77343,1,0,0:0:0:70:L4--.wav
256,192,77578,1,0,0:0:0:70:L1-.wav
475,192,77578,1,0,0:0:0:70:4+.wav
109,192,77578,1,0,0:0:0:70:L4-.wav
36,192,77812,1,0,0:0:0:70:L5--.wav
402,192,77812,1,0,0:0:0:70:2+.wav
109,192,78046,1,0,0:0:0:70:L2-.wav
256,192,78046,1,0,0:0:0:70:L5-.wav
36,192,78281,1,0,0:0:0:70:L5--.wav
475,192,78281,1,0,0:0:0:70:2+.wav
109,192,78515,1,0,0:0:0:70:L2-.wav
256,192,78515,1,0,0:0:0:70:L5-.wav
402,192,78515,1,0,0:0:0:70:1+.wav
329,192,78632,1,0,0:0:0:70:6#.wav
475,192,78750,1,0,0:0:0:70:5+.wav
36,192,78750,1,0,0:0:0:70:L2#--.wav
182,192,78984,1,0,0:0:0:70:L6#--.wav
109,192,78984,1,0,0:0:0:70:L2#-.wav
475,192,78984,1,0,0:0:0:70:5+.wav
475,192,79218,1,0,0:0:0:70:5+.wav
36,192,79218,1,0,0:0:0:70:L4--.wav
109,192,79453,1,0,0:0:0:70:L1-.wav
402,192,79453,1,0,0:0:0:70:4+.wav
256,192,79453,1,0,0:0:0:70:L4-.wav
329,192,79570,1,0,0:0:0:70:2+.wav
36,192,79687,1,0,0:0:0:70:L5--.wav
256,192,79687,1,0,0:0:0:70:1+.wav
475,192,79921,1,0,0:0:0:70:2+.wav
109,192,79921,1,0,0:0:0:70:L2-.wav
182,192,79921,1,0,0:0:0:70:L5-.wav
329,192,80156,1,0,0:0:0:70:6#.wav
36,192,80156,1,0,0:0:0:70:L5--.wav
475,192,80390,1,0,0:0:0:70:2+.wav
182,192,80390,1,0,0:0:0:70:L5-.wav
109,192,80390,1,0,0:0:0:70:L2-.wav
402,192,80625,1,0,0:0:0:70:1+.wav
36,192,80625,1,0,0:0:0:70:L2#--.wav
475,192,80859,1,0,0:0:0:70:2+.wav
109,192,80859,1,0,0:0:0:70:L2#-.wav
256,192,80859,1,0,0:0:0:70:L6#--.wav
402,192,81093,1,0,0:0:0:70:1+.wav
36,192,81093,1,0,0:0:0:70:L4--.wav
109,192,81328,1,0,0:0:0:70:L1-.wav
475,192,81328,1,0,0:0:0:70:4+.wav
182,192,81328,1,0,0:0:0:70:L4-.wav
329,192,81562,1,0,0:0:0:70:6#.wav
36,192,81562,1,0,0:0:0:70:L6#--.wav
256,192,81796,1,0,0:0:0:70:L4-.wav
109,192,81796,1,0,0:0:0:70:L6#--.wav
402,192,82031,1,0,0:0:0:70:1+.wav
36,192,82031,1,0,0:0:0:70:L6#--.wav
329,192,82265,1,0,0:0:0:70:2+.wav
256,192,82265,1,0,0:0:0:70:L4-.wav
109,192,82265,1,0,0:0:0:70:L6#-.wav
402,192,82382,1,0,0:0:0:70:4+.wav
475,192,82500,1,0,0:0:0:70:5+.wav
36,192,82500,1,0,0:0:0:70:L2#--.wav
475,192,82734,1,0,0:0:0:70:5+.wav
182,192,82734,1,0,0:0:0:70:L6#--.wav
109,192,82734,1,0,0:0:0:70:L2#-.wav
475,192,82968,1,0,0:0:0:70:5+.wav
36,192,82968,1,0,0:0:0:70:L4--.wav
109,192,83203,1,0,0:0:0:70:L1-.wav
402,192,83203,1,0,0:0:0:70:4+.wav
256,192,83203,1,0,0:0:0:70:L4-.wav
329,192,83320,1,0,0:0:0:70:2+.wav
256,192,83437,1,0,0:0:0:70:1+.wav
36,192,83437,1,0,0:0:0:70:L5--.wav
475,192,83671,1,0,0:0:0:70:2+.wav
109,192,83671,1,0,0:0:0:70:L2-.wav
182,192,83671,1,0,0:0:0:70:L5-.wav
329,192,83906,1,0,0:0:0:70:6#.wav
36,192,83906,1,0,0:0:0:70:L5--.wav
475,192,84140,1,0,0:0:0:70:2+.wav
109,192,84140,1,0,0:0:0:70:L2-.wav
182,192,84140,1,0,0:0:0:70:L5-.wav
402,192,84375,1,0,0:0:0:70:1+.wav
36,192,84375,1,0,0:0:0:70:L2#--.wav
475,192,84609,1,0,0:0:0:70:2+.wav
109,192,84609,1,0,0:0:0:70:L2#-.wav
256,192,84609,1,0,0:0:0:70:L6#--.wav
329,192,84843,1,0,0:0:0:70:1+.wav
36,192,84843,1,0,0:0:0:70:L4--.wav
109,192,85078,1,0,0:0:0:70:L1-.wav
475,192,85078,1,0,0:0:0:70:4+.wav
182,192,85078,1,0,0:0:0:70:L4-.wav
402,192,85312,1,0,0:0:0:70:2+.wav
36,192,85312,1,0,0:0:0:70:L5--.wav
109,192,85546,1,0,0:0:0:70:L2-.wav
256,192,85546,1,0,0:0:0:70:L5-.wav
329,192,85781,1,0,0:0:0:70:2+.wav
182,192,86015,1,0,0:0:0:70:1+.wav
109,192,86132,1,0,0:0:0:70:6#.wav
475,192,86250,1,0,0:0:0:70:5+.wav
475,192,86484,1,0,0:0:0:70:5+.wav
475,192,86718,1,0,0:0:0:70:5+.wav
36,192,86718,1,2,0:0:0:0:
402,192,86953,1,0,0:0:0:70:4+.wav
256,192,87070,1,0,0:0:0:70:2+.wav
182,192,87187,1,0,0:0:0:70:1+.wav
329,192,87421,1,0,0:0:0:70:6+.wav
475,192,87656,1,0,0:0:0:70:6#+.wav
36,192,87656,1,2,0:0:0:0:
256,192,87890,1,0,0:0:0:70:2+.wav
182,192,88007,1,0,0:0:0:70:1+.wav
36,192,88125,1,0,0:0:0:70:5.wav
329,192,88359,1,0,0:0:0:70:1+.wav
475,192,88593,1,0,0:0:0:70:4+.wav
402,192,88828,1,0,0:0:0:70:2+.wav
329,192,88945,1,0,0:0:0:70:1+.wav
36,192,89062,1,0,0:0:0:70:6#.wav
36,192,89296,1,0,0:0:0:70:6#.wav
36,192,89531,1,0,0:0:0:70:6#.wav
475,192,89531,1,2,0:0:0:0:
