osu file format v14

[General]
AudioFilename: 2m3.mp3
AudioLeadIn: 0
PreviewTime: -1
Countdown: 0
SampleSet: Normal
StackLeniency: 0.7
Mode: 3
LetterboxInBreaks: 0
SpecialStyle: 0
WidescreenStoryboard: 1

[Editor]
Bookmarks: 68317
DistanceSpacing: 1.2
BeatDivisor: 4
GridSize: 4
TimelineZoom: 1.3

[Metadata]
Title:Piano Pack
TitleUnicode:Piano Pack
Artist:KawaEE
ArtistUnicode:KawaEE
Creator:KawaEE
Version:MX : Love Live - Start:dash
Source:
Tags:Piano
BeatmapID:630083
BeatmapSetID:236952

[Difficulty]
HPDrainRate:7
CircleSize:7
OverallDifficulty:7
ApproachRate:5
SliderMultiplier:1.4
SliderTickRate:1

[Events]
//Background and Video events
0,0,"7777.jpg",0,0
//Break Periods
//Storyboard Layer 0 (Background)
//Storyboard Layer 1 (Fail)
//Storyboard Layer 2 (Pass)
//Storyboard Layer 3 (Foreground)
//Storyboard Sound Samples

[TimingPoints]
4290,400,4,1,1,37,1,0

[HitObjects]
182,192,4290,5,0,0:0:0:70:5+.wav
256,192,4390,1,0,0:0:0:70:6+.wav
36,192,4490,1,0,0:0:0:70:L1-.wav
329,192,4490,1,0,0:0:0:70:7+.wav
475,192,4490,1,0,0:0:0:70:5+.wav
475,192,4890,1,0,0:0:0:70:2++.wav
329,192,5090,1,0,0:0:0:70:6+.wav
182,192,5090,1,0,0:0:0:70:4#+.wav
36,192,5090,1,0,0:0:0:70:L7--.wav
182,192,5890,1,0,0:0:0:70:4#+.wav
256,192,5990,5,0,0:0:0:70:5+.wav
329,192,6090,1,0,0:0:0:70:6+.wav
475,192,6090,1,0,0:0:0:70:4#+.wav
36,192,6090,1,0,0:0:0:70:L3-.wav
402,192,6490,1,0,0:0:0:70:1++.wav
329,192,6690,1,0,0:0:0:70:7+.wav
182,192,6690,1,0,0:0:0:70:5+.wav
36,192,6690,1,0,0:0:0:70:L2--.wav
402,192,7090,1,0,0:0:0:70:L6-.wav
256,192,7190,1,0,0:0:0:70:L7-.wav
109,192,7290,1,0,0:0:0:70:L5-.wav
256,192,7490,5,0,0:0:0:70:5+.wav
329,192,7590,1,0,0:0:0:70:6+.wav
182,192,7690,1,0,0:0:0:70:1+.wav
475,192,7690,1,0,0:0:0:70:7+.wav
402,192,7690,1,0,0:0:0:70:3+.wav
36,192,7690,1,0,0:0:0:70:L6--.wav
329,192,7890,1,0,0:0:0:70:6+.wav
256,192,8090,1,0,0:0:0:70:5+.wav
475,192,8290,1,0,0:0:0:70:6.wav
182,192,8290,1,0,0:0:0:70:2+.wav
402,192,8290,1,0,0:0:0:70:6+.wav
36,192,8290,1,0,0:0:0:70:L2-.wav
329,192,8290,1,0,0:0:0:70:L2--.wav
402,192,8690,1,0,0:0:0:70:5+.wav
329,192,8890,1,0,0:0:0:70:4#+.wav
256,192,9090,1,0,0:0:0:70:5+.wav
475,192,9090,1,0,0:0:0:70:7.wav
182,192,9090,1,0,0:0:0:70:3+.wav
36,192,9090,1,0,0:0:0:70:L3-.wav
109,192,9090,1,0,0:0:0:70:L3--.wav
36,192,9490,1,0,0:0:0:70:L3--.wav
36,192,9690,1,0,0:0:0:70:L2#--.wav
182,192,9690,1,0,0:0:0:70:L2#-.wav
36,192,9890,1,0,0:0:0:70:L2#--.wav
36,192,10090,1,0,0:0:0:70:L2--.wav
182,192,10090,1,0,0:0:0:70:L2-.wav
36,192,10290,1,0,0:0:0:70:L2--.wav
36,192,10490,1,0,0:0:0:70:L1#-.wav
182,192,10490,1,0,0:0:0:70:L1#--.wav
475,192,10490,1,0,0:0:0:70:3+.wav
402,192,10490,1,0,0:0:0:70:7.wav
256,192,10490,1,0,0:0:0:70:5+.wav
109,192,10690,1,0,0:0:0:70:L1#--.wav
182,192,10890,1,0,0:0:0:70:L1-.wav
36,192,10890,1,0,0:0:0:70:L1--.wav
329,192,10890,1,0,0:0:0:70:3+.wav
475,192,10890,1,0,0:0:0:70:7+.wav
256,192,10890,1,0,0:0:0:70:1+.wav
182,192,11090,1,0,0:0:0:70:L1--.wav
475,192,11290,1,0,0:0:0:70:3+.wav
402,192,11290,1,0,0:0:0:70:7.wav
182,192,11290,1,0,0:0:0:70:5+.wav
329,192,11290,1,0,0:0:0:70:L1-.wav
36,192,11290,1,0,0:0:0:70:L1--.wav
182,192,11490,1,0,0:0:0:70:L1--.wav
329,192,11690,1,0,0:0:0:70:5+.wav
475,192,11690,1,0,0:0:0:70:3+.wav
402,192,11690,1,0,0:0:0:70:7.wav
36,192,11690,1,0,0:0:0:70:L1--.wav
182,192,11690,1,0,0:0:0:70:L1-.wav
256,192,11890,1,0,0:0:0:70:6.wav
329,192,11890,1,0,0:0:0:70:2+.wav
402,192,11890,1,0,0:0:0:70:4#+.wav
109,192,11890,1,0,0:0:0:70:L1--.wav
182,192,12090,1,0,0:0:0:70:L1-.wav
36,192,12090,1,0,0:0:0:70:L1--.wav
475,192,12290,1,0,0:0:0:70:1+.wav
256,192,12290,1,0,0:0:0:70:3+.wav
402,192,12290,1,0,0:0:0:70:5.wav
109,192,12290,1,0,0:0:0:70:L1--.wav
36,192,12490,1,0,0:0:0:70:L2-.wav
182,192,12490,1,0,0:0:0:70:L2--.wav
329,192,12690,1,0,0:0:0:70:6.wav
475,192,12690,1,0,0:0:0:70:2+.wav
109,192,12690,1,0,0:0:0:70:L2--.wav
36,192,12890,1,0,0:0:0:70:L2-.wav
182,192,12890,1,0,0:0:0:70:L2--.wav
36,192,13090,1,0,0:0:0:70:L2--.wav
256,192,13090,1,0,0:0:0:70:3+.wav
475,192,13290,1,0,0:0:0:70:4#+.wav
402,192,13290,1,0,0:0:0:70:2+.wav
329,192,13290,1,0,0:0:0:70:6.wav
182,192,13290,1,0,0:0:0:70:L2--.wav
36,192,13290,1,0,0:0:0:70:L2-.wav
256,192,13490,1,0,0:0:0:70:5+.wav
109,192,13490,1,0,0:0:0:70:L2--.wav
329,192,13690,1,0,0:0:0:70:4#+.wav
182,192,13690,1,0,0:0:0:70:L2--.wav
36,192,13690,1,0,0:0:0:70:L2-.wav
109,192,13890,1,0,0:0:0:70:L2--.wav
475,192,13890,1,0,0:0:0:70:6.wav
256,192,13890,1,0,0:0:0:70:2+.wav
402,192,13890,1,0,0:0:0:70:6+.wav
36,192,14090,1,0,0:0:0:70:L7---.wav
182,192,14090,1,0,0:0:0:70:L7--.wav
36,192,14290,1,0,0:0:0:70:L7---.wav
402,192,14490,1,0,0:0:0:70:2+.wav
256,192,14490,1,0,0:0:0:70:7.wav
329,192,14490,1,0,0:0:0:70:4#+.wav
475,192,14490,1,0,0:0:0:70:7+.wav
36,192,14490,1,0,0:0:0:70:L7---.wav
182,192,14490,1,0,0:0:0:70:L7--.wav
36,192,14690,1,0,0:0:0:70:L7---.wav
256,192,14890,1,0,0:0:0:70:2+.wav
402,192,14890,1,0,0:0:0:70:2.wav
182,192,14890,1,0,0:0:0:70:4#.wav
329,192,14890,1,0,0:0:0:70:6.wav
109,192,14890,1,0,0:0:0:70:L7---.wav
36,192,14890,1,0,0:0:0:70:L7--.wav
36,192,15090,1,0,0:0:0:70:L7---.wav
182,192,15290,1,0,0:0:0:70:L7--.wav
36,192,15290,1,0,0:0:0:70:L7---.wav
256,192,15290,1,0,0:0:0:70:7.wav
329,192,15290,1,0,0:0:0:70:4#+.wav
402,192,15290,1,0,0:0:0:70:2+.wav
475,192,15290,1,0,0:0:0:70:7+.wav
36,192,15490,1,0,0:0:0:70:L7---.wav
36,192,15690,1,0,0:0:0:70:L3--.wav
109,192,15690,1,0,0:0:0:70:L3-.wav
182,192,15690,1,0,0:0:0:70:7.wav
329,192,15690,1,0,0:0:0:70:5.wav
402,192,15690,1,0,0:0:0:70:3.wav
475,192,15690,1,0,0:0:0:70:3+.wav
182,192,15890,1,0,0:0:0:70:L3--.wav
475,192,16090,1,0,0:0:0:70:7+.wav
256,192,16090,1,0,0:0:0:70:7.wav
329,192,16090,1,0,0:0:0:70:5+.wav
402,192,16090,1,0,0:0:0:70:3+.wav
182,192,16090,1,0,0:0:0:70:L3-.wav
36,192,16090,1,0,0:0:0:70:L3--.wav
182,192,16290,1,0,0:0:0:70:L3--.wav
182,192,16490,1,0,0:0:0:70:L3-.wav
36,192,16490,1,0,0:0:0:70:L3--.wav
256,192,16490,1,0,0:0:0:70:7.wav
329,192,16490,1,0,0:0:0:70:5+.wav
475,192,16490,1,0,0:0:0:70:7+.wav
402,192,16490,1,0,0:0:0:70:3+.wav
182,192,16690,1,0,0:0:0:70:L3--.wav
182,192,16890,1,0,0:0:0:70:L3-.wav
36,192,16890,1,0,0:0:0:70:L3--.wav
475,192,16890,1,0,0:0:0:70:7+.wav
402,192,16890,1,0,0:0:0:70:3+.wav
256,192,16890,1,0,0:0:0:70:7.wav
329,192,16890,1,0,0:0:0:70:5+.wav
36,192,17090,1,0,0:0:0:70:L3--.wav
182,192,17090,1,0,0:0:0:70:5+.wav
256,192,17190,1,0,0:0:0:70:6+.wav
475,192,17290,1,0,0:0:0:70:7+.wav
329,192,17290,1,0,0:0:0:70:1+.wav
402,192,17290,1,0,0:0:0:70:3+.wav
36,192,17290,1,0,0:0:0:70:L1-.wav
109,192,17290,1,0,0:0:0:70:L1--.wav
182,192,17490,1,0,0:0:0:70:L1--.wav
36,192,17690,1,0,0:0:0:70:L1-.wav
256,192,17690,1,0,0:0:0:70:L1--.wav
475,192,17690,1,0,0:0:0:70:7+.wav
329,192,17690,1,0,0:0:0:70:1+.wav
402,192,17690,1,0,0:0:0:70:3+.wav
182,192,17890,1,0,0:0:0:70:L1--.wav
36,192,18090,1,0,0:0:0:70:L1-.wav
182,192,18090,1,0,0:0:0:70:L1--.wav
402,192,18090,1,0,0:0:0:70:3+.wav
475,192,18090,1,0,0:0:0:70:6+.wav
256,192,18090,1,0,0:0:0:70:1+.wav
329,192,18290,1,0,0:0:0:70:5+.wav
109,192,18290,1,0,0:0:0:70:L1--.wav
182,192,18490,1,0,0:0:0:70:L1--.wav
36,192,18490,1,0,0:0:0:70:L1-.wav
109,192,18690,1,0,0:0:0:70:L1--.wav
475,192,18690,1,0,0:0:0:70:6.wav
256,192,18690,1,0,0:0:0:70:2+.wav
402,192,18690,1,0,0:0:0:70:6+.wav
36,192,18890,1,0,0:0:0:70:L2-.wav
182,192,18890,1,0,0:0:0:70:L2--.wav
256,192,19090,1,0,0:0:0:70:2+.wav
402,192,19090,1,0,0:0:0:70:5+.wav
475,192,19090,1,0,0:0:0:70:6.wav
109,192,19090,1,0,0:0:0:70:L2--.wav
329,192,19290,1,0,0:0:0:70:L2--.wav
182,192,19290,1,0,0:0:0:70:L2-.wav
256,192,19490,1,0,0:0:0:70:L2--.wav
402,192,19490,1,0,0:0:0:70:4#+.wav
36,192,19690,1,0,0:0:0:70:L2-.wav
109,192,19690,1,0,0:0:0:70:L2--.wav
475,192,19690,1,0,0:0:0:70:4#+.wav
182,192,19690,1,0,0:0:0:70:6.wav
329,192,19690,1,0,0:0:0:70:2+.wav
402,192,19890,1,0,0:0:0:70:5+.wav
256,192,19890,1,0,0:0:0:70:L2--.wav
329,192,20090,1,0,0:0:0:70:4#+.wav
182,192,20090,1,0,0:0:0:70:L2--.wav
36,192,20090,1,0,0:0:0:70:L2-.wav
36,192,20290,1,0,0:0:0:70:2+.wav
109,192,20290,1,0,0:0:0:70:L2--.wav
256,192,20290,1,0,0:0:0:70:6.wav
36,192,20490,1,0,0:0:0:70:L7--.wav
182,192,20490,1,0,0:0:0:70:L7---.wav
36,192,20690,1,0,0:0:0:70:L7---.wav
36,192,20890,1,0,0:0:0:70:L7--.wav
182,192,20890,1,0,0:0:0:70:L7---.wav
256,192,20890,1,0,0:0:0:70:7.wav
329,192,20890,1,0,0:0:0:70:4#+.wav
402,192,20890,1,0,0:0:0:70:2+.wav
475,192,20890,1,0,0:0:0:70:7+.wav
36,192,21090,1,0,0:0:0:70:L7---.wav
109,192,21290,1,0,0:0:0:70:L7---.wav
36,192,21290,1,0,0:0:0:70:L7--.wav
182,192,21290,1,0,0:0:0:70:4#.wav
256,192,21290,1,0,0:0:0:70:6.wav
329,192,21290,1,0,0:0:0:70:2+.wav
475,192,21290,1,0,0:0:0:70:2.wav
36,192,21490,1,0,0:0:0:70:L7---.wav
36,192,21690,1,0,0:0:0:70:L7--.wav
182,192,21690,1,0,0:0:0:70:L7---.wav
256,192,21690,1,0,0:0:0:70:7.wav
329,192,21690,1,0,0:0:0:70:4#+.wav
402,192,21690,1,0,0:0:0:70:2+.wav
475,192,21690,1,0,0:0:0:70:7+.wav
36,192,21890,1,0,0:0:0:70:L7---.wav
109,192,22090,1,0,0:0:0:70:L3-.wav
36,192,22090,1,0,0:0:0:70:L3--.wav
182,192,22090,1,0,0:0:0:70:7.wav
329,192,22090,1,0,0:0:0:70:5.wav
402,192,22090,1,0,0:0:0:70:3.wav
475,192,22090,1,0,0:0:0:70:3+.wav
36,192,22290,1,0,0:0:0:70:L3--.wav
36,192,22490,1,0,0:0:0:70:L3--.wav
182,192,22490,1,0,0:0:0:70:L3-.wav
256,192,22490,1,0,0:0:0:70:7.wav
329,192,22490,1,0,0:0:0:70:5+.wav
475,192,22490,1,0,0:0:0:70:7+.wav
402,192,22490,1,0,0:0:0:70:3+.wav
36,192,22690,1,0,0:0:0:70:L3--.wav
182,192,22890,1,0,0:0:0:70:L3-.wav
36,192,22890,1,0,0:0:0:70:L3--.wav
475,192,22890,1,0,0:0:0:70:7+.wav
402,192,22890,1,0,0:0:0:70:3+.wav
256,192,22890,1,0,0:0:0:70:7.wav
329,192,22890,1,0,0:0:0:70:5+.wav
36,192,23090,1,0,0:0:0:70:L3--.wav
36,192,23290,1,0,0:0:0:70:L3--.wav
182,192,23290,1,0,0:0:0:70:L3-.wav
256,192,23290,1,0,0:0:0:70:7.wav
329,192,23290,1,0,0:0:0:70:5+.wav
475,192,23290,1,0,0:0:0:70:7+.wav
402,192,23290,1,0,0:0:0:70:3+.wav
36,192,23490,1,0,0:0:0:70:L3--.wav
36,192,23690,1,0,0:0:0:70:L5--.wav
182,192,23690,1,0,0:0:0:70:L5-.wav
475,192,23690,1,0,0:0:0:70:2++.wav
402,192,23790,1,0,0:0:0:70:7+.wav
329,192,23890,1,0,0:0:0:70:6+.wav
256,192,23990,1,0,0:0:0:70:5+.wav
182,192,24090,1,0,0:0:0:70:2+.wav
36,192,24090,1,0,0:0:0:70:L5--.wav
475,192,24190,1,0,0:0:0:70:7.wav
402,192,24290,1,0,0:0:0:70:6.wav
329,192,24390,1,0,0:0:0:70:5.wav
256,192,24490,1,0,0:0:0:70:2.wav
36,192,24490,1,0,0:0:0:70:L5--.wav
475,192,24590,1,0,0:0:0:70:2+.wav
329,192,24690,1,0,0:0:0:70:7.wav
256,192,24790,1,0,0:0:0:70:6.wav
182,192,24890,1,0,0:0:0:70:5.wav
475,192,24890,1,0,0:0:0:70:L5--.wav
36,192,24990,1,0,0:0:0:70:2.wav
256,192,25090,1,0,0:0:0:70:7-.wav
182,192,25190,1,0,0:0:0:70:6-.wav
109,192,25290,1,0,0:0:0:70:5-.wav
36,192,25390,1,0,0:0:0:70:2-.wav
182,192,25490,1,0,0:0:0:70:L5---.wav
329,192,25490,1,0,0:0:0:70:L5--.wav
256,192,25690,1,0,0:0:0:70:5.wav
475,192,25690,1,0,0:0:0:70:3.wav
109,192,25690,1,0,0:0:0:70:7-.wav
36,192,25890,1,0,0:0:0:70:L5--.wav
329,192,26090,1,0,0:0:0:70:5-.wav
182,192,26090,1,0,0:0:0:70:2-.wav
475,192,26090,1,0,0:0:0:70:7-.wav
36,192,26290,1,0,0:0:0:70:L5--.wav
402,192,26490,1,0,0:0:0:70:5-.wav
475,192,26490,1,0,0:0:0:70:7-.wav
256,192,26490,1,0,0:0:0:70:2-.wav
109,192,26490,1,0,0:0:0:70:L5--.wav
182,192,26690,1,0,0:0:0:70:L2--.wav
475,192,26890,1,0,0:0:0:70:7-.wav
256,192,26890,1,0,0:0:0:70:2-.wav
402,192,26890,1,0,0:0:0:70:5-.wav
109,192,26890,1,0,0:0:0:70:L5--.wav
36,192,26890,1,0,0:0:0:70:L5---.wav
402,192,27290,1,0,0:0:0:70:5.wav
36,192,27290,1,0,0:0:0:70:L5--.wav
182,192,27290,1,0,0:0:0:70:7-.wav
402,192,27490,1,0,0:0:0:70:5.wav
182,192,27490,1,0,0:0:0:70:7-.wav
182,192,27690,1,0,0:0:0:70:7-.wav
36,192,27690,1,0,0:0:0:70:L5--.wav
402,192,27690,1,0,0:0:0:70:5.wav
182,192,27890,1,0,0:0:0:70:7-.wav
329,192,27890,1,0,0:0:0:70:2.wav
182,192,28090,1,0,0:0:0:70:7-.wav
36,192,28090,1,0,0:0:0:70:L5--.wav
402,192,28090,1,0,0:0:0:70:5.wav
36,192,28290,1,0,0:0:0:70:L2--.wav
475,192,28290,1,0,0:0:0:70:6.wav
182,192,28290,1,0,0:0:0:70:7-.wav
475,192,28490,1,0,0:0:0:70:2.wav
182,192,28490,1,0,0:0:0:70:L5--.wav
36,192,28490,1,0,0:0:0:70:L5---.wav
329,192,28490,1,0,0:0:0:70:7.wav
36,192,28890,1,0,0:0:0:70:L5--.wav
256,192,28890,1,0,0:0:0:70:2.wav
475,192,28890,1,0,0:0:0:70:6.wav
182,192,29090,1,0,0:0:0:70:2.wav
402,192,29090,1,0,0:0:0:70:5.wav
36,192,29290,1,0,0:0:0:70:L5--.wav
256,192,29490,1,0,0:0:0:70:2.wav
475,192,29490,1,0,0:0:0:70:6.wav
182,192,29690,1,0,0:0:0:70:L5--.wav
109,192,29890,1,0,0:0:0:70:L2--.wav
402,192,30090,1,0,0:0:0:70:2.wav
475,192,30090,1,0,0:0:0:70:7-.wav
256,192,30090,1,0,0:0:0:70:4#-.wav
36,192,30090,1,0,0:0:0:70:L7---.wav
182,192,30090,1,0,0:0:0:70:L7--.wav
182,192,30490,1,0,0:0:0:70:7-.wav
36,192,30490,1,0,0:0:0:70:L7--.wav
329,192,30490,1,0,0:0:0:70:4#.wav
329,192,30690,1,0,0:0:0:70:4#.wav
182,192,30690,1,0,0:0:0:70:7-.wav
329,192,30890,1,0,0:0:0:70:4#.wav
36,192,30890,1,0,0:0:0:70:L7--.wav
182,192,30890,1,0,0:0:0:70:7-.wav
182,192,31090,1,0,0:0:0:70:7-.wav
329,192,31090,1,0,0:0:0:70:4#.wav
329,192,31290,1,0,0:0:0:70:4#.wav
36,192,31290,1,0,0:0:0:70:L7--.wav
182,192,31290,1,0,0:0:0:70:7-.wav
182,192,31490,1,0,0:0:0:70:7-.wav
329,192,31490,1,0,0:0:0:70:4#.wav
182,192,31690,1,0,0:0:0:70:L7---.wav
475,192,31690,1,0,0:0:0:70:7-.wav
36,192,31690,1,0,0:0:0:70:L7--.wav
329,192,31690,1,0,0:0:0:70:4#.wav
182,192,31890,1,0,0:0:0:70:7-.wav
329,192,31890,1,0,0:0:0:70:4#.wav
182,192,32090,1,0,0:0:0:70:7-.wav
36,192,32090,1,0,0:0:0:70:L7--.wav
475,192,32090,1,0,0:0:0:70:5.wav
329,192,32290,1,0,0:0:0:70:4#.wav
182,192,32290,1,0,0:0:0:70:7-.wav
182,192,32490,1,0,0:0:0:70:L7--.wav
182,192,32890,1,0,0:0:0:70:L7--.wav
36,192,33290,1,0,0:0:0:70:L3-.wav
402,192,33290,1,0,0:0:0:70:3.wav
182,192,33290,1,0,0:0:0:70:L3--.wav
475,192,33290,1,0,0:0:0:70:7-.wav
256,192,33290,1,0,0:0:0:70:5-.wav
36,192,33690,1,0,0:0:0:70:L3-.wav
182,192,33690,1,0,0:0:0:70:7-.wav
402,192,33690,1,0,0:0:0:70:5.wav
182,192,33890,1,0,0:0:0:70:7-.wav
402,192,33890,1,0,0:0:0:70:5.wav
402,192,34090,1,0,0:0:0:70:5.wav
36,192,34090,1,0,0:0:0:70:L3-.wav
182,192,34090,1,0,0:0:0:70:7-.wav
329,192,34290,1,0,0:0:0:70:2.wav
182,192,34290,1,0,0:0:0:70:7-.wav
36,192,34490,1,0,0:0:0:70:L3-.wav
402,192,34490,1,0,0:0:0:70:5.wav
182,192,34490,1,0,0:0:0:70:7-.wav
475,192,34690,1,0,0:0:0:70:6.wav
182,192,34690,1,0,0:0:0:70:7-.wav
36,192,34890,1,0,0:0:0:70:L3-.wav
329,192,34890,1,0,0:0:0:70:7-.wav
256,192,34890,1,0,0:0:0:70:3.wav
475,192,34890,1,0,0:0:0:70:7.wav
109,192,34890,1,0,0:0:0:70:L3--.wav
475,192,35290,1,0,0:0:0:70:7-.wav
329,192,35290,1,0,0:0:0:70:3.wav
182,192,35290,1,0,0:0:0:70:6.wav
36,192,35290,1,0,0:0:0:70:L3-.wav
109,192,35490,1,0,0:0:0:70:5.wav
402,192,35490,1,0,0:0:0:70:7-.wav
256,192,35490,1,0,0:0:0:70:3.wav
36,192,35690,1,0,0:0:0:70:L3-.wav
256,192,35890,1,0,0:0:0:70:3.wav
109,192,35890,1,0,0:0:0:70:6.wav
402,192,35890,1,0,0:0:0:70:7-.wav
36,192,36090,1,0,0:0:0:70:L3-.wav
182,192,36290,1,0,0:0:0:70:1.wav
329,192,36290,1,0,0:0:0:70:3.wav
475,192,36290,1,0,0:0:0:70:5.wav
36,192,36490,1,0,0:0:0:70:L1--.wav
256,192,36490,1,0,0:0:0:70:L1-.wav
182,192,36890,1,0,0:0:0:70:L1-.wav
329,192,37090,1,0,0:0:0:70:7.wav
475,192,37190,1,0,0:0:0:70:1+.wav
329,192,37290,1,0,0:0:0:70:7.wav
36,192,37290,1,0,0:0:0:70:L2#-.wav
256,192,37490,1,0,0:0:0:70:5.wav
182,192,37690,1,0,0:0:0:70:L1--.wav
402,192,37690,1,0,0:0:0:70:1.wav
36,192,37690,1,0,0:0:0:70:L1-.wav
475,192,38090,1,0,0:0:0:70:2.wav
182,192,38090,1,0,0:0:0:70:L2--.wav
329,192,38090,1,0,0:0:0:70:6.wav
109,192,38090,1,0,0:0:0:70:L2-.wav
402,192,38490,1,0,0:0:0:70:2+.wav
182,192,38490,1,0,0:0:0:70:L2--.wav
256,192,38490,1,0,0:0:0:70:4#+.wav
329,192,38490,1,0,0:0:0:70:L2-.wav
475,192,38490,1,0,0:0:0:70:6.wav
402,192,38890,1,0,0:0:0:70:6.wav
256,192,38990,1,0,0:0:0:70:4#.wav
475,192,39090,1,0,0:0:0:70:2.wav
329,192,39190,1,0,0:0:0:70:6-.wav
182,192,39290,1,0,0:0:0:70:L2--.wav
475,192,39290,1,0,0:0:0:70:2.wav
36,192,39290,1,0,0:0:0:70:L2-.wav
256,192,39390,1,0,0:0:0:70:4#.wav
329,192,39490,1,0,0:0:0:70:5.wav
256,192,39590,1,0,0:0:0:70:4#.wav
182,192,39690,1,0,0:0:0:70:L5--.wav
36,192,39690,1,0,0:0:0:70:L5---.wav
329,192,39690,1,0,0:0:0:70:2.wav
475,192,39690,1,0,0:0:0:70:7-.wav
36,192,39890,1,0,0:0:0:70:L5---.wav
36,192,40090,1,0,0:0:0:70:L5---.wav
475,192,40090,1,0,0:0:0:70:5.wav
329,192,40090,1,0,0:0:0:70:7-.wav
182,192,40090,1,0,0:0:0:70:L5--.wav
329,192,40290,1,0,0:0:0:70:7-.wav
36,192,40290,1,0,0:0:0:70:L5---.wav
475,192,40290,1,0,0:0:0:70:5.wav
475,192,40490,1,0,0:0:0:70:5.wav
36,192,40490,1,0,0:0:0:70:L5---.wav
329,192,40490,1,0,0:0:0:70:7-.wav
182,192,40490,1,0,0:0:0:70:L5--.wav
256,192,40690,1,0,0:0:0:70:2.wav
329,192,40690,1,0,0:0:0:70:7-.wav
36,192,40690,1,0,0:0:0:70:L5---.wav
182,192,40890,1,0,0:0:0:70:L5--.wav
329,192,40890,1,0,0:0:0:70:7-.wav
36,192,40890,1,0,0:0:0:70:L5---.wav
475,192,40890,1,0,0:0:0:70:5.wav
36,192,41090,1,0,0:0:0:70:L5---.wav
402,192,41090,1,0,0:0:0:70:6.wav
256,192,41090,1,0,0:0:0:70:7-.wav
475,192,41290,1,0,0:0:0:70:7.wav
329,192,41290,1,0,0:0:0:70:2.wav
182,192,41290,1,0,0:0:0:70:L5--.wav
36,192,41290,1,0,0:0:0:70:L5---.wav
36,192,41490,1,0,0:0:0:70:L5---.wav
329,192,41690,1,0,0:0:0:70:6.wav
475,192,41690,1,0,0:0:0:70:2.wav
182,192,41690,1,0,0:0:0:70:L5--.wav
36,192,41690,1,0,0:0:0:70:L5---.wav
256,192,41890,1,0,0:0:0:70:2.wav
36,192,41890,1,0,0:0:0:70:L5---.wav
402,192,41890,1,0,0:0:0:70:5.wav
182,192,42090,1,0,0:0:0:70:L5--.wav
36,192,42090,1,0,0:0:0:70:L5---.wav
36,192,42290,1,0,0:0:0:70:L5---.wav
329,192,42290,1,0,0:0:0:70:6.wav
475,192,42290,1,0,0:0:0:70:2.wav
182,192,42490,1,0,0:0:0:70:L5--.wav
36,192,42490,1,0,0:0:0:70:L5---.wav
36,192,42690,1,0,0:0:0:70:L5---.wav
36,192,42890,1,0,0:0:0:70:L7--.wav
182,192,42890,1,0,0:0:0:70:L7---.wav
402,192,42890,1,0,0:0:0:70:2.wav
256,192,42890,1,0,0:0:0:70:4#-.wav
475,192,42890,1,0,0:0:0:70:7-.wav
182,192,43090,1,0,0:0:0:70:L7---.wav
475,192,43290,1,0,0:0:0:70:7-.wav
182,192,43290,1,0,0:0:0:70:L7---.wav
36,192,43290,1,0,0:0:0:70:L7--.wav
329,192,43290,1,0,0:0:0:70:4#.wav
182,192,43490,1,0,0:0:0:70:L7---.wav
475,192,43490,1,0,0:0:0:70:7-.wav
329,192,43490,1,0,0:0:0:70:4#.wav
36,192,43690,1,0,0:0:0:70:L7--.wav
182,192,43690,1,0,0:0:0:70:L7---.wav
475,192,43690,1,0,0:0:0:70:7-.wav
329,192,43690,1,0,0:0:0:70:4#.wav
182,192,43890,1,0,0:0:0:70:L7---.wav
329,192,43890,1,0,0:0:0:70:4#.wav
475,192,43890,1,0,0:0:0:70:7-.wav
182,192,44090,1,0,0:0:0:70:L7---.wav
36,192,44090,1,0,0:0:0:70:L7--.wav
475,192,44090,1,0,0:0:0:70:7-.wav
329,192,44090,1,0,0:0:0:70:4#.wav
182,192,44290,1,0,0:0:0:70:L7---.wav
329,192,44290,1,0,0:0:0:70:4#.wav
475,192,44290,1,0,0:0:0:70:7-.wav
182,192,44490,1,0,0:0:0:70:L7---.wav
36,192,44490,1,0,0:0:0:70:L7--.wav
475,192,44490,1,0,0:0:0:70:7-.wav
329,192,44490,1,0,0:0:0:70:4#.wav
182,192,44690,1,0,0:0:0:70:L7---.wav
329,192,44690,1,0,0:0:0:70:4#.wav
475,192,44690,1,0,0:0:0:70:7-.wav
36,192,44890,1,0,0:0:0:70:L7--.wav
182,192,44890,1,0,0:0:0:70:L7---.wav
475,192,44890,1,0,0:0:0:70:7-.wav
402,192,44890,1,0,0:0:0:70:5.wav
182,192,45090,1,0,0:0:0:70:L7---.wav
329,192,45090,1,0,0:0:0:70:7-.wav
475,192,45090,1,0,0:0:0:70:4#.wav
36,192,45290,1,0,0:0:0:70:L7--.wav
182,192,45290,1,0,0:0:0:70:L7---.wav
182,192,45490,1,0,0:0:0:70:L7---.wav
36,192,45690,1,0,0:0:0:70:L7--.wav
182,192,45690,1,0,0:0:0:70:L7---.wav
182,192,45890,1,0,0:0:0:70:L7---.wav
182,192,46090,1,0,0:0:0:70:L3-.wav
36,192,46090,1,0,0:0:0:70:L3--.wav
402,192,46090,1,0,0:0:0:70:3.wav
475,192,46090,1,0,0:0:0:70:7-.wav
329,192,46090,1,0,0:0:0:70:5-.wav
36,192,46290,1,0,0:0:0:70:L3--.wav
182,192,46490,1,0,0:0:0:70:L3-.wav
36,192,46490,1,0,0:0:0:70:L3--.wav
475,192,46490,1,0,0:0:0:70:7-.wav
329,192,46490,1,0,0:0:0:70:5.wav
36,192,46690,1,0,0:0:0:70:L3--.wav
329,192,46690,1,0,0:0:0:70:5.wav
475,192,46690,1,0,0:0:0:70:7-.wav
36,192,46890,1,0,0:0:0:70:L3--.wav
182,192,46890,1,0,0:0:0:70:L3-.wav
475,192,46890,1,0,0:0:0:70:7-.wav
329,192,46890,1,0,0:0:0:70:5.wav
36,192,47090,1,0,0:0:0:70:L3--.wav
256,192,47090,1,0,0:0:0:70:2.wav
475,192,47090,1,0,0:0:0:70:7-.wav
182,192,47290,1,0,0:0:0:70:L3-.wav
36,192,47290,1,0,0:0:0:70:L3--.wav
475,192,47290,1,0,0:0:0:70:7-.wav
329,192,47290,1,0,0:0:0:70:5.wav
36,192,47490,1,0,0:0:0:70:L3--.wav
475,192,47490,1,0,0:0:0:70:7-.wav
402,192,47490,1,0,0:0:0:70:6.wav
182,192,47690,1,0,0:0:0:70:L3--.wav
36,192,47690,1,0,0:0:0:70:L3-.wav
329,192,47690,1,0,0:0:0:70:3.wav
475,192,47690,1,0,0:0:0:70:7-.wav
256,192,47690,1,0,0:0:0:70:7.wav
182,192,47890,1,0,0:0:0:70:L3--.wav
182,192,48090,1,0,0:0:0:70:L3-.wav
36,192,48090,1,0,0:0:0:70:L3--.wav
402,192,48090,1,0,0:0:0:70:3.wav
475,192,48090,1,0,0:0:0:70:7-.wav
329,192,48090,1,0,0:0:0:70:6.wav
182,192,48290,1,0,0:0:0:70:L3--.wav
329,192,48290,1,0,0:0:0:70:3.wav
402,192,48290,1,0,0:0:0:70:7-.wav
256,192,48290,1,0,0:0:0:70:5.wav
36,192,48490,1,0,0:0:0:70:L3--.wav
182,192,48490,1,0,0:0:0:70:L3-.wav
182,192,48690,1,0,0:0:0:70:L3--.wav
475,192,48690,1,0,0:0:0:70:7-.wav
329,192,48690,1,0,0:0:0:70:6.wav
402,192,48690,1,0,0:0:0:70:3.wav
182,192,48890,1,0,0:0:0:70:L3-.wav
36,192,48890,1,0,0:0:0:70:L3--.wav
182,192,49090,1,0,0:0:0:70:L3--.wav
402,192,49090,1,0,0:0:0:70:3.wav
256,192,49290,1,0,0:0:0:70:1+.wav
475,192,49290,1,0,0:0:0:70:1.wav
402,192,49290,1,0,0:0:0:70:3.wav
36,192,49290,1,0,0:0:0:70:L1--.wav
182,192,49290,1,0,0:0:0:70:L1-.wav
109,192,49490,1,0,0:0:0:70:L1--.wav
182,192,49690,1,0,0:0:0:70:L1-.wav
329,192,49690,1,0,0:0:0:70:7.wav
402,192,49890,1,0,0:0:0:70:2.wav
475,192,49890,1,0,0:0:0:70:6-.wav
256,192,49890,1,0,0:0:0:70:6.wav
109,192,49890,1,0,0:0:0:70:L2--.wav
36,192,49890,1,0,0:0:0:70:L2-.wav
182,192,50290,1,0,0:0:0:70:L2--.wav
329,192,50290,1,0,0:0:0:70:5.wav
109,192,50490,1,0,0:0:0:70:L2-.wav
256,192,50490,1,0,0:0:0:70:4#.wav
402,192,50690,1,0,0:0:0:70:2.wav
475,192,50690,1,0,0:0:0:70:7-.wav
329,192,50690,1,0,0:0:0:70:5.wav
182,192,50690,1,0,0:0:0:70:L5--.wav
36,192,50690,1,0,0:0:0:70:L5---.wav
329,192,51090,1,0,0:0:0:70:L5--.wav
182,192,51290,1,0,0:0:0:70:L5---.wav
475,192,51490,1,0,0:0:0:70:2+.wav
36,192,51490,1,0,0:0:0:70:L5---.wav
109,192,51490,1,0,0:0:0:70:L5--.wav
402,192,51490,1,0,0:0:0:70:2.wav
329,192,51490,1,0,0:0:0:70:5.wav
256,192,51490,1,0,0:0:0:70:7.wav
182,192,51890,1,0,0:0:0:70:L5---.wav
256,192,51890,1,0,0:0:0:70:7.wav
475,192,51890,1,0,0:0:0:70:2.wav
109,192,51890,1,0,0:0:0:70:L5--.wav
329,192,51890,1,0,0:0:0:70:7+.wav
256,192,52090,1,0,0:0:0:70:5.wav
402,192,52090,1,0,0:0:0:70:2+.wav
36,192,52090,1,0,0:0:0:70:L5---.wav
109,192,52090,1,0,0:0:0:70:7.wav
36,192,52490,1,0,0:0:0:70:L6---.wav
109,192,52490,1,0,0:0:0:70:L6--.wav
475,192,52490,1,0,0:0:0:70:6-.wav
256,192,52490,1,0,0:0:0:70:3.wav
402,192,52490,1,0,0:0:0:70:1.wav
475,192,52890,1,0,0:0:0:70:6-.wav
256,192,52890,1,0,0:0:0:70:3.wav
402,192,52890,1,0,0:0:0:70:1.wav
36,192,53090,1,0,0:0:0:70:L6---.wav
36,192,53290,1,0,0:0:0:70:L6--.wav
475,192,53290,1,0,0:0:0:70:6-.wav
329,192,53290,1,0,0:0:0:70:4#.wav
402,192,53290,1,0,0:0:0:70:1.wav
182,192,53290,1,0,0:0:0:70:L6---.wav
475,192,53690,1,0,0:0:0:70:6-.wav
256,192,53690,1,0,0:0:0:70:5.wav
402,192,53690,1,0,0:0:0:70:1.wav
36,192,53890,1,0,0:0:0:70:L2-.wav
109,192,53890,1,0,0:0:0:70:L2--.wav
475,192,54090,1,0,0:0:0:70:6-.wav
182,192,54090,1,0,0:0:0:70:4#.wav
329,192,54090,1,0,0:0:0:70:2.wav
109,192,54290,1,0,0:0:0:70:L2--.wav
36,192,54290,1,0,0:0:0:70:L2-.wav
402,192,54490,1,0,0:0:0:70:2.wav
256,192,54490,1,0,0:0:0:70:5.wav
475,192,54490,1,0,0:0:0:70:6-.wav
36,192,54690,1,0,0:0:0:70:L2--.wav
475,192,54890,1,0,0:0:0:70:6-.wav
402,192,54890,1,0,0:0:0:70:2.wav
329,192,54890,1,0,0:0:0:70:4#.wav
182,192,54890,1,0,0:0:0:70:L2-.wav
36,192,54890,1,0,0:0:0:70:L2--.wav
256,192,55090,1,0,0:0:0:70:L2--.wav
402,192,55090,1,0,0:0:0:70:7.wav
36,192,55290,1,0,0:0:0:70:1+.wav
182,192,55290,1,0,0:0:0:70:4#.wav
329,192,55290,1,0,0:0:0:70:2.wav
109,192,55490,1,0,0:0:0:70:L2--.wav
36,192,55690,1,0,0:0:0:70:L7--.wav
256,192,55690,1,0,0:0:0:70:L7---.wav
475,192,55690,1,0,0:0:0:70:7-.wav
182,192,55690,1,0,0:0:0:70:4#-.wav
402,192,55690,1,0,0:0:0:70:2.wav
402,192,56090,1,0,0:0:0:70:2.wav
475,192,56090,1,0,0:0:0:70:7-.wav
256,192,56090,1,0,0:0:0:70:4#-.wav
36,192,56290,1,0,0:0:0:70:L7---.wav
182,192,56490,1,0,0:0:0:70:L7---.wav
36,192,56490,1,0,0:0:0:70:L7--.wav
402,192,56490,1,0,0:0:0:70:3.wav
475,192,56490,1,0,0:0:0:70:7-.wav
256,192,56490,1,0,0:0:0:70:4#-.wav
256,192,56890,1,0,0:0:0:70:4#-.wav
402,192,56890,1,0,0:0:0:70:4#.wav
475,192,56890,1,0,0:0:0:70:7-.wav
36,192,57090,1,0,0:0:0:70:L3--.wav
182,192,57090,1,0,0:0:0:70:L3-.wav
402,192,57290,1,0,0:0:0:70:3.wav
256,192,57290,1,0,0:0:0:70:5.wav
475,192,57290,1,0,0:0:0:70:7-.wav
36,192,57490,1,0,0:0:0:70:L3--.wav
182,192,57490,1,0,0:0:0:70:L3-.wav
402,192,57690,1,0,0:0:0:70:3.wav
329,192,57690,1,0,0:0:0:70:6.wav
475,192,57690,1,0,0:0:0:70:7-.wav
182,192,57890,1,0,0:0:0:70:L3--.wav
182,192,58090,1,0,0:0:0:70:L3--.wav
36,192,58090,1,0,0:0:0:70:L3-.wav
329,192,58090,1,0,0:0:0:70:3.wav
256,192,58090,1,0,0:0:0:70:7.wav
475,192,58090,1,0,0:0:0:70:7-.wav
109,192,58290,1,0,0:0:0:70:L3--.wav
182,192,58490,1,0,0:0:0:70:6.wav
256,192,58690,1,0,0:0:0:70:7.wav
109,192,58690,1,0,0:0:0:70:L3-.wav
329,192,58890,1,0,0:0:0:70:1+.wav
402,192,58890,1,0,0:0:0:70:1.wav
475,192,58890,1,0,0:0:0:70:4.wav
36,192,58890,1,0,0:0:0:70:L4---.wav
182,192,59090,1,0,0:0:0:70:L4--.wav
36,192,59290,1,0,0:0:0:70:L1-.wav
329,192,59290,1,0,0:0:0:70:7.wav
475,192,59290,1,0,0:0:0:70:1.wav
402,192,59490,1,0,0:0:0:70:1.wav
256,192,59490,1,0,0:0:0:70:6.wav
182,192,59490,1,0,0:0:0:70:L4-.wav
36,192,59690,1,0,0:0:0:70:L4--.wav
182,192,59890,1,0,0:0:0:70:L4-.wav
329,192,59890,1,0,0:0:0:70:1.wav
256,192,59890,1,0,0:0:0:70:5.wav
36,192,60090,1,0,0:0:0:70:L1-.wav
182,192,60290,1,0,0:0:0:70:L3-.wav
329,192,60290,1,0,0:0:0:70:1.wav
256,192,60290,1,0,0:0:0:70:5.wav
36,192,60490,1,0,0:0:0:70:L3---.wav
402,192,60490,1,0,0:0:0:70:1++.wav
475,192,60490,1,0,0:0:0:70:1+.wav
182,192,60690,1,0,0:0:0:70:L3--.wav
475,192,60890,1,0,0:0:0:70:7.wav
329,192,60890,1,0,0:0:0:70:7+.wav
36,192,60890,1,0,0:0:0:70:L1-.wav
182,192,61090,1,0,0:0:0:70:L3--.wav
256,192,61090,1,0,0:0:0:70:6+.wav
402,192,61090,1,0,0:0:0:70:6.wav
36,192,61290,1,0,0:0:0:70:L3--.wav
182,192,61490,1,0,0:0:0:70:L3-.wav
329,192,61490,1,0,0:0:0:70:5+.wav
475,192,61490,1,0,0:0:0:70:5.wav
256,192,61690,1,0,0:0:0:70:6.wav
36,192,61690,1,0,0:0:0:70:L1-.wav
329,192,61890,1,0,0:0:0:70:7.wav
182,192,61890,1,0,0:0:0:70:L3--.wav
256,192,62090,1,0,0:0:0:70:1+.wav
402,192,62090,1,0,0:0:0:70:1.wav
475,192,62090,1,0,0:0:0:70:4.wav
36,192,62090,1,0,0:0:0:70:L2---.wav
182,192,62290,1,0,0:0:0:70:L2--.wav
475,192,62490,1,0,0:0:0:70:7.wav
36,192,62490,1,0,0:0:0:70:L6--.wav
182,192,62690,1,0,0:0:0:70:L2-.wav
402,192,62690,1,0,0:0:0:70:1.wav
256,192,62690,1,0,0:0:0:70:6.wav
36,192,62890,1,0,0:0:0:70:L2--.wav
182,192,63090,1,0,0:0:0:70:L2-.wav
329,192,63090,1,0,0:0:0:70:5.wav
36,192,63290,1,0,0:0:0:70:L6--.wav
402,192,63290,1,0,0:0:0:70:6.wav
109,192,63490,1,0,0:0:0:70:L7--.wav
182,192,63490,1,0,0:0:0:70:7.wav
329,192,63490,1,0,0:0:0:70:4#.wav
256,192,63490,1,0,0:0:0:70:3.wav
475,192,63490,1,0,0:0:0:70:7-.wav
36,192,63590,1,0,0:0:0:70:L7---.wav
182,192,63690,1,0,0:0:0:70:L4#--.wav
256,192,63790,1,0,0:0:0:70:7-.wav
329,192,63890,1,0,0:0:0:70:3.wav
36,192,63890,1,0,0:0:0:70:L7--.wav
402,192,63990,1,0,0:0:0:70:4#.wav
109,192,64090,1,0,0:0:0:70:L7--.wav
475,192,64090,1,0,0:0:0:70:7.wav
329,192,64190,1,0,0:0:0:70:7.wav
182,192,64290,1,0,0:0:0:70:L4#-.wav
36,192,64390,1,0,0:0:0:70:3+.wav
182,192,64490,1,0,0:0:0:70:L7-.wav
256,192,64590,1,0,0:0:0:70:4#+.wav
329,192,64690,1,0,0:0:0:70:7+.wav
109,192,64690,1,0,0:0:0:70:L7-.wav
475,192,64790,1,0,0:0:0:70:7+.wav
36,192,64890,1,0,0:0:0:70:L4#.wav
256,192,64890,1,0,0:0:0:70:3++.wav
329,192,64990,1,0,0:0:0:70:4#++.wav
402,192,65090,1,0,0:0:0:70:7++.wav
36,192,65090,1,0,0:0:0:70:L7-.wav
182,192,65090,1,0,0:0:0:70:L7.wav
329,192,65190,1,0,0:0:0:70:7++.wav
402,192,65190,1,0,0:0:0:70:2#++.wav
256,192,65190,1,0,0:0:0:70:4#++.wav
475,192,65190,1,0,0:0:0:70:7+.wav
36,192,65190,1,0,0:0:0:70:L7.wav
109,192,65190,1,0,0:0:0:70:L7-.wav
36,192,65690,1,0,0:0:0:70:L7--.wav
182,192,65690,1,0,0:0:0:70:L7---.wav
36,192,66090,1,0,0:0:0:70:L7--.wav
182,192,66090,1,0,0:0:0:70:L7---.wav
182,192,66490,1,0,0:0:0:70:L7---.wav
36,192,66490,1,0,0:0:0:70:L7--.wav
329,192,66690,1,0,0:0:0:70:3+.wav
36,192,66890,1,0,0:0:0:70:L1---.wav
329,192,66890,1,0,0:0:0:70:3+.wav
475,192,66890,1,0,0:0:0:70:7+.wav
256,192,66890,1,0,0:0:0:70:7.wav
475,192,67090,1,0,0:0:0:70:3+.wav
256,192,67090,1,0,0:0:0:70:7+.wav
329,192,67090,1,0,0:0:0:70:7.wav
109,192,67090,1,0,0:0:0:70:L1--.wav
256,192,67290,1,0,0:0:0:70:7+.wav
329,192,67290,1,0,0:0:0:70:7.wav
475,192,67290,1,0,0:0:0:70:3+.wav
182,192,67290,1,0,0:0:0:70:L5--.wav
475,192,67490,1,0,0:0:0:70:3+.wav
329,192,67490,1,0,0:0:0:70:7.wav
256,192,67490,1,0,0:0:0:70:7+.wav
109,192,67490,1,0,0:0:0:70:L1-.wav
36,192,67690,1,0,0:0:0:70:L1--.wav
182,192,67890,1,0,0:0:0:70:L1-.wav
329,192,67890,1,0,0:0:0:70:7.wav
256,192,67890,1,0,0:0:0:70:7+.wav
475,192,67890,1,0,0:0:0:70:3+.wav
109,192,68090,1,0,0:0:0:70:L5--.wav
36,192,68290,1,0,0:0:0:70:L1--.wav
182,192,68290,1,0,0:0:0:70:7+.wav
475,192,68290,1,0,0:0:0:70:3+.wav
329,192,68290,1,0,0:0:0:70:7.wav
109,192,68490,1,0,0:0:0:70:L2---.wav
256,192,68490,1,0,0:0:0:70:6.wav
329,192,68490,1,0,0:0:0:70:2+.wav
402,192,68490,1,0,0:0:0:70:6+.wav
36,192,68690,1,0,0:0:0:70:L2--.wav
329,192,68690,1,0,0:0:0:70:5+.wav
182,192,68690,1,0,0:0:0:70:6.wav
256,192,68690,1,0,0:0:0:70:2+.wav
109,192,68890,1,0,0:0:0:70:L6--.wav
182,192,69090,1,0,0:0:0:70:L2-.wav
475,192,69090,1,0,0:0:0:70:4#+.wav
329,192,69090,1,0,0:0:0:70:6.wav
402,192,69090,1,0,0:0:0:70:2+.wav
109,192,69290,1,0,0:0:0:70:L2--.wav
256,192,69290,1,0,0:0:0:70:2.wav
182,192,69490,1,0,0:0:0:70:L2-.wav
329,192,69490,1,0,0:0:0:70:4#.wav
36,192,69690,1,0,0:0:0:70:L6--.wav
256,192,69690,1,0,0:0:0:70:2+.wav
475,192,69690,1,0,0:0:0:70:6.wav
109,192,69890,1,0,0:0:0:70:L2--.wav
256,192,69890,1,0,0:0:0:70:2+.wav
36,192,70090,1,0,0:0:0:70:L7---.wav
329,192,70090,1,0,0:0:0:70:6.wav
402,192,70090,1,0,0:0:0:70:2+.wav
475,192,70090,1,0,0:0:0:70:6+.wav
109,192,70290,1,0,0:0:0:70:L7--.wav
475,192,70290,1,0,0:0:0:70:6+.wav
402,192,70290,1,0,0:0:0:70:2+.wav
329,192,70290,1,0,0:0:0:70:6.wav
182,192,70490,1,0,0:0:0:70:L4#-.wav
329,192,70490,1,0,0:0:0:70:6.wav
402,192,70490,1,0,0:0:0:70:2+.wav
475,192,70490,1,0,0:0:0:70:6+.wav
256,192,70690,1,0,0:0:0:70:L7-.wav
475,192,70690,1,0,0:0:0:70:6+.wav
402,192,70690,1,0,0:0:0:70:2+.wav
329,192,70690,1,0,0:0:0:70:6.wav
182,192,70890,1,0,0:0:0:70:L7--.wav
109,192,71090,1,0,0:0:0:70:L7-.wav
329,192,71090,1,0,0:0:0:70:6.wav
402,192,71090,1,0,0:0:0:70:2+.wav
475,192,71090,1,0,0:0:0:70:6+.wav
36,192,71290,1,0,0:0:0:70:L4#-.wav
182,192,71490,1,0,0:0:0:70:L7--.wav
475,192,71490,1,0,0:0:0:70:6+.wav
402,192,71490,1,0,0:0:0:70:2+.wav
329,192,71490,1,0,0:0:0:70:6.wav
109,192,71690,1,0,0:0:0:70:L3---.wav
256,192,71690,1,0,0:0:0:70:7.wav
329,192,71690,1,0,0:0:0:70:5+.wav
402,192,71690,1,0,0:0:0:70:3+.wav
36,192,71890,1,0,0:0:0:70:L3--.wav
182,192,71890,1,0,0:0:0:70:7.wav
256,192,71890,1,0,0:0:0:70:6+.wav
329,192,71890,1,0,0:0:0:70:3+.wav
109,192,72090,1,0,0:0:0:70:L7--.wav
182,192,72290,1,0,0:0:0:70:L3-.wav
329,192,72290,1,0,0:0:0:70:7.wav
402,192,72290,1,0,0:0:0:70:7+.wav
475,192,72290,1,0,0:0:0:70:3+.wav
36,192,72490,1,0,0:0:0:70:L3--.wav
256,192,72490,1,0,0:0:0:70:3.wav
109,192,72690,1,0,0:0:0:70:L3-.wav
329,192,72690,1,0,0:0:0:70:5.wav
182,192,72890,1,0,0:0:0:70:L7--.wav
475,192,72890,1,0,0:0:0:70:3+.wav
402,192,72890,1,0,0:0:0:70:7.wav
36,192,73090,1,0,0:0:0:70:L3--.wav
475,192,73090,1,0,0:0:0:70:3+.wav
109,192,73290,1,0,0:0:0:70:L1---.wav
256,192,73290,1,0,0:0:0:70:7.wav
475,192,73290,1,0,0:0:0:70:3+.wav
329,192,73290,1,0,0:0:0:70:6+.wav
36,192,73490,1,0,0:0:0:70:L1--.wav
256,192,73490,1,0,0:0:0:70:7.wav
475,192,73490,1,0,0:0:0:70:3+.wav
329,192,73490,1,0,0:0:0:70:6+.wav
109,192,73690,1,0,0:0:0:70:L5--.wav
329,192,73690,1,0,0:0:0:70:6+.wav
475,192,73690,1,0,0:0:0:70:3+.wav
256,192,73690,1,0,0:0:0:70:7.wav
182,192,73890,1,0,0:0:0:70:L1-.wav
256,192,73890,1,0,0:0:0:70:7.wav
475,192,73890,1,0,0:0:0:70:3+.wav
329,192,73890,1,0,0:0:0:70:6+.wav
109,192,74090,1,0,0:0:0:70:L1--.wav
36,192,74290,1,0,0:0:0:70:L1-.wav
256,192,74290,1,0,0:0:0:70:6+.wav
475,192,74290,1,0,0:0:0:70:3+.wav
329,192,74290,1,0,0:0:0:70:7.wav
109,192,74490,1,0,0:0:0:70:L5--.wav
182,192,74690,1,0,0:0:0:70:L1--.wav
329,192,74690,1,0,0:0:0:70:7.wav
475,192,74690,1,0,0:0:0:70:3+.wav
402,192,74690,1,0,0:0:0:70:6+.wav
109,192,74890,1,0,0:0:0:70:L2---.wav
256,192,74890,1,0,0:0:0:70:6.wav
329,192,74890,1,0,0:0:0:70:2+.wav
402,192,74890,1,0,0:0:0:70:6+.wav
36,192,75090,1,0,0:0:0:70:L2--.wav
182,192,75090,1,0,0:0:0:70:6.wav
256,192,75090,1,0,0:0:0:70:2+.wav
329,192,75090,1,0,0:0:0:70:5+.wav
109,192,75290,1,0,0:0:0:70:L6--.wav
36,192,75490,1,0,0:0:0:70:L2-.wav
182,192,75490,1,0,0:0:0:70:6.wav
329,192,75490,1,0,0:0:0:70:2+.wav
475,192,75490,1,0,0:0:0:70:4#+.wav
109,192,75690,1,0,0:0:0:70:L2--.wav
256,192,75690,1,0,0:0:0:70:2.wav
329,192,75890,1,0,0:0:0:70:4#.wav
182,192,75890,1,0,0:0:0:70:L2-.wav
36,192,76090,1,0,0:0:0:70:L6--.wav
256,192,76090,1,0,0:0:0:70:6.wav
402,192,76090,1,0,0:0:0:70:2+.wav
182,192,76290,1,0,0:0:0:70:L2--.wav
402,192,76290,1,0,0:0:0:70:2+.wav
36,192,76490,1,0,0:0:0:70:L7---.wav
475,192,76490,1,0,0:0:0:70:2+.wav
402,192,76490,1,0,0:0:0:70:2.wav
256,192,76490,1,0,0:0:0:70:6.wav
109,192,76690,1,0,0:0:0:70:L7--.wav
182,192,76890,1,0,0:0:0:70:L4#-.wav
256,192,76890,1,0,0:0:0:70:3.wav
402,192,76890,1,0,0:0:0:70:3+.wav
109,192,77090,1,0,0:0:0:70:L7-.wav
36,192,77290,1,0,0:0:0:70:L7--.wav
402,192,77290,1,0,0:0:0:70:2+.wav
256,192,77290,1,0,0:0:0:70:4#.wav
475,192,77290,1,0,0:0:0:70:4#+.wav
109,192,77490,1,0,0:0:0:70:L7-.wav
329,192,77690,1,0,0:0:0:70:5+.wav
475,192,77690,1,0,0:0:0:70:5.wav
182,192,77690,1,0,0:0:0:70:L4#-.wav
109,192,77890,1,0,0:0:0:70:L7--.wav
256,192,78090,1,0,0:0:0:70:6.wav
402,192,78090,1,0,0:0:0:70:2+.wav
475,192,78090,1,0,0:0:0:70:6+.wav
36,192,78090,1,0,0:0:0:70:L3---.wav
109,192,78290,1,0,0:0:0:70:L3--.wav
182,192,78490,1,0,0:0:0:70:L4#---.wav
329,192,78490,1,0,0:0:0:70:1++.wav
402,192,78490,1,0,0:0:0:70:1+.wav
475,192,78490,1,0,0:0:0:70:3+.wav
109,192,78690,1,0,0:0:0:70:L4#--.wav
36,192,78890,1,0,0:0:0:70:L5---.wav
475,192,78890,1,0,0:0:0:70:7+.wav
329,192,78890,1,0,0:0:0:70:2+.wav
182,192,78890,1,0,0:0:0:70:7.wav
109,192,79090,1,0,0:0:0:70:L5--.wav
256,192,79090,1,0,0:0:0:70:2.wav
182,192,79290,1,0,0:0:0:70:L7---.wav
329,192,79290,1,0,0:0:0:70:5.wav
109,192,79490,1,0,0:0:0:70:L7--.wav
475,192,79490,1,0,0:0:0:70:3+.wav
256,192,79490,1,0,0:0:0:70:7.wav
36,192,79690,1,0,0:0:0:70:L1---.wav
475,192,79690,1,0,0:0:0:70:3+.wav
256,192,79690,1,0,0:0:0:70:7.wav
402,192,79690,1,0,0:0:0:70:7+.wav
109,192,79890,1,0,0:0:0:70:L1--.wav
475,192,79890,1,0,0:0:0:70:3+.wav
256,192,79890,1,0,0:0:0:70:7.wav
402,192,79890,1,0,0:0:0:70:7+.wav
182,192,80090,1,0,0:0:0:70:L5--.wav
402,192,80090,1,0,0:0:0:70:7+.wav
256,192,80090,1,0,0:0:0:70:7.wav
475,192,80090,1,0,0:0:0:70:3+.wav
109,192,80290,1,0,0:0:0:70:L1-.wav
475,192,80290,1,0,0:0:0:70:3+.wav
256,192,80290,1,0,0:0:0:70:7.wav
402,192,80290,1,0,0:0:0:70:7+.wav
36,192,80490,1,0,0:0:0:70:L1--.wav
109,192,80690,1,0,0:0:0:70:L1-.wav
402,192,80690,1,0,0:0:0:70:7+.wav
256,192,80690,1,0,0:0:0:70:7.wav
475,192,80690,1,0,0:0:0:70:3+.wav
182,192,80890,1,0,0:0:0:70:L5--.wav
109,192,81090,1,0,0:0:0:70:L1--.wav
475,192,81090,1,0,0:0:0:70:3+.wav
256,192,81090,1,0,0:0:0:70:7.wav
402,192,81090,1,0,0:0:0:70:7+.wav
36,192,81290,1,0,0:0:0:70:L2---.wav
182,192,81290,1,0,0:0:0:70:6.wav
329,192,81290,1,0,0:0:0:70:2+.wav
475,192,81290,1,0,0:0:0:70:6+.wav
36,192,81490,1,0,0:0:0:70:L2--.wav
402,192,81490,1,0,0:0:0:70:5+.wav
256,192,81490,1,0,0:0:0:70:2+.wav
109,192,81490,1,0,0:0:0:70:6.wav
329,192,81690,1,0,0:0:0:70:L6--.wav
36,192,81890,1,0,0:0:0:70:L2-.wav
475,192,81890,1,0,0:0:0:70:4#+.wav
256,192,81890,1,0,0:0:0:70:2+.wav
182,192,81890,1,0,0:0:0:70:6.wav
109,192,82090,1,0,0:0:0:70:L2--.wav
329,192,82090,1,0,0:0:0:70:2.wav
182,192,82290,1,0,0:0:0:70:L2-.wav
402,192,82290,1,0,0:0:0:70:4#.wav
109,192,82490,1,0,0:0:0:70:L6--.wav
329,192,82490,1,0,0:0:0:70:6.wav
475,192,82490,1,0,0:0:0:70:2+.wav
182,192,82690,1,0,0:0:0:70:L2--.wav
475,192,82690,1,0,0:0:0:70:2+.wav
36,192,82890,1,0,0:0:0:70:L7---.wav
475,192,82890,1,0,0:0:0:70:6+.wav
256,192,82890,1,0,0:0:0:70:6.wav
329,192,82890,1,0,0:0:0:70:2+.wav
109,192,83090,1,0,0:0:0:70:L7--.wav
329,192,83090,1,0,0:0:0:70:2+.wav
256,192,83090,1,0,0:0:0:70:6.wav
475,192,83090,1,0,0:0:0:70:6+.wav
182,192,83290,1,0,0:0:0:70:L4#-.wav
475,192,83290,1,0,0:0:0:70:6+.wav
256,192,83290,1,0,0:0:0:70:6.wav
329,192,83290,1,0,0:0:0:70:2+.wav
109,192,83490,1,0,0:0:0:70:L7-.wav
329,192,83490,1,0,0:0:0:70:2+.wav
256,192,83490,1,0,0:0:0:70:6.wav
475,192,83490,1,0,0:0:0:70:6+.wav
36,192,83690,1,0,0:0:0:70:L7--.wav
109,192,83890,1,0,0:0:0:70:L7-.wav
475,192,83890,1,0,0:0:0:70:6+.wav
256,192,83890,1,0,0:0:0:70:6.wav
329,192,83890,1,0,0:0:0:70:2+.wav
182,192,84090,1,0,0:0:0:70:L4#-.wav
36,192,84290,1,0,0:0:0:70:L7--.wav
329,192,84290,1,0,0:0:0:70:2+.wav
256,192,84290,1,0,0:0:0:70:6.wav
475,192,84290,1,0,0:0:0:70:6+.wav
109,192,84490,1,0,0:0:0:70:L3---.wav
329,192,84490,1,0,0:0:0:70:1++.wav
402,192,84490,1,0,0:0:0:70:1+.wav
475,192,84490,1,0,0:0:0:70:3+.wav
36,192,84690,1,0,0:0:0:70:L3--.wav
402,192,84690,1,0,0:0:0:70:3+.wav
256,192,84690,1,0,0:0:0:70:7+.wav
182,192,84690,1,0,0:0:0:70:7.wav
109,192,84890,1,0,0:0:0:70:L7--.wav
36,192,85090,1,0,0:0:0:70:L3-.wav
256,192,85090,1,0,0:0:0:70:3+.wav
182,192,85090,1,0,0:0:0:70:7+.wav
402,192,85090,1,0,0:0:0:70:7.wav
109,192,85290,1,0,0:0:0:70:L3--.wav
36,192,85490,1,0,0:0:0:70:L3-.wav
329,192,85490,1,0,0:0:0:70:3+.wav
109,192,85690,1,0,0:0:0:70:L7--.wav
402,192,85690,1,0,0:0:0:70:4#+.wav
36,192,85890,1,0,0:0:0:70:L3--.wav
475,192,85890,1,0,0:0:0:70:5+.wav
329,192,85890,1,0,0:0:0:70:1+.wav
182,192,85890,1,0,0:0:0:70:5.wav
109,192,86090,1,0,0:0:0:70:L1---.wav
36,192,86290,1,0,0:0:0:70:L1--.wav
256,192,86290,1,0,0:0:0:70:3.wav
109,192,86490,1,0,0:0:0:70:L5--.wav
329,192,86490,1,0,0:0:0:70:4#.wav
182,192,86690,1,0,0:0:0:70:L1-.wav
402,192,86690,1,0,0:0:0:70:1.wav
256,192,86690,1,0,0:0:0:70:5.wav
475,192,86690,1,0,0:0:0:70:5-.wav
109,192,86890,1,0,0:0:0:70:L1--.wav
36,192,87090,1,0,0:0:0:70:L1-.wav
256,192,87090,1,0,0:0:0:70:4#+.wav
109,192,87290,1,0,0:0:0:70:L5--.wav
329,192,87290,1,0,0:0:0:70:5+.wav
36,192,87490,1,0,0:0:0:70:L2--.wav
256,192,87490,1,0,0:0:0:70:6.wav
475,192,87490,1,0,0:0:0:70:6+.wav
402,192,87490,1,0,0:0:0:70:2+.wav
182,192,87690,1,0,0:0:0:70:L2---.wav
109,192,87890,1,0,0:0:0:70:L2--.wav
256,192,87890,1,0,0:0:0:70:4#.wav
36,192,88090,1,0,0:0:0:70:L6--.wav
329,192,88090,1,0,0:0:0:70:5.wav
109,192,88290,1,0,0:0:0:70:L2-.wav
256,192,88290,1,0,0:0:0:70:6.wav
475,192,88290,1,0,0:0:0:70:6-.wav
402,192,88290,1,0,0:0:0:70:2.wav
182,192,88490,1,0,0:0:0:70:L2--.wav
36,192,88690,1,0,0:0:0:70:L2-.wav
329,192,88690,1,0,0:0:0:70:4#+.wav
109,192,88890,1,0,0:0:0:70:L6--.wav
402,192,88890,1,0,0:0:0:70:5+.wav
36,192,89090,1,0,0:0:0:70:L7--.wav
475,192,89090,1,0,0:0:0:70:6+.wav
256,192,89090,1,0,0:0:0:70:6.wav
329,192,89090,1,0,0:0:0:70:2+.wav
182,192,89290,1,0,0:0:0:70:L7---.wav
109,192,89490,1,0,0:0:0:70:L7--.wav
402,192,89490,1,0,0:0:0:70:2+.wav
36,192,89690,1,0,0:0:0:70:L4#-.wav
329,192,89690,1,0,0:0:0:70:1+.wav
109,192,89890,1,0,0:0:0:70:L7-.wav
256,192,89890,1,0,0:0:0:70:2+.wav
475,192,89890,1,0,0:0:0:70:6+.wav
182,192,90090,1,0,0:0:0:70:L7--.wav
109,192,90290,1,0,0:0:0:70:L7-.wav
329,192,90290,1,0,0:0:0:70:2+.wav
182,192,90490,1,0,0:0:0:70:L4#-.wav
402,192,90490,1,0,0:0:0:70:3+.wav
256,192,90690,1,0,0:0:0:70:L7--.wav
475,192,90690,1,0,0:0:0:70:4#+.wav
36,192,90890,1,0,0:0:0:70:L3---.wav
182,192,90890,1,0,0:0:0:70:3+.wav
256,192,90890,1,0,0:0:0:70:7.wav
475,192,90890,1,0,0:0:0:70:5.wav
109,192,91090,1,0,0:0:0:70:L3--.wav
329,192,91090,1,0,0:0:0:70:5+.wav
182,192,91290,1,0,0:0:0:70:L7--.wav
402,192,91290,1,0,0:0:0:70:6+.wav
256,192,91490,1,0,0:0:0:70:L3-.wav
36,192,91490,1,0,0:0:0:70:7.wav
475,192,91490,1,0,0:0:0:70:7+.wav
402,192,91490,1,0,0:0:0:70:3+.wav
109,192,91690,1,0,0:0:0:70:L3--.wav
182,192,91890,1,0,0:0:0:70:L3-.wav
109,192,92090,1,0,0:0:0:70:L7--.wav
36,192,92290,1,0,0:0:0:70:L3--.wav
109,192,92490,1,0,0:0:0:70:L6---.wav
475,192,92490,1,0,0:0:0:70:3+.wav
402,192,92490,1,0,0:0:0:70:1+.wav
256,192,92490,1,0,0:0:0:70:1++.wav
182,192,92690,1,0,0:0:0:70:L6--.wav
109,192,92890,1,0,0:0:0:70:L3-.wav
36,192,93090,1,0,0:0:0:70:L6-.wav
329,192,93090,1,0,0:0:0:70:3+.wav
109,192,93290,1,0,0:0:0:70:L6--.wav
475,192,93290,1,0,0:0:0:70:3+.wav
256,192,93290,1,0,0:0:0:70:5.wav
402,192,93290,1,0,0:0:0:70:1+.wav
182,192,93490,1,0,0:0:0:70:L6-.wav
109,192,93690,1,0,0:0:0:70:L3-.wav
36,192,93890,1,0,0:0:0:70:L6--.wav
329,192,93890,1,0,0:0:0:70:3+.wav
182,192,94090,1,0,0:0:0:70:L2---.wav
36,192,94090,1,0,0:0:0:70:L2--.wav
475,192,94090,1,0,0:0:0:70:4#+.wav
329,192,94090,1,0,0:0:0:70:2+.wav
402,192,94090,1,0,0:0:0:70:6+.wav
256,192,94090,1,0,0:0:0:70:6.wav
36,192,94490,1,0,0:0:0:70:L2-.wav
182,192,94490,1,0,0:0:0:70:L2--.wav
256,192,94890,1,0,0:0:0:70:2+.wav
402,192,94890,1,0,0:0:0:70:5+.wav
109,192,94890,1,0,0:0:0:70:6.wav
329,192,95090,1,0,0:0:0:70:4#+.wav
329,192,95290,1,0,0:0:0:70:4#+.wav
182,192,95490,1,0,0:0:0:70:1+.wav
329,192,95490,1,0,0:0:0:70:5+.wav
36,192,95490,1,0,0:0:0:70:5.wav
475,192,95490,1,0,0:0:0:70:3+.wav
256,192,95690,1,0,0:0:0:70:L1--.wav
109,192,95690,1,0,0:0:0:70:L1-.wav
36,192,95890,1,0,0:0:0:45:5++.wav
475,192,95890,1,0,0:0:0:45:5++.wav
109,192,95990,1,0,0:0:0:45:3++.wav
402,192,95990,1,0,0:0:0:45:3++.wav
182,192,96090,1,0,0:0:0:45:2++.wav
329,192,96090,1,0,0:0:0:45:2++.wav
36,192,96190,1,0,0:0:0:45:1++.wav
256,192,96190,1,0,0:0:0:45:1++.wav
109,192,96290,1,0,0:0:0:45:5+.wav
475,192,96290,1,0,0:0:0:45:5+.wav
182,192,96390,1,0,0:0:0:45:3+.wav
402,192,96390,1,0,0:0:0:45:3+.wav
109,192,96490,1,0,0:0:0:45:2+.wav
329,192,96490,1,0,0:0:0:45:2+.wav
36,192,96590,1,0,0:0:0:45:1+.wav
256,192,96590,1,0,0:0:0:45:1+.wav
182,192,96690,1,0,0:0:0:45:5.wav
475,192,96690,1,0,0:0:0:45:5.wav
109,192,96790,1,0,0:0:0:45:3.wav
402,192,96790,1,0,0:0:0:45:3.wav
182,192,96890,1,0,0:0:0:45:2.wav
329,192,96890,1,0,0:0:0:45:2.wav
109,192,96990,1,0,0:0:0:45:1.wav
256,192,96990,1,0,0:0:0:45:1.wav
182,192,97090,1,0,0:0:0:45:5-.wav
36,192,97090,1,0,0:0:0:45:5-.wav
475,192,97290,1,0,0:0:0:70:4#+.wav
256,192,97290,1,0,0:0:0:70:2+.wav
402,192,97290,1,0,0:0:0:70:6+.wav
109,192,97290,1,0,0:0:0:70:6.wav
36,192,97290,1,0,0:0:0:70:L2---.wav
329,192,97290,1,0,0:0:0:70:L2--.wav
475,192,97490,1,0,0:0:0:70:6++.wav
256,192,97590,1,0,0:0:0:70:4#+.wav
402,192,97590,1,0,0:0:0:70:6++.wav
182,192,97690,1,0,0:0:0:70:3++.wav
329,192,97690,1,0,0:0:0:70:4#+.wav
109,192,97790,1,0,0:0:0:70:2++.wav
256,192,97790,1,0,0:0:0:70:3++.wav
475,192,97890,1,0,0:0:0:70:6+.wav
36,192,97890,1,0,0:0:0:70:2++.wav
109,192,97990,1,0,0:0:0:70:4#+.wav
402,192,97990,1,0,0:0:0:70:6+.wav
182,192,98090,1,0,0:0:0:70:3+.wav
329,192,98090,1,0,0:0:0:70:4#+.wav
109,192,98190,1,0,0:0:0:70:2+.wav
256,192,98190,1,0,0:0:0:70:3+.wav
329,192,98290,1,0,0:0:0:70:6.wav
36,192,98290,1,0,0:0:0:70:2+.wav
256,192,98390,1,0,0:0:0:70:4#.wav
402,192,98390,1,0,0:0:0:70:6.wav
182,192,98490,1,0,0:0:0:70:3.wav
475,192,98490,1,0,0:0:0:70:4#.wav
109,192,98590,1,0,0:0:0:70:2.wav
256,192,98590,1,0,0:0:0:70:3.wav
182,192,98690,1,0,0:0:0:70:6-.wav
329,192,98690,1,0,0:0:0:70:2.wav
109,192,98790,1,0,0:0:0:70:6-.wav
36,192,98890,1,0,0:0:0:70:L7--.wav
256,192,98890,1,0,0:0:0:70:L7---.wav
475,192,99290,1,0,0:0:0:70:4#+.wav
182,192,99290,1,0,0:0:0:70:7+.wav
402,192,99290,1,0,0:0:0:70:2+.wav
36,192,99290,1,0,0:0:0:70:7.wav
329,192,99390,1,0,0:0:0:70:4#.wav
256,192,99490,1,0,0:0:0:70:2.wav
182,192,99590,1,0,0:0:0:70:7-.wav
109,192,99690,1,0,0:0:0:70:L7-.wav
36,192,99790,1,0,0:0:0:70:L4#-.wav
329,192,99890,1,0,0:0:0:70:L2-.wav
182,192,99990,1,0,0:0:0:70:L7--.wav
36,192,100090,1,0,0:0:0:70:L7--.wav
256,192,100090,1,0,0:0:0:70:7+.wav
329,192,100090,1,0,0:0:0:70:2+.wav
402,192,100090,1,0,0:0:0:70:4#+.wav
109,192,100090,1,0,0:0:0:70:7.wav
475,192,100190,1,0,0:0:0:70:L4#--.wav
402,192,100290,1,0,0:0:0:70:L2--.wav
329,192,100390,1,0,0:0:0:70:L7---.wav
109,192,100490,1,0,0:0:0:70:L3--.wav
256,192,100490,1,0,0:0:0:70:L3---.wav
256,192,100890,1,0,0:0:0:70:5+.wav
402,192,100890,1,0,0:0:0:70:3+.wav
36,192,100890,1,0,0:0:0:70:7.wav
475,192,100890,1,0,0:0:0:70:7+.wav
256,192,101290,1,0,0:0:0:70:5+.wav
36,192,101290,1,0,0:0:0:70:7.wav
402,192,101290,1,0,0:0:0:70:3+.wav
475,192,101290,1,0,0:0:0:70:7+.wav
402,192,101690,1,0,0:0:0:70:3+.wav
475,192,101690,1,0,0:0:0:70:7+.wav
256,192,101690,1,0,0:0:0:70:5+.wav
36,192,101690,1,0,0:0:0:70:7.wav
109,192,102090,1,0,0:0:0:70:L1-.wav
182,192,102090,1,0,0:0:0:70:5.wav
256,192,102090,1,0,0:0:0:70:5+.wav
402,192,102090,1,0,0:0:0:70:3+.wav
475,192,102090,1,0,0:0:0:70:1+.wav
36,192,102090,1,0,0:0:0:70:L1--.wav
182,192,102290,1,0,0:0:0:45:5++.wav
402,192,102290,1,0,0:0:0:45:5++.wav
109,192,102390,1,0,0:0:0:45:3++.wav
329,192,102390,1,0,0:0:0:45:3++.wav
36,192,102490,1,0,0:0:0:45:2++.wav
256,192,102490,1,0,0:0:0:45:2++.wav
109,192,102590,1,0,0:0:0:45:1++.wav
329,192,102590,1,0,0:0:0:45:1++.wav
182,192,102690,1,0,0:0:0:45:5+.wav
475,192,102690,1,0,0:0:0:45:5+.wav
256,192,102790,1,0,0:0:0:45:3+.wav
402,192,102790,1,0,0:0:0:45:3+.wav
182,192,102890,1,0,0:0:0:45:2+.wav
329,192,102890,1,0,0:0:0:45:2+.wav
109,192,102990,1,0,0:0:0:45:1+.wav
256,192,102990,1,0,0:0:0:45:1+.wav
36,192,103090,1,0,0:0:0:45:5.wav
475,192,103090,1,0,0:0:0:45:5.wav
109,192,103190,1,0,0:0:0:45:3.wav
402,192,103190,1,0,0:0:0:45:3.wav
182,192,103290,1,0,0:0:0:45:2.wav
329,192,103290,1,0,0:0:0:45:2.wav
109,192,103390,1,0,0:0:0:45:1.wav
256,192,103390,1,0,0:0:0:45:1.wav
36,192,103490,1,0,0:0:0:45:5-.wav
182,192,103490,1,0,0:0:0:45:5-.wav
182,192,103690,1,0,0:0:0:70:2+.wav
36,192,103690,1,0,0:0:0:70:6.wav
475,192,103690,1,0,0:0:0:70:4#+.wav
329,192,103690,1,0,0:0:0:70:6+.wav
402,192,103890,1,0,0:0:0:70:6++.wav
109,192,103990,1,0,0:0:0:70:4#+.wav
256,192,103990,1,0,0:0:0:70:6++.wav
182,192,104090,1,0,0:0:0:70:3++.wav
329,192,104090,1,0,0:0:0:70:4#+.wav
109,192,104190,1,0,0:0:0:70:2++.wav
402,192,104190,1,0,0:0:0:70:3++.wav
475,192,104290,1,0,0:0:0:70:6+.wav
36,192,104290,1,0,0:0:0:70:2++.wav
256,192,104390,1,0,0:0:0:70:4#+.wav
402,192,104390,1,0,0:0:0:70:6+.wav
182,192,104490,1,0,0:0:0:70:3+.wav
329,192,104490,1,0,0:0:0:70:4#+.wav
109,192,104590,1,0,0:0:0:70:2+.wav
256,192,104590,1,0,0:0:0:70:3+.wav
475,192,104690,1,0,0:0:0:70:6.wav
36,192,104690,1,0,0:0:0:70:2+.wav
402,192,104790,1,0,0:0:0:70:4#.wav
182,192,104790,1,0,0:0:0:70:6.wav
329,192,104890,1,0,0:0:0:70:3.wav
109,192,104890,1,0,0:0:0:70:4#.wav
182,192,104990,1,0,0:0:0:70:2.wav
402,192,104990,1,0,0:0:0:70:3.wav
36,192,105090,1,0,0:0:0:70:6-.wav
256,192,105090,1,0,0:0:0:70:2.wav
109,192,105290,1,0,0:0:0:70:L7--.wav
329,192,105290,1,0,0:0:0:70:L7---.wav
402,192,105690,1,0,0:0:0:70:2+.wav
36,192,105690,1,0,0:0:0:70:7.wav
475,192,105690,1,0,0:0:0:70:4#+.wav
182,192,105690,1,0,0:0:0:70:7+.wav
329,192,105790,1,0,0:0:0:70:4#.wav
256,192,105890,1,0,0:0:0:70:2.wav
182,192,105990,1,0,0:0:0:70:7-.wav
109,192,106090,1,0,0:0:0:70:L7-.wav
256,192,106190,1,0,0:0:0:70:L4#-.wav
182,192,106290,1,0,0:0:0:70:L2-.wav
109,192,106390,1,0,0:0:0:70:L7--.wav
36,192,106490,1,0,0:0:0:70:L7--.wav
256,192,106490,1,0,0:0:0:70:7.wav
475,192,106490,1,0,0:0:0:70:4#+.wav
329,192,106490,1,0,0:0:0:70:7+.wav
402,192,106490,1,0,0:0:0:70:2+.wav
182,192,106590,1,0,0:0:0:70:L4#--.wav
109,192,106690,1,0,0:0:0:70:L2--.wav
36,192,106790,1,0,0:0:0:70:L7---.wav
182,192,106890,1,0,0:0:0:70:L3--.wav
329,192,106890,1,0,0:0:0:70:L3---.wav
475,192,107290,1,0,0:0:0:70:7+.wav
182,192,107290,1,0,0:0:0:70:5+.wav
36,192,107290,1,0,0:0:0:70:7.wav
402,192,107290,1,0,0:0:0:70:3+.wav
475,192,107690,1,0,0:0:0:70:7+.wav
402,192,107690,1,0,0:0:0:70:3+.wav
182,192,107690,1,0,0:0:0:70:5+.wav
36,192,107690,1,0,0:0:0:70:7.wav
182,192,108090,1,0,0:0:0:70:5+.wav
36,192,108090,1,0,0:0:0:70:7.wav
402,192,108090,1,0,0:0:0:70:3+.wav
475,192,108090,1,0,0:0:0:70:7+.wav
329,192,108490,1,0,0:0:0:70:5+.wav
402,192,108490,1,0,0:0:0:70:3+.wav
256,192,108490,1,0,0:0:0:70:5.wav
36,192,108490,1,0,0:0:0:70:L1--.wav
475,192,108490,1,0,0:0:0:70:1+.wav
109,192,108490,1,0,0:0:0:70:L1-.wav
