osu file format v14

[General]
AudioFilename: 2m3.mp3
AudioLeadIn: 0
PreviewTime: -1
Countdown: 0
SampleSet: Soft
StackLeniency: 0.7
Mode: 3
LetterboxInBreaks: 0
SpecialStyle: 0
WidescreenStoryboard: 1

[Editor]
DistanceSpacing: 1.2
BeatDivisor: 4
GridSize: 4
TimelineZoom: 3.199998

[Metadata]
Title:Piano Pack
TitleUnicode:Piano Pack
Artist:KawaEE
ArtistUnicode:KawaEE
Creator:KawaEE
Version:MX : Kart(for baka)
Source:
Tags:Piano
BeatmapID:579025
BeatmapSetID:236952

[Difficulty]
HPDrainRate:8
CircleSize:7
OverallDifficulty:8
ApproachRate:5
SliderMultiplier:1.4
SliderTickRate:1

[Events]
//Background and Video events
0,0,"7777.jpg",0,0
//Break Periods
//Storyboard Layer 0 (Background)
//Storyboard Layer 1 (Fail)
//Storyboard Layer 2 (Pass)
//Storyboard Layer 3 (Foreground)
//Storyboard Sound Samples

[TimingPoints]
0,465.116279069767,4,2,0,10,1,0

[HitObjects]
36,192,5581,5,0,0:0:0:70:5+.wav
475,192,5581,1,0,0:0:0:70:L1-.wav
475,192,5813,1,0,0:0:0:70:L1-.wav
475,192,5930,1,0,0:0:0:70:L1-.wav
475,192,6046,1,0,0:0:0:70:L1-.wav
256,192,6046,1,2,0:0:0:0:
182,192,6279,1,0,0:0:0:70:3+.wav
402,192,6279,1,0,0:0:0:70:L1-.wav
402,192,6511,1,0,0:0:0:70:L1-.wav
36,192,6511,1,0,0:0:0:70:5+.wav
402,192,6627,1,0,0:0:0:70:L1-.wav
402,192,6744,1,0,0:0:0:70:L1-.wav
402,192,6860,1,0,0:0:0:70:L1-.wav
402,192,6976,1,0,0:0:0:70:L1-.wav
256,192,6976,1,2,0:0:0:0:
329,192,7209,1,0,0:0:0:70:L1-.wav
182,192,7209,1,0,0:0:0:70:3+.wav
329,192,7325,1,0,0:0:0:70:L1-.wav
109,192,7441,1,0,0:0:0:70:L4--.wav
256,192,7441,1,0,0:0:0:70:6+.wav
109,192,7674,1,0,0:0:0:70:L4--.wav
329,192,7674,1,0,0:0:0:70:5+.wav
109,192,7790,1,0,0:0:0:70:L4--.wav
109,192,7906,1,0,0:0:0:70:L4--.wav
402,192,7906,1,0,0:0:0:70:4+.wav
256,192,7906,1,2,0:0:0:0:
475,192,8139,1,0,0:0:0:70:3+.wav
182,192,8139,1,0,0:0:0:70:L4--.wav
182,192,8255,1,0,0:0:0:70:L4--.wav
36,192,8372,1,0,0:0:0:70:L1-.wav
402,192,8372,1,0,0:0:0:70:4+.wav
329,192,8604,1,0,0:0:0:70:5+.wav
36,192,8604,1,0,0:0:0:70:L1-.wav
36,192,8837,1,0,0:0:0:70:L1-.wav
256,192,8837,1,2,0:0:0:0:
36,192,9069,1,0,0:0:0:70:L1-.wav
329,192,9069,1,0,0:0:0:70:3+.wav
256,192,9186,1,0,0:0:0:70:4+.wav
475,192,9302,1,0,0:0:0:70:L1-.wav
182,192,9302,1,0,0:0:0:70:5+.wav
475,192,9418,1,0,0:0:0:70:L1-.wav
475,192,9534,1,0,0:0:0:70:L1-.wav
475,192,9767,1,0,0:0:0:70:L1-.wav
256,192,9767,1,2,0:0:0:0:
402,192,9999,1,0,0:0:0:70:L1-.wav
182,192,9999,1,0,0:0:0:70:3+.wav
402,192,10116,1,0,0:0:0:70:L1-.wav
402,192,10232,1,0,0:0:0:70:L1-.wav
36,192,10232,1,0,0:0:0:70:5+.wav
402,192,10465,1,0,0:0:0:70:L1-.wav
329,192,10697,1,0,0:0:0:70:L1-.wav
256,192,10697,1,2,0:0:0:0:
329,192,10813,1,0,0:0:0:70:L1-.wav
329,192,10930,1,0,0:0:0:70:L1-.wav
182,192,10930,1,0,0:0:0:70:3+.wav
329,192,11046,1,0,0:0:0:70:L1-.wav
475,192,11162,1,0,0:0:0:70:L4--.wav
36,192,11162,1,0,0:0:0:70:4+.wav
109,192,11279,1,0,0:0:0:70:3+.wav
36,192,11395,1,0,0:0:0:70:4+.wav
475,192,11395,1,0,0:0:0:70:L4--.wav
109,192,11511,1,0,0:0:0:70:3+.wav
182,192,11627,1,0,0:0:0:70:2+.wav
475,192,11627,1,0,0:0:0:70:L4--.wav
256,192,11627,1,2,0:0:0:0:
329,192,11860,1,0,0:0:0:70:7.wav
475,192,11860,1,0,0:0:0:70:L4--.wav
182,192,12093,1,0,0:0:0:70:1+.wav
475,192,12093,1,0,0:0:0:70:L4--.wav
329,192,12325,1,0,0:0:0:70:L1-.wav
329,192,12558,1,0,0:0:0:70:L1-.wav
256,192,12558,1,2,0:0:0:0:
329,192,12790,1,0,0:0:0:70:L1-.wav
402,192,13023,5,0,0:0:0:70:5+.wav
109,192,13023,1,0,0:0:0:70:L1-.wav
329,192,13062,5,0,0:0:0:70:5+.wav
109,192,13255,1,0,0:0:0:70:L1-.wav
109,192,13372,1,0,0:0:0:70:L1-.wav
109,192,13488,1,0,0:0:0:70:L1-.wav
256,192,13488,1,2,0:0:0:0:
109,192,13720,1,0,0:0:0:70:L1-.wav
475,192,13720,1,0,0:0:0:70:3+.wav
402,192,13759,1,0,0:0:0:70:3+.wav
402,192,13953,1,0,0:0:0:70:5+.wav
36,192,13953,1,0,0:0:0:70:L1-.wav
329,192,13992,1,0,0:0:0:70:5+.wav
36,192,14069,1,0,0:0:0:70:L1-.wav
36,192,14186,1,0,0:0:0:70:L1-.wav
36,192,14302,1,0,0:0:0:70:L1-.wav
36,192,14418,1,0,0:0:0:70:L1-.wav
256,192,14418,1,2,0:0:0:0:
182,192,14651,1,0,0:0:0:70:L1-.wav
402,192,14651,1,0,0:0:0:70:3+.wav
329,192,14689,1,0,0:0:0:70:3+.wav
182,192,14767,1,0,0:0:0:70:L1-.wav
475,192,14883,1,0,0:0:0:70:L4--.wav
109,192,14883,1,0,0:0:0:70:6+.wav
36,192,14922,1,0,0:0:0:70:6+.wav
182,192,15116,1,0,0:0:0:70:5+.wav
475,192,15116,1,0,0:0:0:70:L4--.wav
36,192,15155,1,0,0:0:0:70:5+.wav
475,192,15232,1,0,0:0:0:70:L4--.wav
475,192,15348,1,0,0:0:0:70:L4--.wav
182,192,15348,1,0,0:0:0:70:4+.wav
256,192,15348,1,2,0:0:0:0:
109,192,15387,1,0,0:0:0:70:4+.wav
475,192,15581,1,0,0:0:0:70:L4--.wav
329,192,15581,1,0,0:0:0:70:3+.wav
182,192,15620,1,0,0:0:0:70:3+.wav
475,192,15697,1,0,0:0:0:70:L4--.wav
256,192,15813,1,0,0:0:0:70:4+.wav
402,192,15813,1,0,0:0:0:70:L1-.wav
109,192,15852,1,0,0:0:0:70:4+.wav
109,192,16046,1,0,0:0:0:70:5+.wav
402,192,16046,1,0,0:0:0:70:L1-.wav
36,192,16085,1,0,0:0:0:70:5+.wav
402,192,16279,1,0,0:0:0:70:L1-.wav
256,192,16279,1,2,0:0:0:0:
256,192,16511,1,0,0:0:0:70:3+.wav
402,192,16511,1,0,0:0:0:70:L1-.wav
182,192,16550,1,0,0:0:0:70:3+.wav
109,192,16627,1,0,0:0:0:70:4+.wav
36,192,16666,1,0,0:0:0:70:4+.wav
182,192,16744,1,0,0:0:0:70:5+.wav
402,192,16744,1,0,0:0:0:70:L1-.wav
109,192,16782,1,0,0:0:0:70:5+.wav
402,192,16860,1,0,0:0:0:70:L1-.wav
402,192,16976,1,0,0:0:0:70:L1-.wav
109,192,17209,1,0,0:0:0:70:L1-.wav
256,192,17209,1,2,0:0:0:0:
109,192,17441,1,0,0:0:0:70:L1-.wav
475,192,17441,1,0,0:0:0:70:3+.wav
402,192,17480,1,0,0:0:0:70:3+.wav
109,192,17558,1,0,0:0:0:70:L1-.wav
475,192,17674,1,0,0:0:0:70:5+.wav
109,192,17674,1,0,0:0:0:70:L1-.wav
329,192,17713,1,0,0:0:0:70:5+.wav
36,192,17906,1,0,0:0:0:70:L1-.wav
36,192,18139,1,0,0:0:0:70:L1-.wav
256,192,18139,1,2,0:0:0:0:
36,192,18255,1,0,0:0:0:70:L1-.wav
36,192,18372,1,0,0:0:0:70:L1-.wav
329,192,18372,1,0,0:0:0:70:3+.wav
36,192,18488,1,0,0:0:0:70:L1-.wav
475,192,18604,1,0,0:0:0:70:L4--.wav
256,192,18604,1,0,0:0:0:70:4+.wav
109,192,18643,1,0,0:0:0:70:4+.wav
182,192,18720,1,0,0:0:0:70:3+.wav
36,192,18759,1,0,0:0:0:70:3+.wav
475,192,18837,1,0,0:0:0:70:L4--.wav
256,192,18837,1,0,0:0:0:70:4+.wav
109,192,18875,1,0,0:0:0:70:4+.wav
329,192,18953,1,0,0:0:0:70:3+.wav
182,192,18992,1,0,0:0:0:70:3+.wav
475,192,19069,1,0,0:0:0:70:L4--.wav
109,192,19069,1,0,0:0:0:70:2+.wav
256,192,19069,1,2,0:0:0:0:
36,192,19108,1,0,0:0:0:70:2+.wav
475,192,19302,1,0,0:0:0:70:L4--.wav
182,192,19302,1,0,0:0:0:70:7.wav
109,192,19341,1,0,0:0:0:70:7.wav
475,192,19534,1,0,0:0:0:70:L4--.wav
182,192,19534,1,0,0:0:0:70:1+.wav
36,192,19573,1,0,0:0:0:70:1+.wav
402,192,19767,1,0,0:0:0:70:L1-.wav
256,192,19767,1,2,0:0:0:0:
402,192,19999,1,0,0:0:0:70:L1-.wav
256,192,19999,1,2,0:0:0:0:
329,192,20232,1,0,0:0:0:70:L1-.wav
329,192,20348,1,0,0:0:0:70:L1-.wav
182,192,20465,5,0,0:0:0:70:5+.wav
329,192,20465,1,0,0:0:0:70:L1-.wav
182,192,20581,5,0,0:0:0:70:5+.wav
182,192,20697,5,0,0:0:0:70:5+.wav
402,192,20697,1,0,0:0:0:70:L1-.wav
402,192,20813,1,0,0:0:0:70:L1-.wav
402,192,20930,1,0,0:0:0:70:L1-.wav
256,192,20930,1,2,0:0:0:0:
402,192,21162,1,0,0:0:0:70:L1-.wav
182,192,21162,1,0,0:0:0:70:3+.wav
182,192,21279,1,0,0:0:0:70:3+.wav
36,192,21395,1,0,0:0:0:70:5+.wav
329,192,21395,1,0,0:0:0:70:L1-.wav
329,192,21511,1,0,0:0:0:70:L1-.wav
36,192,21511,1,0,0:0:0:70:5+.wav
329,192,21627,1,0,0:0:0:70:L1-.wav
329,192,21744,1,0,0:0:0:70:L1-.wav
329,192,21860,1,0,0:0:0:70:L1-.wav
256,192,21860,1,2,0:0:0:0:
182,192,22093,1,0,0:0:0:70:3+.wav
402,192,22093,1,0,0:0:0:70:L1-.wav
402,192,22209,1,0,0:0:0:70:L1-.wav
182,192,22209,1,0,0:0:0:70:3+.wav
329,192,22325,1,0,0:0:0:70:6+.wav
36,192,22325,1,0,0:0:0:70:L4--.wav
329,192,22441,1,0,0:0:0:70:6+.wav
402,192,22558,1,0,0:0:0:70:5+.wav
36,192,22558,1,0,0:0:0:70:L4--.wav
36,192,22674,1,0,0:0:0:70:L4--.wav
402,192,22674,1,0,0:0:0:70:5+.wav
475,192,22790,1,0,0:0:0:70:4+.wav
36,192,22790,1,0,0:0:0:70:L4--.wav
256,192,22790,1,2,0:0:0:0:
475,192,22906,1,0,0:0:0:70:4+.wav
402,192,23023,1,0,0:0:0:70:3+.wav
36,192,23023,1,0,0:0:0:70:L4--.wav
36,192,23139,1,0,0:0:0:70:L4--.wav
402,192,23139,1,0,0:0:0:70:3+.wav
109,192,23255,1,0,0:0:0:70:L1-.wav
329,192,23255,1,0,0:0:0:70:4+.wav
329,192,23372,1,0,0:0:0:70:4+.wav
109,192,23488,1,0,0:0:0:70:L1-.wav
256,192,23488,1,0,0:0:0:70:5+.wav
256,192,23604,1,0,0:0:0:70:5+.wav
109,192,23720,1,0,0:0:0:70:L1-.wav
256,192,23720,1,2,0:0:0:0:
109,192,23953,1,0,0:0:0:70:L1-.wav
475,192,23953,1,0,0:0:0:70:3+.wav
329,192,24011,1,0,0:0:0:70:3+.wav
402,192,24069,1,0,0:0:0:70:4+.wav
256,192,24127,1,0,0:0:0:70:4+.wav
109,192,24186,1,0,0:0:0:70:L1-.wav
329,192,24186,1,0,0:0:0:70:5+.wav
182,192,24244,1,0,0:0:0:70:5+.wav
475,192,24302,1,0,0:0:0:70:L1-.wav
475,192,24418,1,0,0:0:0:70:L1-.wav
475,192,24651,1,0,0:0:0:70:L1-.wav
256,192,24651,1,2,0:0:0:0:
182,192,24883,1,0,0:0:0:70:3+.wav
402,192,24883,1,0,0:0:0:70:L1-.wav
402,192,24999,1,0,0:0:0:70:L1-.wav
182,192,24999,1,0,0:0:0:70:3+.wav
36,192,25116,1,0,0:0:0:70:5+.wav
402,192,25116,1,0,0:0:0:70:L1-.wav
36,192,25232,1,0,0:0:0:70:5+.wav
402,192,25348,1,0,0:0:0:70:L1-.wav
329,192,25581,1,0,0:0:0:70:L1-.wav
256,192,25581,1,2,0:0:0:0:
329,192,25697,1,0,0:0:0:70:L1-.wav
329,192,25813,1,0,0:0:0:70:L1-.wav
109,192,25813,1,0,0:0:0:70:3+.wav
182,192,25872,1,0,0:0:0:70:3+.wav
329,192,25930,1,0,0:0:0:70:L1-.wav
36,192,26046,1,0,0:0:0:70:4+.wav
475,192,26046,1,0,0:0:0:70:L4--.wav
109,192,26104,1,0,0:0:0:70:4+.wav
256,192,26162,1,0,0:0:0:70:3+.wav
182,192,26220,1,0,0:0:0:70:3+.wav
109,192,26279,1,0,0:0:0:70:4+.wav
475,192,26279,1,0,0:0:0:70:L4--.wav
36,192,26337,1,0,0:0:0:70:4+.wav
109,192,26395,1,0,0:0:0:70:3+.wav
182,192,26453,1,0,0:0:0:70:3+.wav
475,192,26511,1,0,0:0:0:70:L4--.wav
256,192,26511,1,0,0:0:0:70:2+.wav
329,192,26569,1,0,0:0:0:70:2+.wav
109,192,26744,1,0,0:0:0:70:7.wav
475,192,26744,1,0,0:0:0:70:L4--.wav
109,192,26802,1,0,0:0:0:70:7.wav
182,192,26976,1,0,0:0:0:70:1+.wav
475,192,26976,1,0,0:0:0:70:L4--.wav
182,192,27034,1,0,0:0:0:70:1+.wav
402,192,27209,1,0,0:0:0:70:L1-.wav
402,192,27441,1,0,0:0:0:70:L1-.wav
182,192,27441,1,0,0:0:0:70:3+.wav
256,192,27441,1,2,0:0:0:0:
182,192,27558,1,0,0:0:0:70:3+.wav
256,192,27558,1,2,0:0:0:0:
402,192,27674,1,0,0:0:0:70:L1-.wav
109,192,27674,1,0,0:0:0:70:4+.wav
109,192,27790,1,0,0:0:0:70:4+.wav
36,192,27906,5,0,0:0:0:70:5+.wav
402,192,27906,1,0,0:0:0:70:L1-.wav
329,192,28139,1,0,0:0:0:70:L1-.wav
329,192,28255,1,0,0:0:0:70:L1-.wav
256,192,28372,1,2,0:0:0:0:
329,192,28372,1,0,0:0:0:70:L1-.wav
329,192,28604,1,0,0:0:0:70:L1-.wav
182,192,28604,1,0,0:0:0:70:3+.wav
109,192,28720,1,0,0:0:0:70:4+.wav
475,192,28837,1,0,0:0:0:70:L1-.wav
36,192,28837,1,0,0:0:0:70:5+.wav
475,192,28953,1,0,0:0:0:70:L1-.wav
36,192,28953,1,0,0:0:0:70:5+.wav
475,192,29069,1,0,0:0:0:70:L1-.wav
475,192,29186,1,0,0:0:0:70:L1-.wav
256,192,29302,1,2,0:0:0:0:
475,192,29302,1,0,0:0:0:70:L1-.wav
182,192,29534,1,0,0:0:0:70:3+.wav
329,192,29534,1,0,0:0:0:70:L1-.wav
329,192,29651,1,0,0:0:0:70:L1-.wav
182,192,29651,1,0,0:0:0:70:3+.wav
36,192,29767,1,0,0:0:0:70:L4--.wav
256,192,29767,1,0,0:0:0:70:6+.wav
329,192,29999,1,0,0:0:0:70:5+.wav
36,192,29999,1,0,0:0:0:70:L4--.wav
36,192,30116,1,0,0:0:0:70:L4--.wav
329,192,30116,1,0,0:0:0:70:5+.wav
36,192,30232,1,0,0:0:0:70:L4--.wav
402,192,30232,1,0,0:0:0:70:4+.wav
256,192,30232,1,2,0:0:0:0:
475,192,30465,1,0,0:0:0:70:3+.wav
109,192,30465,1,0,0:0:0:70:L4--.wav
109,192,30581,1,0,0:0:0:70:L4--.wav
329,192,30697,1,0,0:0:0:70:4+.wav
182,192,30697,1,0,0:0:0:70:L1-.wav
402,192,30813,1,0,0:0:0:70:4+.wav
182,192,30930,1,0,0:0:0:70:L1-.wav
329,192,30930,1,0,0:0:0:70:5+.wav
256,192,31162,1,2,0:0:0:0:
109,192,31162,1,0,0:0:0:70:L1-.wav
475,192,31395,1,0,0:0:0:70:3+.wav
109,192,31395,1,0,0:0:0:70:L1-.wav
402,192,31511,1,0,0:0:0:70:4+.wav
182,192,31627,1,0,0:0:0:70:L1-.wav
329,192,31627,1,0,0:0:0:70:5+.wav
182,192,31744,1,0,0:0:0:70:L1-.wav
182,192,31860,1,0,0:0:0:70:L1-.wav
329,192,31860,1,0,0:0:0:70:5+.wav
109,192,32093,1,0,0:0:0:70:L1-.wav
256,192,32093,1,2,0:0:0:0:
475,192,32325,1,0,0:0:0:70:3+.wav
109,192,32325,1,0,0:0:0:70:L1-.wav
402,192,32383,1,0,0:0:0:70:4+.wav
109,192,32441,1,0,0:0:0:70:L1-.wav
402,192,32441,1,0,0:0:0:70:4+.wav
402,192,32499,1,0,0:0:0:70:4+.wav
329,192,32558,1,0,0:0:0:70:5+.wav
109,192,32558,1,0,0:0:0:70:L1-.wav
36,192,32790,1,0,0:0:0:70:L1-.wav
36,192,33023,1,0,0:0:0:70:L1-.wav
256,192,33023,1,2,0:0:0:0:
36,192,33139,1,0,0:0:0:70:L1-.wav
36,192,33255,1,0,0:0:0:70:L1-.wav
402,192,33255,1,0,0:0:0:70:3+.wav
36,192,33372,1,0,0:0:0:70:L1-.wav
182,192,33488,1,0,0:0:0:70:4+.wav
475,192,33488,1,0,0:0:0:70:L4--.wav
109,192,33527,1,0,0:0:0:70:4+.wav
36,192,33565,1,0,0:0:0:70:4+.wav
402,192,33604,1,0,0:0:0:70:3+.wav
329,192,33643,1,0,0:0:0:70:3+.wav
256,192,33682,1,0,0:0:0:70:3+.wav
475,192,33720,1,0,0:0:0:70:L4--.wav
36,192,33720,1,0,0:0:0:70:4+.wav
109,192,33759,1,0,0:0:0:70:4+.wav
182,192,33798,1,0,0:0:0:70:4+.wav
402,192,33837,1,0,0:0:0:70:3+.wav
329,192,33875,1,0,0:0:0:70:3+.wav
256,192,33914,1,0,0:0:0:70:3+.wav
475,192,33953,1,0,0:0:0:70:L4--.wav
36,192,33953,1,0,0:0:0:70:2+.wav
109,192,33992,1,0,0:0:0:70:2+.wav
182,192,34031,1,0,0:0:0:70:2+.wav
329,192,34186,1,0,0:0:0:70:7.wav
475,192,34186,1,0,0:0:0:70:L4--.wav
256,192,34224,1,0,0:0:0:70:7.wav
182,192,34263,1,0,0:0:0:70:7.wav
36,192,34418,1,0,0:0:0:70:1+.wav
475,192,34418,1,0,0:0:0:70:L4--.wav
109,192,34457,1,0,0:0:0:70:1+.wav
182,192,34496,1,0,0:0:0:70:1+.wav
475,192,34651,1,0,0:0:0:70:L1-.wav
256,192,34651,1,2,0:0:0:0:
475,192,34883,1,0,0:0:0:70:L1-.wav
256,192,34883,1,2,0:0:0:0:
256,192,35116,1,2,0:0:0:0:
475,192,35116,1,0,0:0:0:70:L1-.wav
36,192,35348,5,0,0:0:0:70:5+.wav
475,192,35348,1,0,0:0:0:70:L1-.wav
475,192,35581,1,0,0:0:0:70:L1-.wav
475,192,35697,1,0,0:0:0:70:L1-.wav
475,192,35813,1,0,0:0:0:70:L1-.wav
256,192,35813,1,2,0:0:0:0:
182,192,36046,1,0,0:0:0:70:3+.wav
402,192,36046,1,0,0:0:0:70:L1-.wav
402,192,36279,1,0,0:0:0:70:L1-.wav
36,192,36279,1,0,0:0:0:70:5+.wav
402,192,36395,1,0,0:0:0:70:L1-.wav
402,192,36511,1,0,0:0:0:70:L1-.wav
402,192,36627,1,0,0:0:0:70:L1-.wav
402,192,36744,1,0,0:0:0:70:L1-.wav
256,192,36744,1,2,0:0:0:0:
329,192,36976,1,0,0:0:0:70:L1-.wav
182,192,36976,1,0,0:0:0:70:3+.wav
329,192,37093,1,0,0:0:0:70:L1-.wav
109,192,37209,1,0,0:0:0:70:L4--.wav
256,192,37209,1,0,0:0:0:70:6+.wav
109,192,37441,1,0,0:0:0:70:L4--.wav
329,192,37441,1,0,0:0:0:70:5+.wav
109,192,37558,1,0,0:0:0:70:L4--.wav
109,192,37674,1,0,0:0:0:70:L4--.wav
402,192,37674,1,0,0:0:0:70:4+.wav
256,192,37674,1,2,0:0:0:0:
475,192,37906,1,0,0:0:0:70:3+.wav
182,192,37906,1,0,0:0:0:70:L4--.wav
182,192,38023,1,0,0:0:0:70:L4--.wav
36,192,38139,1,0,0:0:0:70:L1-.wav
402,192,38139,1,0,0:0:0:70:4+.wav
329,192,38372,1,0,0:0:0:70:5+.wav
36,192,38372,1,0,0:0:0:70:L1-.wav
36,192,38604,1,0,0:0:0:70:L1-.wav
256,192,38604,1,2,0:0:0:0:
36,192,38837,1,0,0:0:0:70:L1-.wav
329,192,38837,1,0,0:0:0:70:3+.wav
256,192,38953,1,0,0:0:0:70:4+.wav
475,192,39069,1,0,0:0:0:70:L1-.wav
182,192,39069,1,0,0:0:0:70:5+.wav
475,192,39186,1,0,0:0:0:70:L1-.wav
475,192,39302,1,0,0:0:0:70:L1-.wav
475,192,39534,1,0,0:0:0:70:L1-.wav
256,192,39534,1,2,0:0:0:0:
402,192,39767,1,0,0:0:0:70:L1-.wav
182,192,39767,1,0,0:0:0:70:3+.wav
402,192,39883,1,0,0:0:0:70:L1-.wav
402,192,39999,1,0,0:0:0:70:L1-.wav
36,192,39999,1,0,0:0:0:70:5+.wav
402,192,40232,1,0,0:0:0:70:L1-.wav
329,192,40465,1,0,0:0:0:70:L1-.wav
256,192,40465,1,2,0:0:0:0:
329,192,40581,1,0,0:0:0:70:L1-.wav
329,192,40697,1,0,0:0:0:70:L1-.wav
182,192,40697,1,0,0:0:0:70:3+.wav
329,192,40813,1,0,0:0:0:70:L1-.wav
475,192,40930,1,0,0:0:0:70:L4--.wav
36,192,40930,1,0,0:0:0:70:4+.wav
109,192,41046,1,0,0:0:0:70:3+.wav
36,192,41162,1,0,0:0:0:70:4+.wav
475,192,41162,1,0,0:0:0:70:L4--.wav
109,192,41279,1,0,0:0:0:70:3+.wav
182,192,41395,1,0,0:0:0:70:2+.wav
475,192,41395,1,0,0:0:0:70:L4--.wav
256,192,41395,1,2,0:0:0:0:
329,192,41627,1,0,0:0:0:70:7.wav
475,192,41627,1,0,0:0:0:70:L4--.wav
182,192,41860,1,0,0:0:0:70:1+.wav
475,192,41860,1,0,0:0:0:70:L4--.wav
329,192,42093,1,0,0:0:0:70:L1-.wav
329,192,42325,1,0,0:0:0:70:L1-.wav
256,192,42325,1,2,0:0:0:0:
329,192,42558,1,0,0:0:0:70:L1-.wav
402,192,42790,5,0,0:0:0:70:5+.wav
109,192,42790,1,0,0:0:0:70:L1-.wav
329,192,42829,5,0,0:0:0:70:5+.wav
109,192,43023,1,0,0:0:0:70:L1-.wav
109,192,43139,1,0,0:0:0:70:L1-.wav
109,192,43255,1,0,0:0:0:70:L1-.wav
256,192,43255,1,2,0:0:0:0:
109,192,43488,1,0,0:0:0:70:L1-.wav
475,192,43488,1,0,0:0:0:70:3+.wav
402,192,43527,1,0,0:0:0:70:3+.wav
402,192,43720,1,0,0:0:0:70:5+.wav
36,192,43720,1,0,0:0:0:70:L1-.wav
329,192,43759,1,0,0:0:0:70:5+.wav
36,192,43837,1,0,0:0:0:70:L1-.wav
36,192,43953,1,0,0:0:0:70:L1-.wav
36,192,44069,1,0,0:0:0:70:L1-.wav
36,192,44186,1,0,0:0:0:70:L1-.wav
256,192,44186,1,2,0:0:0:0:
182,192,44418,1,0,0:0:0:70:L1-.wav
402,192,44418,1,0,0:0:0:70:3+.wav
329,192,44457,1,0,0:0:0:70:3+.wav
182,192,44534,1,0,0:0:0:70:L1-.wav
475,192,44651,1,0,0:0:0:70:L4--.wav
109,192,44651,1,0,0:0:0:70:6+.wav
36,192,44689,1,0,0:0:0:70:6+.wav
182,192,44883,1,0,0:0:0:70:5+.wav
475,192,44883,1,0,0:0:0:70:L4--.wav
36,192,44922,1,0,0:0:0:70:5+.wav
475,192,44999,1,0,0:0:0:70:L4--.wav
475,192,45116,1,0,0:0:0:70:L4--.wav
182,192,45116,1,0,0:0:0:70:4+.wav
256,192,45116,1,2,0:0:0:0:
109,192,45155,1,0,0:0:0:70:4+.wav
475,192,45348,1,0,0:0:0:70:L4--.wav
329,192,45348,1,0,0:0:0:70:3+.wav
182,192,45387,1,0,0:0:0:70:3+.wav
475,192,45465,1,0,0:0:0:70:L4--.wav
256,192,45581,1,0,0:0:0:70:4+.wav
402,192,45581,1,0,0:0:0:70:L1-.wav
109,192,45620,1,0,0:0:0:70:4+.wav
109,192,45813,1,0,0:0:0:70:5+.wav
402,192,45813,1,0,0:0:0:70:L1-.wav
36,192,45852,1,0,0:0:0:70:5+.wav
402,192,46046,1,0,0:0:0:70:L1-.wav
256,192,46046,1,2,0:0:0:0:
256,192,46279,1,0,0:0:0:70:3+.wav
402,192,46279,1,0,0:0:0:70:L1-.wav
182,192,46317,1,0,0:0:0:70:3+.wav
109,192,46395,1,0,0:0:0:70:4+.wav
36,192,46434,1,0,0:0:0:70:4+.wav
182,192,46511,1,0,0:0:0:70:5+.wav
402,192,46511,1,0,0:0:0:70:L1-.wav
109,192,46550,1,0,0:0:0:70:5+.wav
402,192,46627,1,0,0:0:0:70:L1-.wav
402,192,46744,1,0,0:0:0:70:L1-.wav
109,192,46976,1,0,0:0:0:70:L1-.wav
256,192,46976,1,2,0:0:0:0:
109,192,47209,1,0,0:0:0:70:L1-.wav
475,192,47209,1,0,0:0:0:70:3+.wav
402,192,47248,1,0,0:0:0:70:3+.wav
109,192,47325,1,0,0:0:0:70:L1-.wav
475,192,47441,1,0,0:0:0:70:5+.wav
109,192,47441,1,0,0:0:0:70:L1-.wav
329,192,47480,1,0,0:0:0:70:5+.wav
36,192,47674,1,0,0:0:0:70:L1-.wav
36,192,47906,1,0,0:0:0:70:L1-.wav
256,192,47906,1,2,0:0:0:0:
36,192,48023,1,0,0:0:0:70:L1-.wav
36,192,48139,1,0,0:0:0:70:L1-.wav
329,192,48139,1,0,0:0:0:70:3+.wav
36,192,48255,1,0,0:0:0:70:L1-.wav
475,192,48372,1,0,0:0:0:70:L4--.wav
256,192,48372,1,0,0:0:0:70:4+.wav
109,192,48410,1,0,0:0:0:70:4+.wav
182,192,48488,1,0,0:0:0:70:3+.wav
36,192,48527,1,0,0:0:0:70:3+.wav
475,192,48604,1,0,0:0:0:70:L4--.wav
256,192,48604,1,0,0:0:0:70:4+.wav
109,192,48643,1,0,0:0:0:70:4+.wav
329,192,48720,1,0,0:0:0:70:3+.wav
182,192,48759,1,0,0:0:0:70:3+.wav
475,192,48837,1,0,0:0:0:70:L4--.wav
109,192,48837,1,0,0:0:0:70:2+.wav
256,192,48837,1,2,0:0:0:0:
36,192,48875,1,0,0:0:0:70:2+.wav
475,192,49069,1,0,0:0:0:70:L4--.wav
182,192,49069,1,0,0:0:0:70:7.wav
109,192,49108,1,0,0:0:0:70:7.wav
475,192,49302,1,0,0:0:0:70:L4--.wav
182,192,49302,1,0,0:0:0:70:1+.wav
36,192,49341,1,0,0:0:0:70:1+.wav
402,192,49534,1,0,0:0:0:70:L1-.wav
256,192,49534,1,2,0:0:0:0:
402,192,49767,1,0,0:0:0:70:L1-.wav
256,192,49767,1,2,0:0:0:0:
329,192,49999,1,0,0:0:0:70:L1-.wav
329,192,50116,1,0,0:0:0:70:L1-.wav
182,192,50232,5,0,0:0:0:70:5+.wav
329,192,50232,1,0,0:0:0:70:L1-.wav
182,192,50348,5,0,0:0:0:70:5+.wav
182,192,50465,5,0,0:0:0:70:5+.wav
402,192,50465,1,0,0:0:0:70:L1-.wav
402,192,50581,1,0,0:0:0:70:L1-.wav
402,192,50697,1,0,0:0:0:70:L1-.wav
256,192,50697,1,2,0:0:0:0:
402,192,50930,1,0,0:0:0:70:L1-.wav
182,192,50930,1,0,0:0:0:70:3+.wav
182,192,51046,1,0,0:0:0:70:3+.wav
36,192,51162,1,0,0:0:0:70:5+.wav
329,192,51162,1,0,0:0:0:70:L1-.wav
329,192,51279,1,0,0:0:0:70:L1-.wav
36,192,51279,1,0,0:0:0:70:5+.wav
329,192,51395,1,0,0:0:0:70:L1-.wav
329,192,51511,1,0,0:0:0:70:L1-.wav
329,192,51627,1,0,0:0:0:70:L1-.wav
256,192,51627,1,2,0:0:0:0:
182,192,51860,1,0,0:0:0:70:3+.wav
402,192,51860,1,0,0:0:0:70:L1-.wav
402,192,51976,1,0,0:0:0:70:L1-.wav
182,192,51976,1,0,0:0:0:70:3+.wav
329,192,52093,1,0,0:0:0:70:6+.wav
36,192,52093,1,0,0:0:0:70:L4--.wav
329,192,52209,1,0,0:0:0:70:6+.wav
402,192,52325,1,0,0:0:0:70:5+.wav
36,192,52325,1,0,0:0:0:70:L4--.wav
36,192,52441,1,0,0:0:0:70:L4--.wav
402,192,52441,1,0,0:0:0:70:5+.wav
475,192,52558,1,0,0:0:0:70:4+.wav
36,192,52558,1,0,0:0:0:70:L4--.wav
256,192,52558,1,2,0:0:0:0:
475,192,52674,1,0,0:0:0:70:4+.wav
402,192,52790,1,0,0:0:0:70:3+.wav
36,192,52790,1,0,0:0:0:70:L4--.wav
36,192,52906,1,0,0:0:0:70:L4--.wav
402,192,52906,1,0,0:0:0:70:3+.wav
109,192,53023,1,0,0:0:0:70:L1-.wav
329,192,53023,1,0,0:0:0:70:4+.wav
329,192,53139,1,0,0:0:0:70:4+.wav
109,192,53255,1,0,0:0:0:70:L1-.wav
256,192,53255,1,0,0:0:0:70:5+.wav
256,192,53372,1,0,0:0:0:70:5+.wav
109,192,53488,1,0,0:0:0:70:L1-.wav
256,192,53488,1,2,0:0:0:0:
109,192,53720,1,0,0:0:0:70:L1-.wav
475,192,53720,1,0,0:0:0:70:3+.wav
329,192,53779,1,0,0:0:0:70:3+.wav
402,192,53837,1,0,0:0:0:70:4+.wav
256,192,53895,1,0,0:0:0:70:4+.wav
109,192,53953,1,0,0:0:0:70:L1-.wav
329,192,53953,1,0,0:0:0:70:5+.wav
182,192,54011,1,0,0:0:0:70:5+.wav
475,192,54069,1,0,0:0:0:70:L1-.wav
475,192,54186,1,0,0:0:0:70:L1-.wav
475,192,54418,1,0,0:0:0:70:L1-.wav
256,192,54418,1,2,0:0:0:0:
182,192,54651,1,0,0:0:0:70:3+.wav
402,192,54651,1,0,0:0:0:70:L1-.wav
402,192,54767,1,0,0:0:0:70:L1-.wav
182,192,54767,1,0,0:0:0:70:3+.wav
36,192,54883,1,0,0:0:0:70:5+.wav
402,192,54883,1,0,0:0:0:70:L1-.wav
36,192,54999,1,0,0:0:0:70:5+.wav
402,192,55116,1,0,0:0:0:70:L1-.wav
329,192,55348,1,0,0:0:0:70:L1-.wav
256,192,55348,1,2,0:0:0:0:
329,192,55465,1,0,0:0:0:70:L1-.wav
329,192,55581,1,0,0:0:0:70:L1-.wav
109,192,55581,1,0,0:0:0:70:3+.wav
182,192,55639,1,0,0:0:0:70:3+.wav
329,192,55697,1,0,0:0:0:70:L1-.wav
36,192,55813,1,0,0:0:0:70:4+.wav
475,192,55813,1,0,0:0:0:70:L4--.wav
109,192,55872,1,0,0:0:0:70:4+.wav
256,192,55930,1,0,0:0:0:70:3+.wav
182,192,55988,1,0,0:0:0:70:3+.wav
109,192,56046,1,0,0:0:0:70:4+.wav
475,192,56046,1,0,0:0:0:70:L4--.wav
36,192,56104,1,0,0:0:0:70:4+.wav
109,192,56162,1,0,0:0:0:70:3+.wav
182,192,56220,1,0,0:0:0:70:3+.wav
475,192,56279,1,0,0:0:0:70:L4--.wav
256,192,56279,1,0,0:0:0:70:2+.wav
329,192,56337,1,0,0:0:0:70:2+.wav
109,192,56511,1,0,0:0:0:70:7.wav
475,192,56511,1,0,0:0:0:70:L4--.wav
109,192,56569,1,0,0:0:0:70:7.wav
182,192,56744,1,0,0:0:0:70:1+.wav
475,192,56744,1,0,0:0:0:70:L4--.wav
182,192,56802,1,0,0:0:0:70:1+.wav
402,192,56976,1,0,0:0:0:70:L1-.wav
402,192,57209,1,0,0:0:0:70:L1-.wav
182,192,57209,1,0,0:0:0:70:3+.wav
256,192,57209,1,2,0:0:0:0:
182,192,57325,1,0,0:0:0:70:3+.wav
256,192,57325,1,2,0:0:0:0:
402,192,57441,1,0,0:0:0:70:L1-.wav
109,192,57441,1,0,0:0:0:70:4+.wav
109,192,57558,1,0,0:0:0:70:4+.wav
36,192,57674,5,0,0:0:0:70:5+.wav
402,192,57674,1,0,0:0:0:70:L1-.wav
329,192,57906,1,0,0:0:0:70:L1-.wav
329,192,58023,1,0,0:0:0:70:L1-.wav
256,192,58139,1,2,0:0:0:0:
329,192,58139,1,0,0:0:0:70:L1-.wav
329,192,58372,1,0,0:0:0:70:L1-.wav
182,192,58372,1,0,0:0:0:70:3+.wav
109,192,58488,1,0,0:0:0:70:4+.wav
475,192,58604,1,0,0:0:0:70:L1-.wav
36,192,58604,1,0,0:0:0:70:5+.wav
475,192,58720,1,0,0:0:0:70:L1-.wav
36,192,58720,1,0,0:0:0:70:5+.wav
475,192,58837,1,0,0:0:0:70:L1-.wav
475,192,58953,1,0,0:0:0:70:L1-.wav
256,192,59069,1,2,0:0:0:0:
475,192,59069,1,0,0:0:0:70:L1-.wav
182,192,59302,1,0,0:0:0:70:3+.wav
329,192,59302,1,0,0:0:0:70:L1-.wav
329,192,59418,1,0,0:0:0:70:L1-.wav
182,192,59418,1,0,0:0:0:70:3+.wav
36,192,59534,1,0,0:0:0:70:L4--.wav
256,192,59534,1,0,0:0:0:70:6+.wav
329,192,59767,1,0,0:0:0:70:5+.wav
36,192,59767,1,0,0:0:0:70:L4--.wav
36,192,59883,1,0,0:0:0:70:L4--.wav
329,192,59883,1,0,0:0:0:70:5+.wav
36,192,59999,1,0,0:0:0:70:L4--.wav
402,192,59999,1,0,0:0:0:70:4+.wav
256,192,59999,1,2,0:0:0:0:
475,192,60232,1,0,0:0:0:70:3+.wav
109,192,60232,1,0,0:0:0:70:L4--.wav
109,192,60348,1,0,0:0:0:70:L4--.wav
329,192,60465,1,0,0:0:0:70:4+.wav
182,192,60465,1,0,0:0:0:70:L1-.wav
402,192,60581,1,0,0:0:0:70:4+.wav
182,192,60697,1,0,0:0:0:70:L1-.wav
329,192,60697,1,0,0:0:0:70:5+.wav
256,192,60930,1,2,0:0:0:0:
109,192,60930,1,0,0:0:0:70:L1-.wav
475,192,61162,1,0,0:0:0:70:3+.wav
109,192,61162,1,0,0:0:0:70:L1-.wav
402,192,61279,1,0,0:0:0:70:4+.wav
182,192,61395,1,0,0:0:0:70:L1-.wav
329,192,61395,1,0,0:0:0:70:5+.wav
182,192,61511,1,0,0:0:0:70:L1-.wav
182,192,61627,1,0,0:0:0:70:L1-.wav
329,192,61627,1,0,0:0:0:70:5+.wav
109,192,61860,1,0,0:0:0:70:L1-.wav
256,192,61860,1,2,0:0:0:0:
475,192,62093,1,0,0:0:0:70:3+.wav
109,192,62093,1,0,0:0:0:70:L1-.wav
402,192,62151,1,0,0:0:0:70:4+.wav
109,192,62209,1,0,0:0:0:70:L1-.wav
402,192,62209,1,0,0:0:0:70:4+.wav
402,192,62267,1,0,0:0:0:70:4+.wav
329,192,62325,1,0,0:0:0:70:5+.wav
109,192,62325,1,0,0:0:0:70:L1-.wav
36,192,62558,1,0,0:0:0:70:L1-.wav
36,192,62790,1,0,0:0:0:70:L1-.wav
256,192,62790,1,2,0:0:0:0:
36,192,62906,1,0,0:0:0:70:L1-.wav
36,192,63023,1,0,0:0:0:70:L1-.wav
402,192,63023,1,0,0:0:0:70:3+.wav
36,192,63139,1,0,0:0:0:70:L1-.wav
182,192,63255,1,0,0:0:0:70:4+.wav
475,192,63255,1,0,0:0:0:70:L4--.wav
109,192,63294,1,0,0:0:0:70:4+.wav
36,192,63333,1,0,0:0:0:70:4+.wav
402,192,63372,1,0,0:0:0:70:3+.wav
329,192,63410,1,0,0:0:0:70:3+.wav
256,192,63449,1,0,0:0:0:70:3+.wav
475,192,63488,1,0,0:0:0:70:L4--.wav
36,192,63488,1,0,0:0:0:70:4+.wav
109,192,63527,1,0,0:0:0:70:4+.wav
182,192,63565,1,0,0:0:0:70:4+.wav
402,192,63604,1,0,0:0:0:70:3+.wav
329,192,63643,1,0,0:0:0:70:3+.wav
256,192,63682,1,0,0:0:0:70:3+.wav
475,192,63720,1,0,0:0:0:70:L4--.wav
36,192,63720,1,0,0:0:0:70:2+.wav
109,192,63759,1,0,0:0:0:70:2+.wav
182,192,63798,1,0,0:0:0:70:2+.wav
329,192,63953,1,0,0:0:0:70:7.wav
475,192,63953,1,0,0:0:0:70:L4--.wav
256,192,63992,1,0,0:0:0:70:7.wav
182,192,64031,1,0,0:0:0:70:7.wav
36,192,64186,1,0,0:0:0:70:1+.wav
475,192,64186,1,0,0:0:0:70:L4--.wav
109,192,64224,1,0,0:0:0:70:1+.wav
182,192,64263,1,0,0:0:0:70:1+.wav
475,192,64418,1,0,0:0:0:70:L1-.wav
256,192,64418,1,2,0:0:0:0:
475,192,64651,1,0,0:0:0:70:L1-.wav
256,192,64651,1,2,0:0:0:0:
475,192,64883,1,0,0:0:0:70:L1-.wav
256,192,64883,1,2,0:0:0:0:
