osu file format v13

[General]
AudioFilename: 2m3.mp3
AudioLeadIn: 0
PreviewTime: -1
Countdown: 0
SampleSet: Normal
StackLeniency: 0.7
Mode: 3
LetterboxInBreaks: 0
SpecialStyle: 0
WidescreenStoryboard: 1

[Editor]
Bookmarks: 68317
DistanceSpacing: 1.2
BeatDivisor: 4
GridSize: 4
TimelineZoom: 2.4

[Metadata]
Title:Piano Pack
TitleUnicode:Piano Pack
Artist:KawaEE
ArtistUnicode:KawaEE
Creator:KawaEE
Version:MX : Evans
Source:
Tags:Piano
BeatmapID:556210
BeatmapSetID:236952

[Difficulty]
HPDrainRate:7
CircleSize:7
OverallDifficulty:7
ApproachRate:5
SliderMultiplier:1.4
SliderTickRate:1

[Events]
//Background and Video events
0,0,"7777.jpg",0,0
//Break Periods
//Storyboard Layer 0 (Background)
//Storyboard Layer 1 (Fail)
//Storyboard Layer 2 (Pass)
//Storyboard Layer 3 (Foreground)
//Storyboard Sound Samples
Sample,3533,0,"normal-hitnormal.wav",70
Sample,4992,0,"normal-hitnormal.wav",70
Sample,5479,0,"normal-hitnormal.wav",70
Sample,5803,0,"normal-hitnormal.wav",70
Sample,6127,0,"normal-hitnormal.wav",70
Sample,8722,0,"normal-hitnormal.wav",70
Sample,9046,0,"normal-hitnormal.wav",70
Sample,10181,0,"normal-hitnormal.wav",70
Sample,10668,0,"normal-hitnormal.wav",70
Sample,10992,0,"normal-hitnormal.wav",70
Sample,11317,0,"normal-hitnormal.wav",70
Sample,11965,0,"normal-hitnormal.wav",70
Sample,12614,0,"normal-hitnormal.wav",70
Sample,12776,0,"normal-hitnormal.wav",70
Sample,13262,0,"normal-hitnormal.wav",70
Sample,13506,0,"normal-hitnormal.wav",70
Sample,13749,0,"normal-hitnormal.wav",70
Sample,14235,0,"normal-hitnormal.wav",70
Sample,17803,0,"normal-hitnormal.wav",70
Sample,17965,0,"normal-hitnormal.wav",70
Sample,18452,0,"normal-hitnormal.wav",70
Sample,18776,0,"normal-hitnormal.wav",70
Sample,19100,0,"normal-hitnormal.wav",70
Sample,19425,0,"normal-hitnormal.wav",70
Sample,20398,0,"normal-hitnormal.wav",70
Sample,21695,0,"normal-hitnormal.wav",70
Sample,22344,0,"normal-hitnormal.wav",70
Sample,22992,0,"normal-hitnormal.wav",70
Sample,23154,0,"normal-hitnormal.wav",70
Sample,23965,0,"normal-hitnormal.wav",70
Sample,24289,0,"normal-hitnormal.wav",70
Sample,26884,0,"normal-hitnormal.wav",70
Sample,37262,0,"normal-hitnormal.wav",70
Sample,47965,0,"normal-hitnormal.wav",70
Sample,50235,0,"normal-hitnormal.wav",70
Sample,50560,0,"normal-hitnormal.wav",70
Sample,52830,0,"normal-hitnormal.wav",70
Sample,54127,0,"normal-hitnormal.wav",70
Sample,55425,0,"normal-hitnormal.wav",70
Sample,56073,0,"normal-hitnormal.wav",70
Sample,56722,0,"normal-hitnormal.wav",70
Sample,57371,0,"normal-hitnormal.wav",70
Sample,58019,0,"normal-hitnormal.wav",70
Sample,60614,0,"normal-hitnormal.wav",70
Sample,62884,0,"normal-hitnormal.wav",70
Sample,63208,0,"normal-hitnormal.wav",70
Sample,67100,0,"normal-hitnormal.wav",70
Sample,67749,0,"normal-hitnormal.wav",70
Sample,67992,0,"normal-hitnormal.wav",70
Sample,68235,0,"normal-hitnormal.wav",70
Sample,68722,0,"normal-hitnormal.wav",70
Sample,69371,0,"normal-hitnormal.wav",70
Sample,69533,0,"normal-hitnormal.wav",70
Sample,69695,0,"normal-hitnormal.wav",70
Sample,70992,0,"normal-hitnormal.wav",70
Sample,71641,0,"normal-hitnormal.wav",70
Sample,72289,0,"normal-hitnormal.wav",70
Sample,72533,0,"normal-hitnormal.wav",70
Sample,72776,0,"normal-hitnormal.wav",70
Sample,73100,0,"normal-hitnormal.wav",70
Sample,73262,0,"normal-hitnormal.wav",70
Sample,73425,0,"normal-hitnormal.wav",70
Sample,73911,0,"normal-hitnormal.wav",70
Sample,77479,0,"normal-hitnormal.wav",70
Sample,77803,0,"normal-hitnormal.wav",70
Sample,78127,0,"normal-hitnormal.wav",70
Sample,78371,0,"normal-hitnormal.wav",70
Sample,78614,0,"normal-hitnormal.wav",70
Sample,80073,0,"normal-hitnormal.wav",70
Sample,81371,0,"normal-hitnormal.wav",70
Sample,82019,0,"normal-hitnormal.wav",70
Sample,82668,0,"normal-hitnormal.wav",70
Sample,82830,0,"normal-hitnormal.wav",70
Sample,83641,0,"normal-hitnormal.wav",70
Sample,84289,0,"normal-hitnormal.wav",70
Sample,85587,0,"normal-hitnormal.wav",70
Sample,85911,0,"normal-hitnormal.wav",70
Sample,86235,0,"normal-hitnormal.wav",70
Sample,86560,0,"normal-hitnormal.wav",70
Sample,87208,0,"normal-hitnormal.wav",70
Sample,87857,0,"normal-hitnormal.wav",70
Sample,88181,0,"normal-hitnormal.wav",70
Sample,88506,0,"normal-hitnormal.wav",70
Sample,88749,0,"normal-hitnormal.wav",70
Sample,88992,0,"normal-hitnormal.wav",70
Sample,89154,0,"normal-hitnormal.wav",70
Sample,90127,0,"normal-hitnormal.wav",70
Sample,90452,0,"normal-hitnormal.wav",70
Sample,91425,0,"normal-hitnormal.wav",70
Sample,91749,0,"normal-hitnormal.wav",70
Sample,92398,0,"normal-hitnormal.wav",70
Sample,93046,0,"normal-hitnormal.wav",70
Sample,93208,0,"normal-hitnormal.wav",70
Sample,94668,0,"normal-hitnormal.wav",70
Sample,98235,0,"normal-hitnormal.wav",70
Sample,98398,0,"normal-hitnormal.wav",70
Sample,98884,0,"normal-hitnormal.wav",70
Sample,99208,0,"normal-hitnormal.wav",70
Sample,99533,0,"normal-hitnormal.wav",70
Sample,100181,0,"normal-hitnormal.wav",70
Sample,100506,0,"normal-hitnormal.wav",70
Sample,100830,0,"normal-hitnormal.wav",70
Sample,100992,0,"normal-hitnormal.wav",70
Sample,101479,0,"normal-hitnormal.wav",70
Sample,101803,0,"normal-hitnormal.wav",70
Sample,102127,0,"normal-hitnormal.wav",70
Sample,102776,0,"normal-hitnormal.wav",70
Sample,103425,0,"normal-hitnormal.wav",70
Sample,103749,0,"normal-hitnormal.wav",70
Sample,104073,0,"normal-hitnormal.wav",70
Sample,104398,0,"normal-hitnormal.wav",70
Sample,104722,0,"normal-hitnormal.wav",70

[TimingPoints]
290,324.324324324324,4,1,1,37,1,0

[HitObjects]
475,192,3533,5,0,0:0:0:70:1.wav
182,192,3533,1,0,0:0:0:70:L1-.wav
36,192,3533,1,0,0:0:0:70:L1--.wav
402,192,3533,1,0,0:0:0:70:L5--.wav
109,192,3695,1,0,0:0:0:70:5-.wav
329,192,3695,1,0,0:0:0:70:2.wav
402,192,3857,1,0,0:0:0:70:2#.wav
182,192,3857,1,0,0:0:0:70:1.wav
256,192,4019,1,0,0:0:0:70:6#.wav
475,192,4019,1,0,0:0:0:70:2.wav
402,192,4344,1,0,0:0:0:70:2#.wav
329,192,4668,1,0,0:0:0:70:2.wav
182,192,4830,1,0,0:0:0:70:L1-.wav
36,192,4830,1,0,0:0:0:70:L1--.wav
475,192,5154,1,0,0:0:0:70:2#.wav
329,192,5317,1,0,0:0:0:70:2.wav
182,192,5479,1,0,0:0:0:70:L1-.wav
36,192,5479,1,0,0:0:0:70:L1--.wav
402,192,5641,1,0,0:0:0:100:L6#-.wav
36,192,5803,1,0,0:0:0:70:L1--.wav
182,192,5803,1,0,0:0:0:70:L1-.wav
256,192,5965,1,0,0:0:0:100:L5#-.wav
402,192,6127,1,0,0:0:0:70:1.wav
475,192,6127,1,0,0:0:0:70:L1-.wav
182,192,6127,1,0,0:0:0:70:L1--.wav
36,192,6127,1,0,0:0:0:70:L5--.wav
329,192,6289,1,0,0:0:0:70:5-.wav
109,192,6289,1,0,0:0:0:70:2.wav
182,192,6452,1,0,0:0:0:70:1.wav
402,192,6452,1,0,0:0:0:70:2#.wav
256,192,6614,1,0,0:0:0:70:2.wav
475,192,6614,1,0,0:0:0:70:6#.wav
402,192,6938,1,0,0:0:0:70:2#.wav
256,192,7262,1,0,0:0:0:70:2.wav
182,192,7425,1,0,0:0:0:70:L1-.wav
36,192,7425,1,0,0:0:0:70:L1--.wav
475,192,7749,1,0,0:0:0:70:2#.wav
256,192,7911,1,0,0:0:0:70:2.wav
36,192,8073,1,0,0:0:0:70:L1--.wav
402,192,8235,1,0,0:0:0:70:6#.wav
182,192,8235,1,0,0:0:0:70:L1-.wav
36,192,8398,1,0,0:0:0:70:L1--.wav
329,192,8560,1,0,0:0:0:70:5.wav
182,192,8560,1,0,0:0:0:70:L1-.wav
109,192,8722,1,0,0:0:0:70:1.wav
256,192,8722,1,0,0:0:0:70:L5#-.wav
36,192,8884,1,0,0:0:0:100:L5#-.wav
182,192,8884,1,0,0:0:0:70:2.wav
329,192,8884,1,0,0:0:0:70:L5#--.wav
402,192,9046,1,0,0:0:0:100:L6#-.wav
109,192,9046,1,0,0:0:0:70:2#.wav
256,192,9046,1,0,0:0:0:70:L5#-.wav
182,192,9208,1,0,0:0:0:70:6#.wav
329,192,9208,1,0,0:0:0:70:1.wav
475,192,9208,1,0,0:0:0:70:L5#--.wav
109,192,9371,1,0,0:0:0:70:L5#-.wav
329,192,9533,1,0,0:0:0:70:2.wav
36,192,9533,1,0,0:0:0:70:L5#--.wav
182,192,9695,1,0,0:0:0:70:L5#-.wav
475,192,9857,1,0,0:0:0:70:2#.wav
36,192,9857,1,0,0:0:0:70:L5#--.wav
182,192,10019,1,0,0:0:0:70:L5#-.wav
36,192,10181,1,0,0:0:0:70:L5#--.wav
329,192,10344,1,0,0:0:0:70:1.wav
182,192,10344,1,0,0:0:0:70:L5#-.wav
475,192,10506,1,0,0:0:0:70:2#.wav
36,192,10506,1,0,0:0:0:70:L5#--.wav
182,192,10668,1,0,0:0:0:70:L5#-.wav
402,192,10830,1,4,0:0:0:70:2.wav
36,192,10830,1,0,0:0:0:70:L5#--.wav
182,192,10992,1,0,0:0:0:70:L5#-.wav
256,192,11154,1,0,0:0:0:100:L6#-.wav
475,192,11154,1,0,0:0:0:70:L5#--.wav
182,192,11317,1,0,0:0:0:100:L5#-.wav
402,192,11317,1,0,0:0:0:70:L5#-.wav
109,192,11479,1,0,0:0:0:70:1.wav
256,192,11479,1,0,0:0:0:70:L5#--.wav
36,192,11641,1,0,0:0:0:70:5#-.wav
329,192,11641,1,4,0:0:0:70:2.wav
182,192,11641,1,0,0:0:0:70:L5#-.wav
402,192,11803,1,0,0:0:0:70:6#-.wav
256,192,11803,1,0,0:0:0:70:2#.wav
109,192,11803,1,0,0:0:0:70:L5#--.wav
182,192,11965,1,0,0:0:0:70:L5#-.wav
329,192,11965,1,0,0:0:0:70:1.wav
475,192,11965,1,0,0:0:0:70:6#.wav
402,192,12127,1,0,0:0:0:70:2.wav
36,192,12127,1,0,0:0:0:70:L5#--.wav
182,192,12289,1,0,0:0:0:70:L5#-.wav
329,192,12452,1,0,0:0:0:70:2#.wav
36,192,12452,1,0,0:0:0:70:L5#--.wav
109,192,12614,1,0,0:0:0:70:L5--.wav
256,192,12614,1,0,0:0:0:70:L2--.wav
402,192,12614,1,0,0:0:0:70:2.wav
475,192,12614,1,0,0:0:0:70:6#-.wav
329,192,12938,1,0,0:0:0:70:5#.wav
36,192,12938,1,0,0:0:0:70:L2--.wav
182,192,12938,1,0,0:0:0:70:L5--.wav
475,192,13100,1,0,0:0:0:70:5.wav
475,192,13587,1,0,0:0:0:70:6#-.wav
256,192,13587,1,0,0:0:0:70:2.wav
36,192,13587,1,0,0:0:0:70:L6#--.wav
329,192,13749,1,0,0:0:0:70:4.wav
182,192,13749,1,0,0:0:0:70:L6#--.wav
36,192,13911,1,0,0:0:0:70:L2--.wav
402,192,14073,1,0,0:0:0:70:5.wav
182,192,14073,1,0,0:0:0:70:L2-.wav
36,192,14235,1,0,0:0:0:70:L1-.wav
109,192,14398,1,0,0:0:0:70:L5-.wav
329,192,14560,1,0,0:0:0:70:1.wav
36,192,14560,1,0,0:0:0:70:2#.wav
256,192,14560,1,0,0:0:0:70:L1-.wav
182,192,14560,1,0,0:0:0:70:L1--.wav
475,192,14560,1,0,0:0:0:70:L5--.wav
402,192,14722,1,0,0:0:0:70:2.wav
36,192,14884,1,0,0:0:0:70:L1--.wav
182,192,15046,1,0,0:0:0:70:L1-.wav
475,192,15208,1,0,0:0:0:70:2#.wav
36,192,15208,1,0,0:0:0:70:L1--.wav
182,192,15371,1,0,0:0:0:70:L1-.wav
329,192,15533,1,0,0:0:0:70:2.wav
36,192,15533,1,0,0:0:0:70:L1--.wav
182,192,15695,1,0,0:0:0:70:L1-.wav
402,192,15857,1,0,0:0:0:70:2#.wav
36,192,15857,1,0,0:0:0:70:L1--.wav
182,192,16019,1,0,0:0:0:70:L1-.wav
329,192,16019,1,0,0:0:0:70:2.wav
36,192,16181,1,0,0:0:0:70:L1--.wav
182,192,16344,1,0,0:0:0:70:L1-.wav
256,192,16344,1,0,0:0:0:100:L6#-.wav
36,192,16506,1,0,0:0:0:70:L1--.wav
182,192,16668,1,0,0:0:0:70:L1-.wav
329,192,16668,1,0,0:0:0:70:1.wav
256,192,16830,1,0,0:0:0:70:1.wav
109,192,16830,1,0,0:0:0:70:L1--.wav
329,192,16992,1,0,0:0:0:70:L1-.wav
36,192,16992,1,0,0:0:0:70:2.wav
182,192,16992,1,0,0:0:0:70:L5-.wav
109,192,17154,1,0,0:0:0:70:1.wav
256,192,17154,1,0,0:0:0:70:2#.wav
402,192,17154,1,0,0:0:0:70:L1--.wav
475,192,17317,1,0,0:0:0:70:L1-.wav
182,192,17317,1,0,0:0:0:70:6#.wav
329,192,17317,1,0,0:0:0:70:2.wav
36,192,17479,1,0,0:0:0:70:L1--.wav
182,192,17641,1,0,0:0:0:70:L1-.wav
36,192,17803,1,0,0:0:0:70:L1--.wav
402,192,17803,1,0,0:0:0:70:2#.wav
182,192,17965,1,0,0:0:0:70:L1-.wav
402,192,18127,1,0,0:0:0:70:L1--.wav
256,192,18127,1,0,0:0:0:70:2.wav
109,192,18127,1,0,0:0:0:70:L1-.wav
475,192,18127,1,0,0:0:0:70:L5--.wav
329,192,18289,1,0,0:0:0:70:L1--.wav
36,192,18289,1,0,0:0:0:70:L5--.wav
402,192,18452,1,0,0:0:0:70:2#.wav
109,192,18452,1,0,0:0:0:70:L1--.wav
182,192,18614,1,0,0:0:0:70:L1--.wav
475,192,18614,1,0,0:0:0:70:2.wav
256,192,18776,1,0,0:0:0:70:L1-.wav
36,192,18776,1,0,0:0:0:70:L5--.wav
109,192,18938,1,0,0:0:0:70:L1--.wav
475,192,18938,1,0,0:0:0:70:6#.wav
36,192,19100,1,0,0:0:0:70:L1-.wav
256,192,19100,1,0,0:0:0:70:L5--.wav
109,192,19262,1,0,0:0:0:70:L1--.wav
402,192,19262,1,0,0:0:0:70:5.wav
329,192,19425,1,0,0:0:0:70:1.wav
36,192,19425,1,0,0:0:0:70:L2#-.wav
182,192,19425,1,0,0:0:0:70:5#-.wav
109,192,19587,1,0,0:0:0:70:5#-.wav
256,192,19587,1,0,0:0:0:70:2.wav
182,192,19749,1,0,0:0:0:70:L5#--.wav
329,192,19749,1,0,0:0:0:70:6#-.wav
475,192,19749,1,0,0:0:0:70:2#.wav
256,192,19911,1,0,0:0:0:70:1.wav
402,192,19911,1,0,0:0:0:70:6#.wav
329,192,20073,1,0,0:0:0:70:2.wav
475,192,20073,1,0,0:0:0:70:L5#--.wav
36,192,20235,1,0,0:0:0:70:L5#--.wav
182,192,20398,1,0,0:0:0:70:L5#--.wav
402,192,20398,1,0,0:0:0:70:2#.wav
36,192,20560,1,0,0:0:0:70:L5#--.wav
182,192,20722,1,0,0:0:0:70:L5#--.wav
109,192,20722,1,0,0:0:0:70:L5#-.wav
329,192,20722,1,0,0:0:0:70:2.wav
36,192,20884,1,0,0:0:0:70:L2#--.wav
182,192,21046,1,0,0:0:0:70:L5#-.wav
475,192,21046,1,0,0:0:0:70:2#.wav
402,192,21208,1,0,0:0:0:70:2.wav
36,192,21208,1,0,0:0:0:70:L5#--.wav
182,192,21371,1,0,0:0:0:70:L5#-.wav
36,192,21533,1,0,0:0:0:70:L5#--.wav
256,192,21533,1,0,0:0:0:100:L6#-.wav
182,192,21695,1,0,0:0:0:70:L5#-.wav
109,192,21857,1,0,0:0:0:70:L5#--.wav
256,192,21857,1,0,0:0:0:70:1.wav
182,192,22019,1,0,0:0:0:70:1.wav
329,192,22019,1,0,0:0:0:70:L5#-.wav
36,192,22019,1,0,0:0:0:70:L5#--.wav
475,192,22019,1,0,0:0:0:70:L2#--.wav
256,192,22181,1,0,0:0:0:70:L2#--.wav
109,192,22181,1,0,0:0:0:70:2.wav
402,192,22181,1,0,0:0:0:100:L5#-.wav
329,192,22344,1,0,0:0:0:70:L5#-.wav
36,192,22344,1,0,0:0:0:100:L6#-.wav
182,192,22344,1,0,0:0:0:70:2#.wav
475,192,22506,1,0,0:0:0:70:L5#--.wav
256,192,22506,1,0,0:0:0:70:6#.wav
109,192,22506,1,0,0:0:0:70:1.wav
182,192,22668,1,0,0:0:0:70:L5#-.wav
329,192,22668,1,0,0:0:0:70:L5#--.wav
402,192,22668,1,0,0:0:0:70:L2#--.wav
36,192,22668,1,0,0:0:0:70:2.wav
109,192,22830,1,0,0:0:0:70:L2#--.wav
256,192,22992,1,0,0:0:0:70:L5#-.wav
402,192,22992,1,0,0:0:0:70:2#.wav
36,192,23154,1,0,0:0:0:70:L2#--.wav
182,192,23317,1,0,0:0:0:70:L5--.wav
109,192,23317,1,0,0:0:0:70:L5-.wav
329,192,23317,1,0,0:0:0:70:2.wav
36,192,23479,1,0,0:0:0:70:L2--.wav
475,192,23641,1,0,0:0:0:70:L5-.wav
256,192,23641,1,0,0:0:0:70:5#.wav
402,192,23803,1,0,0:0:0:70:L5--.wav
182,192,23803,1,0,0:0:0:70:5.wav
256,192,23965,1,0,0:0:0:70:6#-.wav
475,192,23965,1,0,0:0:0:70:5-.wav
36,192,23965,1,0,0:0:0:70:L6#--.wav
109,192,24127,1,0,0:0:0:70:L5--.wav
402,192,24127,1,0,0:0:0:70:4.wav
36,192,24289,1,0,0:0:0:70:L6#--.wav
402,192,24452,1,0,0:0:0:70:L6#--.wav
182,192,24452,1,0,0:0:0:70:5.wav
109,192,24614,1,0,0:0:0:70:5-.wav
329,192,24614,1,0,0:0:0:70:1.wav
256,192,24614,128,0,26722:0:0:0:70:L1--.wav
36,192,24614,128,0,26722:0:0:0:70:L5--.wav
475,192,24614,128,0,26722:0:0:0:70:L1-.wav
402,192,26884,1,0,0:0:0:70:1+.wav
109,192,26884,1,0,0:0:0:70:L5-.wav
36,192,26884,1,0,0:0:0:70:L1.wav
256,192,26884,1,0,0:0:0:70:L1-.wav
329,192,27046,1,0,0:0:0:70:5.wav
475,192,27127,1,0,0:0:0:70:2#+.wav
256,192,27289,1,0,0:0:0:70:1+.wav
402,192,27371,1,0,0:0:0:70:2+.wav
182,192,27533,1,0,0:0:0:70:5.wav
329,192,27614,1,0,0:0:0:70:1+.wav
109,192,27776,1,0,0:0:0:70:5.wav
402,192,27857,1,0,0:0:0:70:2#+.wav
182,192,27938,1,0,0:0:0:70:1+.wav
329,192,28019,1,0,0:0:0:70:5+.wav
182,192,28100,1,0,0:0:0:70:1+.wav
256,192,28181,1,0,0:0:0:70:L5#-.wav
475,192,28181,1,0,0:0:0:70:6#+.wav
109,192,28181,1,0,0:0:0:70:L2#-.wav
36,192,28181,1,0,0:0:0:70:L5#--.wav
182,192,28344,1,0,0:0:0:70:5#.wav
402,192,28425,1,0,0:0:0:70:2#+.wav
182,192,28587,1,0,0:0:0:70:5#.wav
329,192,28668,1,0,0:0:0:70:2+.wav
182,192,28830,1,0,0:0:0:70:5#.wav
402,192,28911,1,0,0:0:0:70:2#+.wav
182,192,29073,1,0,0:0:0:70:5#.wav
329,192,29154,1,0,0:0:0:70:6#+.wav
182,192,29235,1,0,0:0:0:70:5#.wav
475,192,29317,1,0,0:0:0:70:1++.wav
402,192,29479,1,0,0:0:0:70:6#+.wav
256,192,29479,1,0,0:0:0:70:L6#-.wav
109,192,29479,1,0,0:0:0:70:L6#--.wav
36,192,29479,1,0,0:0:0:70:L4-.wav
182,192,29641,1,0,0:0:0:70:6#.wav
329,192,29722,1,0,0:0:0:70:4+.wav
182,192,29884,1,0,0:0:0:70:6#.wav
402,192,29965,1,0,0:0:0:70:5#+.wav
182,192,30127,1,0,0:0:0:70:6#.wav
329,192,30208,1,0,0:0:0:70:L6#--.wav
475,192,30208,1,0,0:0:0:70:5#+.wav
36,192,30208,1,0,0:0:0:70:L5-.wav
109,192,30208,1,0,0:0:0:70:L6#-.wav
182,192,30371,1,0,0:0:0:70:6#.wav
402,192,30452,1,0,0:0:0:70:5+.wav
182,192,30533,1,0,0:0:0:70:6#.wav
329,192,30614,1,0,0:0:0:70:4+.wav
182,192,30695,1,0,0:0:0:70:6#.wav
329,192,30776,1,0,0:0:0:70:4+.wav
109,192,30776,1,0,0:0:0:70:L5-.wav
36,192,30776,1,0,0:0:0:70:L1.wav
402,192,30776,1,0,0:0:0:70:L1-.wav
256,192,30938,1,0,0:0:0:70:1+.wav
475,192,31019,1,0,0:0:0:70:5+.wav
182,192,31181,1,0,0:0:0:70:1+.wav
402,192,31262,1,0,0:0:0:70:2#+.wav
182,192,31425,1,0,0:0:0:70:1+.wav
329,192,31506,1,0,0:0:0:70:2+.wav
182,192,31668,1,0,0:0:0:70:1+.wav
329,192,31749,1,0,0:0:0:70:2+.wav
109,192,31830,1,0,0:0:0:70:1+.wav
402,192,31911,1,0,0:0:0:70:2#+.wav
256,192,31992,1,0,0:0:0:70:5+.wav
182,192,32073,1,0,0:0:0:70:L1-.wav
329,192,32073,1,0,0:0:0:70:6#+.wav
36,192,32073,1,0,0:0:0:70:L4--.wav
475,192,32073,1,0,0:0:0:70:L4-.wav
109,192,32235,1,0,0:0:0:70:1+.wav
402,192,32317,1,0,0:0:0:70:2#+.wav
109,192,32479,1,0,0:0:0:70:1+.wav
329,192,32560,1,0,0:0:0:70:2+.wav
109,192,32722,1,0,0:0:0:70:1+.wav
402,192,32803,1,0,0:0:0:70:2#+.wav
109,192,32965,1,0,0:0:0:70:1+.wav
256,192,33046,1,0,0:0:0:70:6#+.wav
109,192,33127,1,0,0:0:0:70:1+.wav
475,192,33208,1,0,0:0:0:70:1++.wav
402,192,33371,1,0,0:0:0:70:6#+.wav
36,192,33371,1,0,0:0:0:70:L2-.wav
182,192,33371,1,0,0:0:0:70:L5--.wav
329,192,33371,1,0,0:0:0:70:L5-.wav
109,192,33533,1,0,0:0:0:70:5.wav
475,192,33614,1,0,0:0:0:70:5+.wav
109,192,33776,1,0,0:0:0:70:5.wav
329,192,33857,1,0,0:0:0:70:2#+.wav
109,192,34019,1,0,0:0:0:70:5.wav
329,192,34100,1,0,0:0:0:70:2#+.wav
109,192,34262,1,0,0:0:0:70:5.wav
256,192,34344,1,0,0:0:0:70:2+.wav
109,192,34425,1,0,0:0:0:70:5.wav
475,192,34506,1,0,0:0:0:70:2#++.wav
475,192,34668,1,0,0:0:0:70:2++.wav
182,192,34668,1,0,0:0:0:70:L2#-.wav
329,192,34668,1,0,0:0:0:70:L5#-.wav
36,192,34668,1,0,0:0:0:70:L5#--.wav
109,192,34830,1,0,0:0:0:70:5#.wav
402,192,34911,1,0,0:0:0:70:6#+.wav
109,192,35073,1,0,0:0:0:70:5#.wav
256,192,35154,1,0,0:0:0:70:5+.wav
109,192,35317,1,0,0:0:0:70:5#.wav
256,192,35398,1,0,0:0:0:70:5+.wav
109,192,35560,1,0,0:0:0:70:5#.wav
475,192,35641,1,0,0:0:0:70:1++.wav
109,192,35722,5,0,0:0:0:70:5#.wav
402,192,35803,1,0,0:0:0:70:6#+.wav
109,192,35884,1,0,0:0:0:70:5#.wav
36,192,35965,1,0,0:0:0:70:5#+.wav
475,192,35965,1,0,0:0:0:70:L2-.wav
256,192,35965,1,0,0:0:0:70:L5-.wav
329,192,35965,1,0,0:0:0:70:L5--.wav
182,192,36127,1,0,0:0:0:70:5.wav
402,192,36208,1,0,0:0:0:70:5#+.wav
182,192,36371,1,0,0:0:0:70:5.wav
329,192,36452,1,0,0:0:0:70:5+.wav
182,192,36614,1,0,0:0:0:70:5.wav
256,192,36695,1,0,0:0:0:70:4+.wav
182,192,36857,1,0,0:0:0:70:5.wav
329,192,36938,1,0,0:0:0:70:5+.wav
402,192,37100,1,0,0:0:0:70:6#+.wav
475,192,37262,1,0,0:0:0:70:1+.wav
36,192,37262,1,0,0:0:0:70:L1--.wav
329,192,37425,1,0,0:0:0:70:5.wav
182,192,37425,1,0,0:0:0:70:L1-.wav
402,192,37506,1,0,0:0:0:70:2#+.wav
36,192,37587,1,0,0:0:0:70:L1--.wav
475,192,37668,1,0,0:0:0:70:1+.wav
402,192,37749,1,0,0:0:0:70:2+.wav
182,192,37749,1,0,0:0:0:70:L1-.wav
329,192,37911,1,0,0:0:0:70:5.wav
36,192,37911,1,0,0:0:0:70:L1--.wav
402,192,37992,1,0,0:0:0:70:1+.wav
182,192,38073,1,0,0:0:0:70:L1-.wav
256,192,38154,1,0,0:0:0:70:5.wav
402,192,38235,1,0,0:0:0:70:2#+.wav
36,192,38235,1,0,0:0:0:70:L1--.wav
329,192,38317,1,0,0:0:0:70:1+.wav
402,192,38398,1,0,0:0:0:70:5+.wav
182,192,38398,1,0,0:0:0:70:L1-.wav
329,192,38479,1,0,0:0:0:70:1+.wav
475,192,38560,1,0,0:0:0:70:6#+.wav
109,192,38560,1,0,0:0:0:70:L5#-.wav
402,192,38722,1,0,0:0:0:70:5#.wav
36,192,38722,1,0,0:0:0:70:L5#--.wav
329,192,38803,1,0,0:0:0:70:2#+.wav
182,192,38884,1,0,0:0:0:70:L5#-.wav
256,192,38965,1,0,0:0:0:70:5#.wav
402,192,39046,1,0,0:0:0:70:2+.wav
36,192,39046,1,0,0:0:0:70:L5#--.wav
329,192,39208,1,0,0:0:0:70:5#.wav
182,192,39208,1,0,0:0:0:70:L5#-.wav
402,192,39289,1,0,0:0:0:70:2#+.wav
36,192,39371,1,0,0:0:0:70:L5#--.wav
256,192,39452,1,0,0:0:0:70:5#.wav
402,192,39533,1,0,0:0:0:70:6#+.wav
182,192,39533,1,0,0:0:0:70:L5#-.wav
329,192,39614,1,0,0:0:0:70:5#.wav
36,192,39695,1,0,0:0:0:70:L5#--.wav
475,192,39695,1,0,0:0:0:70:1++.wav
402,192,39857,1,0,0:0:0:70:6#+.wav
182,192,39857,1,0,0:0:0:70:L6#-.wav
256,192,40019,1,0,0:0:0:70:6#.wav
36,192,40019,1,0,0:0:0:70:L6#--.wav
329,192,40100,1,0,0:0:0:70:4+.wav
182,192,40181,1,0,0:0:0:70:L6#-.wav
256,192,40262,1,0,0:0:0:70:6#.wav
475,192,40344,1,0,0:0:0:70:5#+.wav
36,192,40344,1,0,0:0:0:70:L6#--.wav
329,192,40506,1,0,0:0:0:70:6#.wav
182,192,40506,1,0,0:0:0:70:L6#-.wav
475,192,40587,1,0,0:0:0:70:5#+.wav
36,192,40668,1,0,0:0:0:70:L6#--.wav
329,192,40749,1,0,0:0:0:70:6#.wav
475,192,40830,1,0,0:0:0:70:5+.wav
182,192,40830,1,0,0:0:0:70:L6#-.wav
329,192,40911,1,0,0:0:0:70:6#.wav
402,192,40992,1,0,0:0:0:70:4+.wav
36,192,40992,1,0,0:0:0:70:L6#--.wav
475,192,41073,1,0,0:0:0:70:6#.wav
402,192,41154,1,0,0:0:0:70:4+.wav
109,192,41154,1,0,0:0:0:70:L1--.wav
329,192,41317,1,0,0:0:0:70:1+.wav
182,192,41317,1,0,0:0:0:70:L1-.wav
475,192,41398,1,0,0:0:0:70:5+.wav
36,192,41479,1,0,0:0:0:70:L1--.wav
329,192,41560,1,0,0:0:0:70:1+.wav
402,192,41641,1,0,0:0:0:70:2#+.wav
182,192,41641,1,0,0:0:0:70:L1-.wav
329,192,41803,1,0,0:0:0:70:1+.wav
36,192,41803,1,0,0:0:0:70:L1--.wav
402,192,41884,1,0,0:0:0:70:2+.wav
182,192,41965,1,0,0:0:0:70:L1-.wav
329,192,42046,1,0,0:0:0:70:1+.wav
402,192,42127,1,0,0:0:0:70:2+.wav
36,192,42127,1,0,0:0:0:70:L1--.wav
256,192,42208,1,0,0:0:0:70:1+.wav
329,192,42289,1,0,0:0:0:70:2#+.wav
182,192,42289,1,0,0:0:0:70:L1-.wav
402,192,42371,1,0,0:0:0:70:5+.wav
475,192,42452,1,0,0:0:0:70:6#+.wav
109,192,42452,1,0,0:0:0:70:L4-.wav
256,192,42614,1,0,0:0:0:70:1+.wav
36,192,42614,1,0,0:0:0:70:L4--.wav
402,192,42695,1,0,0:0:0:70:2#+.wav
182,192,42776,1,0,0:0:0:70:L4-.wav
329,192,42857,1,0,0:0:0:70:1+.wav
475,192,42938,1,0,0:0:0:70:2+.wav
36,192,42938,1,0,0:0:0:70:L4--.wav
329,192,43100,1,0,0:0:0:70:1+.wav
182,192,43100,1,0,0:0:0:70:L4-.wav
475,192,43181,1,0,0:0:0:70:2#+.wav
36,192,43262,1,0,0:0:0:70:L4--.wav
329,192,43344,1,0,0:0:0:70:1+.wav
402,192,43425,1,0,0:0:0:70:6#+.wav
182,192,43425,1,0,0:0:0:70:L4-.wav
329,192,43506,1,0,0:0:0:70:1+.wav
475,192,43587,1,0,0:0:0:70:1++.wav
36,192,43587,1,0,0:0:0:70:L4--.wav
402,192,43749,1,0,0:0:0:70:6#+.wav
182,192,43749,1,0,0:0:0:70:L5-.wav
256,192,43911,1,0,0:0:0:70:5.wav
36,192,43911,1,0,0:0:0:70:L5--.wav
475,192,43992,1,0,0:0:0:70:5+.wav
182,192,44073,1,0,0:0:0:70:L5-.wav
256,192,44154,1,0,0:0:0:70:5.wav
402,192,44235,1,0,0:0:0:70:2#+.wav
36,192,44235,1,0,0:0:0:70:L5--.wav
329,192,44398,1,0,0:0:0:70:5.wav
182,192,44398,1,0,0:0:0:70:L5-.wav
475,192,44479,1,0,0:0:0:70:2#+.wav
36,192,44560,1,0,0:0:0:70:L5--.wav
329,192,44641,1,0,0:0:0:70:5.wav
402,192,44722,1,0,0:0:0:70:2+.wav
182,192,44722,1,0,0:0:0:70:L5-.wav
256,192,44803,1,0,0:0:0:70:5.wav
475,192,44884,1,0,0:0:0:70:2#++.wav
36,192,44884,1,0,0:0:0:70:L5--.wav
402,192,45046,1,0,0:0:0:70:2++.wav
182,192,45046,1,0,0:0:0:70:L5#-.wav
329,192,45208,1,0,0:0:0:70:5#.wav
36,192,45208,1,0,0:0:0:70:L5#--.wav
475,192,45289,1,0,0:0:0:70:6#+.wav
182,192,45371,1,0,0:0:0:70:L5#-.wav
329,192,45452,1,0,0:0:0:70:5#.wav
402,192,45533,1,0,0:0:0:70:5+.wav
36,192,45533,1,0,0:0:0:70:L5#--.wav
329,192,45695,1,0,0:0:0:70:5#.wav
182,192,45695,1,0,0:0:0:70:L5#-.wav
402,192,45776,1,0,0:0:0:70:5+.wav
36,192,45857,1,0,0:0:0:70:L5#--.wav
329,192,45938,1,0,0:0:0:70:5#.wav
475,192,46019,1,0,0:0:0:70:1++.wav
182,192,46019,1,0,0:0:0:70:L5#-.wav
329,192,46100,5,0,0:0:0:70:5#.wav
475,192,46181,1,0,0:0:0:70:6#+.wav
36,192,46181,1,0,0:0:0:70:L5#--.wav
329,192,46262,1,0,0:0:0:70:5#.wav
402,192,46344,1,0,0:0:0:70:5#+.wav
182,192,46344,1,0,0:0:0:70:L5-.wav
36,192,46506,1,0,0:0:0:70:L5--.wav
256,192,46506,1,0,0:0:0:70:5.wav
475,192,46587,1,0,0:0:0:70:5#+.wav
182,192,46668,1,0,0:0:0:70:L5-.wav
329,192,46749,1,0,0:0:0:70:5.wav
36,192,46830,1,0,0:0:0:70:L5--.wav
475,192,46830,1,0,0:0:0:70:5+.wav
329,192,46952,1,0,0:0:0:70:5.wav
182,192,46992,1,0,0:0:0:70:L5-.wav
402,192,47033,1,0,0:0:0:70:4+.wav
36,192,47154,1,0,0:0:0:70:L5--.wav
329,192,47195,1,0,0:0:0:70:5.wav
402,192,47276,1,0,0:0:0:70:5+.wav
182,192,47317,1,0,0:0:0:70:L5-.wav
475,192,47479,1,0,0:0:0:70:6#+.wav
36,192,47479,1,0,0:0:0:70:L5--.wav
402,192,47641,1,0,0:0:0:70:1.wav
475,192,47641,1,0,0:0:0:70:5-.wav
329,192,47641,1,0,0:0:0:70:2#-.wav
182,192,47641,1,0,0:0:0:70:L5--.wav
109,192,47641,1,0,0:0:0:70:L1-.wav
36,192,47641,1,0,0:0:0:70:L1--.wav
402,192,47965,1,0,0:0:0:70:2#+.wav
182,192,48127,1,0,0:0:0:70:1.wav
329,192,48289,1,0,0:0:0:70:2+.wav
182,192,48452,1,0,0:0:0:70:1.wav
402,192,48614,1,0,0:0:0:70:2#+.wav
475,192,48776,1,0,0:0:0:70:6#+.wav
182,192,49100,1,0,0:0:0:70:1.wav
402,192,49262,1,0,0:0:0:70:2#+.wav
182,192,49425,1,0,0:0:0:70:1.wav
329,192,49587,1,0,0:0:0:70:2+.wav
182,192,49749,1,0,0:0:0:70:1.wav
402,192,49911,1,0,0:0:0:70:2#+.wav
109,192,49911,1,0,0:0:0:70:L1-.wav
256,192,49911,1,0,0:0:0:70:L5--.wav
36,192,49911,1,0,0:0:0:70:L1--.wav
475,192,50073,1,0,0:0:0:70:6#+.wav
256,192,50235,1,0,0:0:0:70:L5--.wav
36,192,50235,1,0,0:0:0:70:L1--.wav
109,192,50235,1,0,0:0:0:70:L1-.wav
329,192,50398,1,0,0:0:0:70:1.wav
402,192,50560,1,0,0:0:0:70:2#+.wav
109,192,50560,1,0,0:0:0:70:L1--.wav
36,192,50560,1,0,0:0:0:70:L1-.wav
256,192,50560,1,0,0:0:0:70:L5--.wav
182,192,50722,1,0,0:0:0:70:1.wav
329,192,50884,1,0,0:0:0:70:2+.wav
182,192,51046,1,0,0:0:0:70:1.wav
402,192,51208,1,0,0:0:0:70:2#+.wav
475,192,51371,1,0,0:0:0:70:6#+.wav
182,192,51695,1,0,0:0:0:70:1.wav
402,192,51857,1,0,0:0:0:70:2#+.wav
182,192,52019,1,0,0:0:0:70:1.wav
329,192,52181,1,0,0:0:0:70:2+.wav
182,192,52344,1,0,0:0:0:70:1.wav
402,192,52506,1,0,0:0:0:70:2#+.wav
256,192,52506,1,0,0:0:0:70:L5--.wav
36,192,52506,1,0,0:0:0:70:L1--.wav
109,192,52506,1,0,0:0:0:70:L1-.wav
475,192,52668,1,0,0:0:0:70:6#+.wav
36,192,52830,1,0,0:0:0:70:L1--.wav
109,192,52830,1,0,0:0:0:70:L1-.wav
256,192,52830,1,0,0:0:0:70:L5--.wav
182,192,52992,1,0,0:0:0:70:1.wav
329,192,53154,1,0,0:0:0:70:2#+.wav
475,192,53317,1,0,0:0:0:70:6#+.wav
402,192,53317,1,0,0:0:0:70:6#.wav
182,192,53641,1,0,0:0:0:70:1.wav
329,192,53803,1,0,0:0:0:70:2#+.wav
256,192,53803,1,0,0:0:0:70:L5--.wav
36,192,53803,1,0,0:0:0:70:L1-.wav
109,192,53803,1,0,0:0:0:70:L1--.wav
475,192,53965,1,0,0:0:0:70:6#+.wav
402,192,53965,1,0,0:0:0:70:6#.wav
109,192,54127,1,0,0:0:0:70:L1-.wav
36,192,54127,1,0,0:0:0:70:L1--.wav
256,192,54127,1,0,0:0:0:70:L5--.wav
182,192,54289,1,0,0:0:0:70:1.wav
329,192,54452,1,0,0:0:0:70:2#+.wav
402,192,54614,1,0,0:0:0:70:6#.wav
475,192,54614,1,0,0:0:0:70:6#+.wav
256,192,54938,1,0,0:0:0:70:1.wav
329,192,55100,1,0,0:0:0:70:2#+.wav
182,192,55100,1,0,0:0:0:70:L5--.wav
36,192,55100,1,0,0:0:0:70:L1--.wav
109,192,55100,1,0,0:0:0:70:L1-.wav
402,192,55262,1,0,0:0:0:70:6#+.wav
475,192,55262,1,0,0:0:0:70:6#.wav
475,192,55425,1,0,0:0:0:70:6#+.wav
109,192,55425,1,0,0:0:0:70:L1-.wav
36,192,55425,1,0,0:0:0:70:L1--.wav
256,192,55425,1,0,0:0:0:70:L5--.wav
475,192,55749,1,0,0:0:0:70:6#+.wav
475,192,56073,1,0,0:0:0:70:6#+.wav
256,192,56073,1,0,0:0:0:70:L5--.wav
36,192,56073,1,0,0:0:0:70:L1--.wav
182,192,56073,1,0,0:0:0:70:L1-.wav
475,192,56398,1,0,0:0:0:70:6#+.wav
475,192,56722,1,0,0:0:0:70:6#+.wav
182,192,56722,1,0,0:0:0:70:L1-.wav
36,192,56722,1,0,0:0:0:70:L1--.wav
256,192,56722,1,0,0:0:0:70:L5--.wav
475,192,57046,1,0,0:0:0:70:6#+.wav
475,192,57371,1,0,0:0:0:70:6#+.wav
182,192,57371,1,0,0:0:0:70:L5--.wav
36,192,57371,1,0,0:0:0:70:L1--.wav
256,192,57371,1,0,0:0:0:70:L1-.wav
475,192,57695,1,0,0:0:0:70:6#+.wav
475,192,58019,1,0,0:0:0:70:6#+.wav
256,192,58019,1,0,0:0:0:70:L1-.wav
36,192,58019,1,0,0:0:0:70:L1--.wav
182,192,58019,1,0,0:0:0:70:L5--.wav
475,192,58181,1,0,0:0:0:70:6#+.wav
475,192,58344,1,0,0:0:0:70:6#+.wav
475,192,58506,1,0,0:0:0:70:6#+.wav
475,192,58668,1,0,0:0:0:70:6#+.wav
475,192,58830,1,0,0:0:0:70:6#+.wav
475,192,58992,1,0,0:0:0:70:6#+.wav
36,192,59154,1,0,0:0:0:70:1++.wav
182,192,59317,1,0,0:0:0:70:2++.wav
182,192,59398,1,0,0:0:0:70:2++.wav
329,192,59479,1,0,0:0:0:70:2#++.wav
329,192,59560,1,0,0:0:0:70:2#++.wav
36,192,59641,1,0,0:0:0:70:4++.wav
182,192,59722,1,0,0:0:0:70:5++.wav
182,192,59803,1,0,0:0:0:70:5++.wav
475,192,59884,1,0,0:0:0:70:5#++.wav
475,192,59965,1,0,0:0:0:70:5#++.wav
475,192,60046,1,0,0:0:0:70:5#++.wav
36,192,60127,1,0,0:0:0:70:6#+.wav
36,192,60208,1,0,0:0:0:70:6#+.wav
182,192,60289,1,0,0:0:0:70:1++.wav
329,192,60371,1,0,0:0:0:70:2++.wav
329,192,60452,1,0,0:0:0:70:2++.wav
475,192,60533,1,0,0:0:0:70:2#++.wav
475,192,60614,1,0,0:0:0:70:2#++.wav
36,192,61019,1,0,0:0:0:70:L1--.wav
109,192,61019,1,0,0:0:0:70:L2--.wav
182,192,61100,1,0,0:0:0:70:L2#--.wav
256,192,61100,1,0,0:0:0:70:L4--.wav
329,192,61100,1,0,0:0:0:70:L5--.wav
402,192,61100,1,0,0:0:0:70:L5#--.wav
36,192,61181,1,0,0:0:0:70:L1-.wav
475,192,61181,1,0,0:0:0:70:L2-.wav
109,192,61181,1,0,0:0:0:70:L6#--.wav
329,192,61262,1,0,0:0:0:70:L2#-.wav
256,192,61262,1,0,0:0:0:70:L4-.wav
402,192,61262,1,0,0:0:0:70:L5-.wav
182,192,61344,1,0,0:0:0:70:1.wav
475,192,61344,1,0,0:0:0:70:2.wav
36,192,61344,1,0,0:0:0:70:L5#-.wav
109,192,61344,1,0,0:0:0:70:L6#-.wav
256,192,61425,1,0,0:0:0:70:4.wav
329,192,61425,1,0,0:0:0:70:5.wav
402,192,61425,1,0,0:0:0:70:2#.wav
36,192,61506,1,0,0:0:0:70:5#.wav
109,192,61506,1,0,0:0:0:70:1+.wav
182,192,61506,1,0,0:0:0:70:6#.wav
402,192,61587,1,0,0:0:0:70:2+.wav
329,192,61587,1,0,0:0:0:70:2#+.wav
256,192,61587,1,0,0:0:0:70:5+.wav
182,192,61668,1,0,0:0:0:70:6#+.wav
109,192,61668,1,0,0:0:0:70:5#+.wav
475,192,61668,1,0,0:0:0:70:1++.wav
36,192,61668,1,0,0:0:0:70:4+.wav
402,192,61749,1,0,0:0:0:70:2++.wav
475,192,61830,1,0,0:0:0:70:2#++.wav
329,192,61911,1,0,0:0:0:70:1+.wav
36,192,61911,1,0,0:0:0:70:L5#--.wav
182,192,61992,1,0,0:0:0:70:5#.wav
329,192,62073,1,0,0:0:0:70:1+.wav
182,192,62154,1,0,0:0:0:70:5#.wav
402,192,62235,1,0,0:0:0:70:2#+.wav
329,192,62357,1,0,0:0:0:70:1+.wav
475,192,62479,1,0,0:0:0:70:5#+.wav
36,192,62560,1,0,0:0:0:70:L5#--.wav
109,192,62560,1,0,0:0:0:70:L1-.wav
256,192,62641,1,0,0:0:0:70:5#.wav
402,192,62722,1,0,0:0:0:70:5#+.wav
402,192,62803,1,0,0:0:0:70:5#+.wav
256,192,62884,1,0,0:0:0:70:5#.wav
402,192,63046,1,0,0:0:0:70:5+.wav
475,192,63208,1,0,0:0:0:70:1+.wav
36,192,63208,1,0,0:0:0:70:L1#--.wav
182,192,63371,1,0,0:0:0:70:L1#-.wav
329,192,63371,1,0,0:0:0:70:5#.wav
475,192,63452,1,0,0:0:0:70:3+.wav
36,192,63533,1,0,0:0:0:70:L1#--.wav
402,192,63614,1,0,0:0:0:70:1#+.wav
475,192,63695,1,0,0:0:0:70:2#+.wav
182,192,63695,1,0,0:0:0:70:L1#-.wav
329,192,63857,1,0,0:0:0:70:5#.wav
36,192,63857,1,0,0:0:0:70:L1#--.wav
402,192,63938,1,0,0:0:0:70:1#+.wav
109,192,64019,1,0,0:0:0:70:L1#-.wav
256,192,64100,1,0,0:0:0:70:5#.wav
329,192,64181,1,0,0:0:0:70:3+.wav
36,192,64181,1,0,0:0:0:70:L1#--.wav
402,192,64262,1,0,0:0:0:70:1#+.wav
109,192,64344,1,0,0:0:0:70:L1#-.wav
475,192,64344,1,0,0:0:0:70:5#+.wav
402,192,64425,1,0,0:0:0:70:1#+.wav
475,192,64506,1,0,0:0:0:70:7+.wav
182,192,64506,1,0,0:0:0:70:L6-.wav
329,192,64668,1,0,0:0:0:70:6.wav
36,192,64668,1,0,0:0:0:70:L6--.wav
475,192,64749,1,0,0:0:0:70:3+.wav
182,192,64830,1,0,0:0:0:70:L6-.wav
256,192,64911,1,0,0:0:0:70:6.wav
402,192,64992,1,0,0:0:0:70:2#+.wav
36,192,64992,1,0,0:0:0:70:L6--.wav
329,192,65154,1,0,0:0:0:70:6.wav
182,192,65154,1,0,0:0:0:70:L6-.wav
475,192,65235,1,0,0:0:0:70:3+.wav
36,192,65317,1,0,0:0:0:70:L6--.wav
256,192,65398,1,0,0:0:0:70:6.wav
402,192,65479,1,0,0:0:0:70:7+.wav
109,192,65479,1,0,0:0:0:70:L6-.wav
329,192,65560,1,0,0:0:0:70:6.wav
475,192,65641,1,0,0:0:0:70:1#++.wav
36,192,65641,1,0,0:0:0:70:L6--.wav
402,192,65803,1,0,0:0:0:70:7+.wav
182,192,65803,1,0,0:0:0:70:L7-.wav
329,192,65965,1,0,0:0:0:70:7.wav
36,192,65965,1,0,0:0:0:70:L7--.wav
402,192,66046,1,0,0:0:0:70:4#+.wav
182,192,66127,1,0,0:0:0:70:L7-.wav
329,192,66208,1,0,0:0:0:70:7.wav
475,192,66289,1,0,0:0:0:70:6+.wav
109,192,66289,1,0,0:0:0:70:L7--.wav
329,192,66452,1,0,0:0:0:70:7.wav
36,192,66452,1,0,0:0:0:70:L1#--.wav
475,192,66533,1,0,0:0:0:70:6+.wav
109,192,66614,1,0,0:0:0:70:L1#-.wav
256,192,66695,1,0,0:0:0:70:1#+.wav
475,192,66776,1,0,0:0:0:70:5#+.wav
36,192,66776,1,0,0:0:0:70:L1#--.wav
256,192,66857,1,0,0:0:0:70:1#+.wav
402,192,66938,1,0,0:0:0:70:4#+.wav
109,192,66938,1,0,0:0:0:70:L1#-.wav
256,192,67019,1,0,0:0:0:70:1#+.wav
402,192,67100,1,0,0:0:0:70:4#+.wav
36,192,67100,1,0,0:0:0:70:L1#--.wav
256,192,67262,1,0,0:0:0:70:1#+.wav
109,192,67262,1,0,0:0:0:70:L1#-.wav
475,192,67344,1,0,0:0:0:70:5#+.wav
36,192,67425,1,0,0:0:0:70:L1#--.wav
256,192,67506,1,0,0:0:0:70:1#+.wav
109,192,67587,1,0,0:0:0:70:L1#-.wav
402,192,67587,1,0,0:0:0:70:3+.wav
256,192,67749,1,0,0:0:0:70:1#+.wav
36,192,67749,1,0,0:0:0:70:L1#--.wav
402,192,67830,1,0,0:0:0:70:3+.wav
109,192,67911,1,0,0:0:0:70:L1#-.wav
256,192,67992,1,0,0:0:0:70:1#+.wav
329,192,68073,1,0,0:0:0:70:2#+.wav
36,192,68073,1,0,0:0:0:70:L1#--.wav
256,192,68154,1,0,0:0:0:70:1#+.wav
329,192,68235,1,0,0:0:0:70:3+.wav
109,192,68235,1,0,0:0:0:70:L1#-.wav
402,192,68317,1,0,0:0:0:70:5#+.wav
475,192,68398,1,0,0:0:0:70:7+.wav
182,192,68398,1,0,0:0:0:70:L4#-.wav
329,192,68560,1,0,0:0:0:70:1#+.wav
36,192,68560,1,0,0:0:0:70:L4#--.wav
475,192,68641,1,0,0:0:0:70:3+.wav
182,192,68722,1,0,0:0:0:70:L4#-.wav
329,192,68803,1,0,0:0:0:70:1#+.wav
402,192,68884,1,0,0:0:0:70:2#+.wav
36,192,68884,1,0,0:0:0:70:L4#--.wav
329,192,69046,1,0,0:0:0:70:1#+.wav
182,192,69046,1,0,0:0:0:70:L4#-.wav
475,192,69127,1,0,0:0:0:70:3+.wav
36,192,69208,1,0,0:0:0:70:L4#--.wav
329,192,69289,1,0,0:0:0:70:1#+.wav
402,192,69371,1,0,0:0:0:70:7+.wav
182,192,69371,1,0,0:0:0:70:L4#-.wav
329,192,69452,1,0,0:0:0:70:1#+.wav
475,192,69533,1,0,0:0:0:70:1#++.wav
36,192,69533,1,0,0:0:0:70:L4#--.wav
402,192,69695,1,0,0:0:0:70:7+.wav
109,192,69695,1,0,0:0:0:70:L5#-.wav
256,192,69857,1,0,0:0:0:70:5#.wav
36,192,69857,1,0,0:0:0:70:L5#--.wav
475,192,69938,1,0,0:0:0:70:5#+.wav
109,192,70019,1,0,0:0:0:70:L5#-.wav
256,192,70100,1,0,0:0:0:70:5#.wav
402,192,70181,1,0,0:0:0:70:3+.wav
36,192,70181,1,0,0:0:0:70:L5#--.wav
256,192,70344,1,0,0:0:0:70:5#.wav
109,192,70344,1,0,0:0:0:70:L5#-.wav
402,192,70425,1,0,0:0:0:70:3+.wav
36,192,70506,1,0,0:0:0:70:L5#--.wav
256,192,70587,1,0,0:0:0:70:5#.wav
329,192,70668,1,0,0:0:0:70:2#+.wav
109,192,70668,1,0,0:0:0:70:L5#-.wav
256,192,70749,1,0,0:0:0:70:5#.wav
475,192,70830,1,0,0:0:0:70:3++.wav
36,192,70830,1,0,0:0:0:70:L5#--.wav
402,192,70992,1,0,0:0:0:70:2#++.wav
182,192,70992,1,0,0:0:0:70:L6-.wav
329,192,71154,1,0,0:0:0:70:6.wav
36,192,71154,1,0,0:0:0:70:L6--.wav
402,192,71235,1,0,0:0:0:70:7.wav
182,192,71317,1,0,0:0:0:70:L6-.wav
329,192,71398,1,0,0:0:0:70:6.wav
475,192,71479,1,0,0:0:0:70:5#+.wav
36,192,71479,1,0,0:0:0:70:L6--.wav
329,192,71641,1,0,0:0:0:70:6.wav
182,192,71641,1,0,0:0:0:70:L6-.wav
475,192,71722,1,0,0:0:0:70:5#+.wav
36,192,71803,1,0,0:0:0:70:L6--.wav
256,192,71884,1,0,0:0:0:70:6.wav
182,192,71965,1,0,0:0:0:70:L6-.wav
402,192,71965,1,0,0:0:0:70:1#++.wav
329,192,72046,1,0,0:0:0:70:6.wav
475,192,72127,1,0,0:0:0:70:7+.wav
36,192,72127,1,0,0:0:0:70:L6--.wav
182,192,72208,1,0,0:0:0:70:6.wav
402,192,72289,1,0,0:0:0:70:6+.wav
256,192,72289,1,0,0:0:0:70:L5#-.wav
329,192,72452,1,0,0:0:0:70:5#.wav
182,192,72452,1,0,0:0:0:70:L2#--.wav
36,192,72452,1,0,0:0:0:70:L5#--.wav
475,192,72533,1,0,0:0:0:70:6+.wav
36,192,72614,1,0,0:0:0:70:L5#--.wav
182,192,72614,1,0,0:0:0:70:L2#--.wav
329,192,72695,1,0,0:0:0:70:5#.wav
475,192,72776,1,0,0:0:0:70:5#+.wav
182,192,72776,1,0,0:0:0:70:L2#--.wav
256,192,72938,1,0,0:0:0:70:5#.wav
402,192,73019,1,0,0:0:0:70:4#+.wav
36,192,73100,1,0,0:0:0:70:L1#-.wav
182,192,73100,1,0,0:0:0:70:L1#--.wav
329,192,73181,1,0,0:0:0:70:5#.wav
475,192,73262,1,0,0:0:0:70:5#+.wav
36,192,73262,1,0,0:0:0:70:L1#-.wav
182,192,73262,1,0,0:0:0:70:L1#--.wav
36,192,73425,1,0,0:0:0:70:L5#-.wav
182,192,73425,1,0,0:0:0:70:L5#--.wav
475,192,73425,1,0,0:0:0:70:7+.wav
402,192,73587,1,0,0:0:0:70:1#+.wav
109,192,73587,1,0,0:0:0:70:L1#--.wav
329,192,73749,1,0,0:0:0:70:5#.wav
182,192,73749,1,0,0:0:0:70:L1#-.wav
475,192,73830,1,0,0:0:0:70:3+.wav
36,192,73911,1,0,0:0:0:70:L1#--.wav
256,192,73992,1,0,0:0:0:70:1#+.wav
402,192,74073,1,0,0:0:0:70:2#+.wav
109,192,74073,1,0,0:0:0:70:L1#-.wav
329,192,74235,1,0,0:0:0:70:5#.wav
36,192,74235,1,0,0:0:0:70:L1#--.wav
402,192,74317,1,0,0:0:0:70:1#+.wav
109,192,74398,1,0,0:0:0:70:L1#-.wav
256,192,74479,1,0,0:0:0:70:5#.wav
402,192,74560,1,0,0:0:0:70:3+.wav
36,192,74560,1,0,0:0:0:70:L1#--.wav
329,192,74641,1,0,0:0:0:70:1#+.wav
109,192,74722,1,0,0:0:0:70:L1#-.wav
475,192,74722,1,0,0:0:0:70:5#+.wav
402,192,74803,1,0,0:0:0:70:1#+.wav
475,192,74884,1,0,0:0:0:70:7+.wav
182,192,74884,1,0,0:0:0:70:L6-.wav
256,192,75046,1,0,0:0:0:70:6.wav
36,192,75046,1,0,0:0:0:70:L6--.wav
402,192,75127,1,0,0:0:0:70:3+.wav
182,192,75208,1,0,0:0:0:70:L6-.wav
329,192,75289,1,0,0:0:0:70:6.wav
475,192,75371,1,0,0:0:0:70:2#+.wav
36,192,75371,1,0,0:0:0:70:L6--.wav
402,192,75533,1,0,0:0:0:70:6.wav
182,192,75533,1,0,0:0:0:70:L6-.wav
475,192,75614,1,0,0:0:0:70:3+.wav
36,192,75695,1,0,0:0:0:70:L6--.wav
329,192,75776,1,0,0:0:0:70:6.wav
402,192,75857,1,0,0:0:0:70:7+.wav
109,192,75857,1,0,0:0:0:70:L6-.wav
329,192,75938,1,0,0:0:0:70:6.wav
475,192,76019,1,0,0:0:0:70:1#++.wav
36,192,76019,1,0,0:0:0:70:L6--.wav
402,192,76181,1,0,0:0:0:70:7+.wav
182,192,76181,1,0,0:0:0:70:L7-.wav
256,192,76344,1,0,0:0:0:70:7.wav
36,192,76344,1,0,0:0:0:70:L7--.wav
402,192,76425,1,0,0:0:0:70:4#+.wav
182,192,76506,1,0,0:0:0:70:L7-.wav
329,192,76587,1,0,0:0:0:70:7.wav
475,192,76668,1,0,0:0:0:70:6+.wav
36,192,76668,1,0,0:0:0:70:L7--.wav
329,192,76830,1,0,0:0:0:70:7.wav
182,192,76830,1,0,0:0:0:70:L7-.wav
475,192,76911,1,0,0:0:0:70:6+.wav
36,192,76992,1,0,0:0:0:70:L7--.wav
256,192,77073,1,0,0:0:0:70:1#+.wav
475,192,77154,1,0,0:0:0:70:5#+.wav
182,192,77154,1,0,0:0:0:70:L7-.wav
329,192,77235,1,0,0:0:0:70:1#+.wav
402,192,77317,1,0,0:0:0:70:4#+.wav
109,192,77317,1,0,0:0:0:70:L7--.wav
329,192,77398,1,0,0:0:0:70:1#+.wav
402,192,77479,1,0,0:0:0:70:4#+.wav
36,192,77479,1,0,0:0:0:70:L1#--.wav
329,192,77641,1,0,0:0:0:70:1#+.wav
182,192,77641,1,0,0:0:0:70:L1#-.wav
475,192,77722,1,0,0:0:0:70:5#+.wav
36,192,77803,1,0,0:0:0:70:L1#--.wav
329,192,77884,1,0,0:0:0:70:1#+.wav
402,192,77965,1,0,0:0:0:70:3+.wav
182,192,77965,1,0,0:0:0:70:L1#-.wav
329,192,78127,1,0,0:0:0:70:1#+.wav
36,192,78127,1,0,0:0:0:70:L1#--.wav
402,192,78208,1,0,0:0:0:70:3+.wav
182,192,78289,1,0,0:0:0:70:L1#-.wav
256,192,78371,1,0,0:0:0:70:1#+.wav
329,192,78452,1,0,0:0:0:70:2#+.wav
36,192,78452,1,0,0:0:0:70:L1#--.wav
256,192,78533,1,0,0:0:0:70:1#+.wav
329,192,78614,1,0,0:0:0:70:3+.wav
109,192,78614,1,0,0:0:0:70:L1#-.wav
402,192,78695,1,0,0:0:0:70:5#+.wav
475,192,78776,1,0,0:0:0:70:7+.wav
182,192,78776,1,0,0:0:0:70:L4#-.wav
256,192,78938,1,0,0:0:0:70:1#+.wav
36,192,78938,1,0,0:0:0:70:L4#--.wav
402,192,79019,1,0,0:0:0:70:3+.wav
182,192,79100,1,0,0:0:0:70:L4#-.wav
329,192,79181,1,0,0:0:0:70:1#+.wav
475,192,79262,1,0,0:0:0:70:2#+.wav
36,192,79262,1,0,0:0:0:70:L4#--.wav
329,192,79425,1,0,0:0:0:70:1#+.wav
182,192,79425,1,0,0:0:0:70:L4#-.wav
475,192,79506,1,0,0:0:0:70:3+.wav
36,192,79587,1,0,0:0:0:70:L4#--.wav
329,192,79668,1,0,0:0:0:70:1#+.wav
402,192,79749,1,0,0:0:0:70:7+.wav
109,192,79749,1,0,0:0:0:70:L4#-.wav
329,192,79830,1,0,0:0:0:70:1#+.wav
475,192,79911,1,0,0:0:0:70:1#++.wav
36,192,79911,1,0,0:0:0:70:L4#--.wav
402,192,80073,1,0,0:0:0:70:7+.wav
182,192,80073,1,0,0:0:0:70:L5#-.wav
256,192,80235,1,0,0:0:0:70:5#.wav
36,192,80235,1,0,0:0:0:70:L5#--.wav
402,192,80317,1,0,0:0:0:70:5#+.wav
182,192,80398,1,0,0:0:0:70:L5#-.wav
329,192,80479,1,0,0:0:0:70:5#.wav
475,192,80560,1,0,0:0:0:70:3+.wav
36,192,80560,1,0,0:0:0:70:L5#--.wav
329,192,80722,1,0,0:0:0:70:5#.wav
182,192,80722,1,0,0:0:0:70:L5#-.wav
475,192,80803,1,0,0:0:0:70:3+.wav
36,192,80884,1,0,0:0:0:70:L5#--.wav
256,192,80965,1,0,0:0:0:70:5#.wav
402,192,81046,1,0,0:0:0:70:2#+.wav
182,192,81046,1,0,0:0:0:70:L5#-.wav
329,192,81127,1,0,0:0:0:70:5#.wav
36,192,81208,1,0,0:0:0:70:L5#--.wav
402,192,81208,1,0,0:0:0:70:3++.wav
475,192,81371,1,0,0:0:0:70:2#++.wav
182,192,81371,1,0,0:0:0:70:L6-.wav
329,192,81533,1,0,0:0:0:70:6.wav
109,192,81533,1,0,0:0:0:70:L6--.wav
402,192,81614,1,0,0:0:0:70:7.wav
182,192,81695,1,0,0:0:0:70:L6-.wav
329,192,81776,1,0,0:0:0:70:6.wav
475,192,81857,1,0,0:0:0:70:5#+.wav
109,192,81857,1,0,0:0:0:70:L6--.wav
329,192,82019,1,0,0:0:0:70:6.wav
182,192,82019,1,0,0:0:0:70:L6-.wav
475,192,82100,1,0,0:0:0:70:5#+.wav
109,192,82181,1,0,0:0:0:70:L6--.wav
256,192,82262,1,0,0:0:0:70:6.wav
402,192,82344,1,0,0:0:0:70:1#++.wav
182,192,82344,1,0,0:0:0:70:L6-.wav
329,192,82425,1,0,0:0:0:70:6.wav
475,192,82506,1,0,0:0:0:70:7+.wav
36,192,82506,1,0,0:0:0:70:L6--.wav
329,192,82587,1,0,0:0:0:70:6.wav
402,192,82668,1,0,0:0:0:70:6+.wav
109,192,82668,1,0,0:0:0:70:L5#-.wav
329,192,82830,1,0,0:0:0:70:5#.wav
36,192,82830,1,0,0:0:0:70:L5#--.wav
182,192,82830,1,0,0:0:0:70:L2#--.wav
475,192,82911,1,0,0:0:0:70:6+.wav
36,192,82992,1,0,0:0:0:70:L2#--.wav
182,192,82992,1,0,0:0:0:70:L5#--.wav
329,192,83073,1,0,0:0:0:70:5#.wav
402,192,83154,1,0,0:0:0:70:5#+.wav
36,192,83154,1,0,0:0:0:70:L2#--.wav
256,192,83317,1,0,0:0:0:70:5#.wav
402,192,83398,1,0,0:0:0:70:4#+.wav
36,192,83479,1,0,0:0:0:70:L1#-.wav
182,192,83479,1,0,0:0:0:70:L1#--.wav
329,192,83560,1,0,0:0:0:70:5#.wav
402,192,83641,1,0,0:0:0:70:5#+.wav
182,192,83641,1,0,0:0:0:70:L1#--.wav
36,192,83641,1,0,0:0:0:70:L1#-.wav
475,192,83803,1,0,0:0:0:70:7+.wav
36,192,83803,1,0,0:0:0:70:L5#-.wav
182,192,83803,1,0,0:0:0:70:L5#--.wav
256,192,84289,1,0,0:0:0:70:1#+.wav
36,192,84289,1,0,0:0:0:70:L1#--.wav
475,192,84289,1,0,0:0:0:70:3+.wav
36,192,84452,1,0,0:0:0:70:L1#--.wav
109,192,84614,1,0,0:0:0:70:L1#-.wav
256,192,84776,1,0,0:0:0:70:1#+.wav
36,192,84776,1,0,0:0:0:70:L1#--.wav
475,192,84938,1,0,0:0:0:70:3+.wav
329,192,84938,1,0,0:0:0:70:5#+.wav
109,192,84938,1,0,0:0:0:70:L1#-.wav
36,192,85100,1,0,0:0:0:70:L1#--.wav
256,192,85262,1,0,0:0:0:70:1#+.wav
402,192,85262,1,0,0:0:0:70:5#.wav
182,192,85262,1,0,0:0:0:70:L1#-.wav
109,192,85425,1,0,0:0:0:70:L6-.wav
36,192,85587,1,0,0:0:0:70:L6--.wav
182,192,85749,1,0,0:0:0:70:L6-.wav
329,192,85911,1,0,0:0:0:70:1#+.wav
402,192,85911,1,0,0:0:0:70:3+.wav
36,192,85911,1,0,0:0:0:70:L6--.wav
182,192,86073,1,0,0:0:0:70:L6-.wav
402,192,86235,1,0,0:0:0:70:3+.wav
475,192,86235,1,0,0:0:0:70:5#+.wav
36,192,86235,1,0,0:0:0:70:L6--.wav
109,192,86398,1,0,0:0:0:70:L6-.wav
475,192,86560,1,0,0:0:0:70:2#+.wav
329,192,86560,1,0,0:0:0:70:4#+.wav
36,192,86560,1,0,0:0:0:70:L6--.wav
256,192,86722,1,0,0:0:0:70:4#.wav
109,192,86722,1,0,0:0:0:70:L7-.wav
329,192,86884,1,0,0:0:0:70:2#+.wav
402,192,86884,1,0,0:0:0:70:7.wav
36,192,86884,1,0,0:0:0:70:L7--.wav
182,192,87046,1,0,0:0:0:70:L7-.wav
329,192,87208,1,0,0:0:0:70:4#+.wav
475,192,87208,1,0,0:0:0:70:2#+.wav
36,192,87208,1,0,0:0:0:70:L7--.wav
256,192,87371,1,0,0:0:0:70:5#.wav
109,192,87371,1,0,0:0:0:70:L1#-.wav
475,192,87533,1,0,0:0:0:70:3+.wav
329,192,87533,1,0,0:0:0:70:7.wav
36,192,87533,1,0,0:0:0:70:L1#--.wav
402,192,87695,1,0,0:0:0:70:2#+.wav
182,192,87695,1,0,0:0:0:70:L1#-.wav
329,192,87857,1,0,0:0:0:70:1#.wav
36,192,87857,1,0,0:0:0:70:L1#--.wav
475,192,88019,1,0,0:0:0:70:5#+.wav
402,192,88019,1,0,0:0:0:70:7+.wav
36,192,88019,1,0,0:0:0:70:L1#--.wav
256,192,88181,1,0,0:0:0:70:1#+.wav
109,192,88181,1,0,0:0:0:70:L1#-.wav
329,192,88344,1,0,0:0:0:70:5#+.wav
475,192,88344,1,0,0:0:0:70:3+.wav
36,192,88344,1,0,0:0:0:70:L1#--.wav
109,192,88506,1,0,0:0:0:70:L1#-.wav
402,192,88668,1,0,0:0:0:70:3+.wav
36,192,88668,1,0,0:0:0:70:L1#--.wav
329,192,88830,1,0,0:0:0:70:2#+.wav
109,192,88830,1,0,0:0:0:70:L1#-.wav
402,192,88992,1,0,0:0:0:70:3+.wav
36,192,88992,1,0,0:0:0:70:L1#--.wav
475,192,89154,1,0,0:0:0:70:7+.wav
256,192,89154,1,0,0:0:0:70:4#+.wav
109,192,89154,1,0,0:0:0:70:L1#-.wav
329,192,89317,1,0,0:0:0:70:1#.wav
182,192,89317,1,0,0:0:0:70:L4#-.wav
402,192,89479,1,0,0:0:0:70:4#.wav
36,192,89479,1,0,0:0:0:70:L4#--.wav
475,192,89641,1,0,0:0:0:70:6.wav
182,192,89641,1,0,0:0:0:70:L4#-.wav
402,192,89803,1,0,0:0:0:70:3++.wav
475,192,89803,1,0,0:0:0:70:1#++.wav
256,192,89803,1,0,0:0:0:70:3+.wav
36,192,89803,1,0,0:0:0:70:L4#--.wav
182,192,89965,1,0,0:0:0:70:L4#-.wav
36,192,90127,1,0,0:0:0:70:L4#--.wav
182,192,90289,1,0,0:0:0:70:L4#-.wav
256,192,90452,1,0,0:0:0:70:5#+.wav
475,192,90452,1,0,0:0:0:70:7+.wav
402,192,90452,1,0,0:0:0:70:7.wav
36,192,90452,1,0,0:0:0:70:L4#--.wav
329,192,90614,1,0,0:0:0:70:3.wav
182,192,90614,1,0,0:0:0:70:L5#-.wav
402,192,90776,1,0,0:0:0:70:5#.wav
36,192,90776,1,0,0:0:0:70:L5#--.wav
182,192,90938,1,0,0:0:0:70:L5#-.wav
329,192,91100,1,0,0:0:0:70:3.wav
256,192,91100,1,0,0:0:0:70:3+.wav
36,192,91100,1,0,0:0:0:70:L5#--.wav
182,192,91262,1,0,0:0:0:70:L5#-.wav
402,192,91425,1,0,0:0:0:70:4#+.wav
329,192,91425,1,0,0:0:0:70:4#.wav
36,192,91425,1,0,0:0:0:70:L5#--.wav
182,192,91587,1,0,0:0:0:70:L5#-.wav
256,192,91749,1,0,0:0:0:70:4#+.wav
329,192,91749,1,0,0:0:0:70:5#+.wav
475,192,91749,1,0,0:0:0:70:3+.wav
402,192,91749,1,0,0:0:0:70:7+.wav
36,192,91749,1,0,0:0:0:70:L5#--.wav
109,192,91911,1,0,0:0:0:70:L6-.wav
36,192,92073,1,0,0:0:0:70:L6--.wav
329,192,92235,1,0,0:0:0:70:5#+.wav
475,192,92235,1,0,0:0:0:70:7+.wav
182,192,92235,1,0,0:0:0:70:L6-.wav
36,192,92398,1,0,0:0:0:70:L6--.wav
182,192,92560,1,0,0:0:0:70:L6-.wav
475,192,92560,1,0,0:0:0:70:4#+.wav
36,192,92722,1,0,0:0:0:70:L6--.wav
402,192,92722,1,0,0:0:0:70:3+.wav
329,192,92884,1,0,0:0:0:70:2#+.wav
109,192,92884,1,0,0:0:0:70:L6-.wav
402,192,93046,1,0,0:0:0:70:1#+.wav
36,192,93046,1,0,0:0:0:70:L5#-.wav
182,192,93046,1,0,0:0:0:70:L5#--.wav
329,192,93127,1,0,0:0:0:70:5#.wav
402,192,93208,1,0,0:0:0:70:1#+.wav
36,192,93208,1,0,0:0:0:70:L5#-.wav
182,192,93208,1,0,0:0:0:70:L5#--.wav
329,192,93289,1,0,0:0:0:70:5#.wav
475,192,93371,1,0,0:0:0:70:2#+.wav
182,192,93371,1,0,0:0:0:70:L5#--.wav
36,192,93371,1,0,0:0:0:70:L5#-.wav
402,192,93533,1,0,0:0:0:70:1#+.wav
36,192,93533,1,0,0:0:0:70:L5#-.wav
182,192,93533,1,0,0:0:0:70:L5#--.wav
475,192,93614,1,0,0:0:0:70:6+.wav
182,192,93695,1,0,0:0:0:70:L5#--.wav
36,192,93695,1,0,0:0:0:70:L5#-.wav
329,192,93776,1,0,0:0:0:70:5#.wav
475,192,93857,1,0,0:0:0:70:6+.wav
36,192,93857,1,0,0:0:0:70:L5#-.wav
182,192,93857,1,0,0:0:0:70:L5#--.wav
329,192,93938,1,0,0:0:0:70:5#.wav
402,192,94019,1,0,0:0:0:70:5#+.wav
182,192,94019,1,0,0:0:0:70:L5#--.wav
36,192,94019,1,0,0:0:0:70:L5#-.wav
182,192,94181,1,0,0:0:0:70:L5#--.wav
36,192,94181,1,0,0:0:0:70:L5#-.wav
329,192,94181,1,0,0:0:0:70:4#+.wav
475,192,94668,1,0,0:0:0:70:3+.wav
36,192,94668,1,0,0:0:0:70:L1#--.wav
329,192,94749,1,0,0:0:0:70:1#+.wav
402,192,94830,1,0,0:0:0:70:2#+.wav
182,192,94830,1,0,0:0:0:70:L1#-.wav
109,192,94830,1,0,0:0:0:70:L5#--.wav
256,192,94992,1,0,0:0:0:70:5#.wav
36,192,94992,1,0,0:0:0:70:L1#--.wav
402,192,95073,1,0,0:0:0:70:1#+.wav
109,192,95154,1,0,0:0:0:70:L5#--.wav
182,192,95154,1,0,0:0:0:70:L1#-.wav
256,192,95235,1,0,0:0:0:70:5#.wav
402,192,95317,1,0,0:0:0:70:3+.wav
36,192,95317,1,0,0:0:0:70:L1#--.wav
329,192,95398,1,0,0:0:0:70:1#+.wav
402,192,95479,1,0,0:0:0:70:5#+.wav
182,192,95479,1,0,0:0:0:70:L1#-.wav
109,192,95479,1,0,0:0:0:70:L5#--.wav
329,192,95560,1,0,0:0:0:70:1#+.wav
475,192,95641,1,0,0:0:0:70:7+.wav
256,192,95641,1,0,0:0:0:70:L6-.wav
329,192,95803,1,0,0:0:0:70:6.wav
182,192,95803,1,0,0:0:0:70:L3--.wav
36,192,95803,1,0,0:0:0:70:L6--.wav
475,192,95884,1,0,0:0:0:70:3+.wav
256,192,95965,1,0,0:0:0:70:L6-.wav
329,192,96046,1,0,0:0:0:70:6.wav
402,192,96127,1,0,0:0:0:70:2#+.wav
182,192,96127,1,0,0:0:0:70:L3--.wav
36,192,96127,1,0,0:0:0:70:L6--.wav
329,192,96289,1,0,0:0:0:70:6.wav
256,192,96289,1,0,0:0:0:70:L6-.wav
475,192,96371,1,0,0:0:0:70:3+.wav
36,192,96452,1,0,0:0:0:70:L6--.wav
182,192,96452,1,0,0:0:0:70:L3--.wav
329,192,96533,1,0,0:0:0:70:6.wav
402,192,96614,1,0,0:0:0:70:7+.wav
109,192,96614,1,0,0:0:0:70:L6-.wav
329,192,96695,1,0,0:0:0:70:6.wav
475,192,96776,1,0,0:0:0:70:1#++.wav
182,192,96776,1,0,0:0:0:70:L3--.wav
36,192,96776,1,0,0:0:0:70:L6--.wav
402,192,96938,1,0,0:0:0:70:7+.wav
256,192,96938,1,0,0:0:0:70:L7-.wav
329,192,97100,1,0,0:0:0:70:7.wav
36,192,97100,1,0,0:0:0:70:L4#--.wav
109,192,97100,1,0,0:0:0:70:L7--.wav
402,192,97181,1,0,0:0:0:70:4#+.wav
182,192,97262,1,0,0:0:0:70:L7-.wav
329,192,97344,1,0,0:0:0:70:7.wav
256,192,97425,1,0,0:0:0:70:L7--.wav
109,192,97425,1,0,0:0:0:70:L4#--.wav
475,192,97425,1,0,0:0:0:70:6+.wav
329,192,97587,1,0,0:0:0:70:7.wav
36,192,97587,1,0,0:0:0:70:L1#--.wav
475,192,97668,1,0,0:0:0:70:6+.wav
182,192,97749,1,0,0:0:0:70:L1#-.wav
109,192,97749,1,0,0:0:0:70:L5#--.wav
329,192,97830,1,0,0:0:0:70:1#+.wav
475,192,97911,1,0,0:0:0:70:5#+.wav
36,192,97911,1,0,0:0:0:70:L1#--.wav
329,192,97992,1,0,0:0:0:70:1#+.wav
402,192,98073,1,0,0:0:0:70:4#+.wav
109,192,98073,1,0,0:0:0:70:L1#-.wav
182,192,98073,1,0,0:0:0:70:L5#--.wav
329,192,98154,1,0,0:0:0:70:1#+.wav
402,192,98235,1,0,0:0:0:70:4#+.wav
36,192,98235,1,0,0:0:0:70:L1#--.wav
182,192,98398,1,0,0:0:0:70:L5#--.wav
109,192,98398,1,0,0:0:0:70:L1#-.wav
329,192,98398,1,0,0:0:0:70:1#+.wav
475,192,98479,1,0,0:0:0:70:5#+.wav
36,192,98560,1,0,0:0:0:70:L1#--.wav
329,192,98641,1,0,0:0:0:70:1#+.wav
402,192,98722,1,0,0:0:0:70:3+.wav
109,192,98722,1,0,0:0:0:70:L1#-.wav
182,192,98722,1,0,0:0:0:70:L5#--.wav
329,192,98884,1,0,0:0:0:70:1#+.wav
36,192,98884,1,0,0:0:0:70:L1#--.wav
475,192,98965,1,0,0:0:0:70:3+.wav
182,192,99046,1,0,0:0:0:70:L5#--.wav
109,192,99046,1,0,0:0:0:70:L1#-.wav
329,192,99127,1,0,0:0:0:70:1#+.wav
329,192,99208,1,0,0:0:0:70:1#+.wav
36,192,99208,1,0,0:0:0:70:L1#--.wav
329,192,99289,1,0,0:0:0:70:1#+.wav
109,192,99371,1,0,0:0:0:70:L1#-.wav
182,192,99371,1,0,0:0:0:70:L5#--.wav
329,192,99371,1,0,0:0:0:70:3+.wav
402,192,99452,1,0,0:0:0:70:5#+.wav
475,192,99533,1,0,0:0:0:70:7+.wav
256,192,99533,1,0,0:0:0:70:L4#-.wav
329,192,99695,1,0,0:0:0:70:1#+.wav
36,192,99695,1,0,0:0:0:70:L1#--.wav
182,192,99695,1,0,0:0:0:70:L4#--.wav
402,192,99776,1,0,0:0:0:70:3+.wav
256,192,99857,1,0,0:0:0:70:L4#-.wav
329,192,99938,1,0,0:0:0:70:1#+.wav
475,192,100019,1,0,0:0:0:70:2#+.wav
36,192,100019,1,0,0:0:0:70:L4#--.wav
182,192,100019,1,0,0:0:0:70:L1#--.wav
402,192,100181,1,0,0:0:0:70:1#+.wav
256,192,100181,1,0,0:0:0:70:L4#-.wav
475,192,100262,1,0,0:0:0:70:3+.wav
36,192,100344,1,0,0:0:0:70:L4#--.wav
182,192,100344,1,0,0:0:0:70:L1#--.wav
329,192,100425,1,0,0:0:0:70:1#+.wav
402,192,100506,1,0,0:0:0:70:7+.wav
109,192,100506,1,0,0:0:0:70:L4#-.wav
329,192,100587,1,0,0:0:0:70:1#+.wav
475,192,100668,1,0,0:0:0:70:1#++.wav
36,192,100668,1,0,0:0:0:70:L4#--.wav
182,192,100668,1,0,0:0:0:70:L1#--.wav
475,192,100830,1,0,0:0:0:70:7+.wav
256,192,100830,1,0,0:0:0:70:L5#-.wav
329,192,100992,1,0,0:0:0:70:5#.wav
109,192,100992,1,0,0:0:0:70:L2#--.wav
182,192,100992,1,0,0:0:0:70:L5#--.wav
475,192,101073,1,0,0:0:0:70:5#+.wav
256,192,101154,1,0,0:0:0:70:L5#-.wav
329,192,101235,1,0,0:0:0:70:5#.wav
109,192,101317,1,0,0:0:0:70:L2#--.wav
182,192,101317,1,0,0:0:0:70:L5#--.wav
402,192,101317,1,0,0:0:0:70:3+.wav
329,192,101479,1,0,0:0:0:70:5#.wav
36,192,101479,1,0,0:0:0:70:L5#-.wav
475,192,101560,1,0,0:0:0:70:3+.wav
109,192,101641,1,0,0:0:0:70:L2#--.wav
182,192,101641,1,0,0:0:0:70:L5#--.wav
329,192,101722,1,0,0:0:0:70:5#.wav
402,192,101803,1,0,0:0:0:70:2#+.wav
36,192,101803,1,0,0:0:0:70:L5#-.wav
475,192,101965,1,0,0:0:0:70:3++.wav
182,192,101965,1,0,0:0:0:70:L5#--.wav
109,192,101965,1,0,0:0:0:70:L2#--.wav
475,192,102127,1,0,0:0:0:70:2#++.wav
256,192,102127,1,0,0:0:0:70:L6-.wav
329,192,102289,1,0,0:0:0:70:6.wav
182,192,102289,1,0,0:0:0:70:L3--.wav
36,192,102289,1,0,0:0:0:70:L6--.wav
475,192,102371,1,0,0:0:0:70:7+.wav
109,192,102452,1,0,0:0:0:70:L6-.wav
329,192,102533,1,0,0:0:0:70:6.wav
402,192,102614,1,0,0:0:0:70:5#+.wav
182,192,102614,1,0,0:0:0:70:L3--.wav
36,192,102614,1,0,0:0:0:70:L6--.wav
329,192,102776,1,0,0:0:0:70:6.wav
109,192,102776,1,0,0:0:0:70:L6-.wav
402,192,102857,1,0,0:0:0:70:5#+.wav
36,192,102938,1,0,0:0:0:70:L6--.wav
182,192,102938,1,0,0:0:0:70:L3--.wav
329,192,103019,1,0,0:0:0:70:6.wav
475,192,103100,1,0,0:0:0:70:1#++.wav
109,192,103100,1,0,0:0:0:70:L6-.wav
329,192,103181,1,0,0:0:0:70:6.wav
402,192,103262,1,0,0:0:0:70:7+.wav
182,192,103262,1,0,0:0:0:70:L3--.wav
36,192,103262,1,0,0:0:0:70:L6--.wav
329,192,103344,1,0,0:0:0:70:6.wav
475,192,103425,1,0,0:0:0:70:6+.wav
256,192,103425,1,0,0:0:0:70:L5#-.wav
329,192,103587,1,0,0:0:0:70:5#.wav
36,192,103587,1,0,0:0:0:70:L2#--.wav
109,192,103587,1,0,0:0:0:70:L5#--.wav
475,192,103668,1,0,0:0:0:70:6+.wav
182,192,103749,1,0,0:0:0:70:L5#-.wav
329,192,103830,1,0,0:0:0:70:5#.wav
475,192,103911,1,0,0:0:0:70:5#+.wav
109,192,103911,1,0,0:0:0:70:L5#--.wav
36,192,103911,1,0,0:0:0:70:L2#--.wav
329,192,104073,1,0,0:0:0:70:5#.wav
182,192,104073,1,0,0:0:0:70:L5#-.wav
402,192,104154,1,0,0:0:0:70:4#+.wav
109,192,104235,1,0,0:0:0:70:L2#--.wav
36,192,104235,1,0,0:0:0:70:L5#--.wav
256,192,104317,1,0,0:0:0:70:5#.wav
402,192,104398,1,0,0:0:0:70:5#+.wav
182,192,104398,1,0,0:0:0:70:L5#-.wav
475,192,104560,1,0,0:0:0:70:7+.wav
109,192,104560,1,0,0:0:0:70:L5#--.wav
36,192,104560,1,0,0:0:0:70:L2#--.wav
256,192,104722,1,0,0:0:0:70:1#.wav
329,192,104722,1,0,0:0:0:70:3.wav
475,192,104722,1,0,0:0:0:70:5#-.wav
36,192,104722,1,0,0:0:0:70:L1#--.wav
109,192,104722,1,0,0:0:0:70:L1#-.wav
