osu file format v14

[General]
AudioFilename: 2m3.mp3
AudioLeadIn: 0
PreviewTime: -1
Countdown: 0
SampleSet: Soft
StackLeniency: 0.7
Mode: 3
LetterboxInBreaks: 0
SpecialStyle: 0
WidescreenStoryboard: 1

[Editor]
DistanceSpacing: 1.2
BeatDivisor: 4
GridSize: 4
TimelineZoom: 0.6

[Metadata]
Title:Piano Pack
TitleUnicode:Piano Pack
Artist:KawaEE
ArtistUnicode:KawaEE
Creator:KawaEE
Version:EZ : Shuffle OST
Source:
Tags:Piano
BeatmapID:556191
BeatmapSetID:236952

[Difficulty]
HPDrainRate:7
CircleSize:7
OverallDifficulty:7
ApproachRate:5
SliderMultiplier:1.4
SliderTickRate:1

[Events]
//Background and Video events
0,0,"7777.jpg",0,0
//Break Periods
//Storyboard Layer 0 (Background)
//Storyboard Layer 1 (Fail)
//Storyboard Layer 2 (Pass)
//Storyboard Layer 3 (Foreground)
//Storyboard Sound Samples

[TimingPoints]
0,500,4,2,0,7,1,0

[HitObjects]
329,192,4000,5,0,0:0:0:70:3+.wav
36,192,4000,1,0,0:0:0:70:L6-.wav
109,192,4250,1,0,0:0:0:70:L1.wav
475,192,4500,1,0,0:0:0:70:6+.wav
182,192,4500,1,0,0:0:0:50:4.wav
109,192,4750,1,0,0:0:0:70:L1.wav
402,192,5000,1,0,0:0:0:70:1+.wav
256,192,5000,1,0,0:0:0:50:6.wav
475,192,5500,1,0,0:0:0:70:2+.wav
36,192,5500,1,0,0:0:0:70:L5-.wav
182,192,6000,1,0,0:0:0:70:L2.wav
329,192,6500,1,0,0:0:0:70:L7.wav
402,192,7000,1,0,0:0:0:70:2+.wav
36,192,7000,1,0,0:0:0:70:L1-.wav
109,192,7250,1,0,0:0:0:70:L5-.wav
475,192,7500,1,0,0:0:0:70:5+.wav
182,192,7500,1,0,0:0:0:70:L2.wav
109,192,7750,1,0,0:0:0:70:L5-.wav
402,192,8000,1,0,0:0:0:70:7.wav
256,192,8000,1,0,0:0:0:70:L3.wav
329,192,8500,1,0,0:0:0:70:1+.wav
36,192,8500,1,0,0:0:0:70:L6--.wav
182,192,9000,1,0,0:0:0:70:L3-.wav
402,192,9500,1,0,0:0:0:70:L1.wav
329,192,10000,5,0,0:0:0:70:3+.wav
36,192,10000,1,0,0:0:0:70:L4-.wav
109,192,10250,1,0,0:0:0:70:L1.wav
475,192,10500,1,0,0:0:0:70:6+.wav
182,192,10500,1,0,0:0:0:50:4.wav
109,192,10750,1,0,0:0:0:70:L1.wav
402,192,11000,1,0,0:0:0:70:1+.wav
256,192,11000,1,0,0:0:0:50:6.wav
475,192,11500,1,0,0:0:0:70:2+.wav
36,192,11500,1,0,0:0:0:50:L5-.wav
182,192,12000,1,0,0:0:0:70:L2.wav
475,192,12500,1,0,0:0:0:70:5+.wav
256,192,12500,1,0,0:0:0:70:L7.wav
402,192,13000,5,0,0:0:0:70:3+.wav
36,192,13000,1,0,0:0:0:70:L6-.wav
109,192,13250,1,0,0:0:0:50:3.wav
182,192,13500,1,0,0:0:0:50:6.wav
109,192,13750,1,0,0:0:0:50:3.wav
256,192,14000,1,0,0:0:0:50:1#+.wav
402,192,14250,1,0,0:0:0:70:2+.wav
475,192,14500,5,0,0:0:0:70:3+.wav
36,192,14500,1,0,0:0:0:70:L6-.wav
182,192,15000,1,0,0:0:0:50:1#.wav
329,192,15500,1,0,0:0:0:50:6.wav
402,192,16000,5,0,0:0:0:70:3+.wav
36,192,16000,1,0,0:0:0:70:L6-.wav
109,192,16250,1,0,0:0:0:70:L1.wav
475,192,16500,1,0,0:0:0:70:6+.wav
182,192,16500,1,0,0:0:0:50:4.wav
109,192,16750,1,0,0:0:0:70:L1.wav
402,192,17000,1,0,0:0:0:70:1+.wav
256,192,17000,1,0,0:0:0:50:6.wav
475,192,17500,1,0,0:0:0:70:2+.wav
36,192,17500,1,0,0:0:0:70:L5-.wav
182,192,18000,1,0,0:0:0:70:L2.wav
329,192,18500,1,0,0:0:0:70:L7.wav
402,192,19000,1,0,0:0:0:70:2+.wav
36,192,19000,1,0,0:0:0:70:L1-.wav
109,192,19250,1,0,0:0:0:70:L5-.wav
475,192,19500,1,0,0:0:0:70:5+.wav
182,192,19500,1,0,0:0:0:70:L2.wav
36,192,19750,1,0,0:0:0:70:L5-.wav
402,192,20000,1,0,0:0:0:70:7.wav
256,192,20000,1,0,0:0:0:70:L3.wav
329,192,20500,1,0,0:0:0:70:1+.wav
36,192,20500,1,0,0:0:0:70:L6--.wav
182,192,21000,1,0,0:0:0:70:L3-.wav
329,192,21500,1,0,0:0:0:70:L1.wav
402,192,22000,5,0,0:0:0:70:3+.wav
36,192,22000,1,0,0:0:0:70:L6-.wav
109,192,22250,1,0,0:0:0:70:L1.wav
475,192,22500,1,0,0:0:0:70:6+.wav
182,192,22500,1,0,0:0:0:50:4.wav
109,192,22750,1,0,0:0:0:70:L1.wav
402,192,23000,1,0,0:0:0:70:1+.wav
256,192,23000,1,0,0:0:0:50:6.wav
475,192,23500,1,0,0:0:0:70:2+.wav
36,192,23500,1,0,0:0:0:50:L5-.wav
182,192,24000,1,0,0:0:0:70:L2.wav
475,192,24500,1,0,0:0:0:70:1+.wav
109,192,24500,1,0,0:0:0:50:6.wav
402,192,24750,1,0,0:0:0:70:7.wav
329,192,25000,1,0,0:0:0:70:6.wav
36,192,25000,1,0,0:0:0:70:L6-.wav
256,192,25250,1,0,0:0:0:50:3.wav
109,192,25500,1,0,0:0:0:50:2.wav
256,192,25750,1,0,0:0:0:50:3.wav
402,192,26000,1,0,0:0:0:50:6.wav
36,192,26500,1,0,0:0:0:70:L6-.wav
256,192,26750,1,0,0:0:0:70:3.wav
109,192,27000,1,0,0:0:0:50:1#.wav
256,192,27250,1,0,0:0:0:70:3.wav
402,192,27500,1,0,0:0:0:50:6.wav
402,192,27750,1,0,0:0:0:70:6.wav
475,192,28000,1,0,0:0:0:70:3+.wav
36,192,28000,1,0,0:0:0:70:L4-.wav
109,192,28500,1,0,0:0:0:70:L1.wav
475,192,29000,1,0,0:0:0:70:2+.wav
182,192,29000,1,0,0:0:0:50:6.wav
402,192,29250,1,0,0:0:0:70:1+.wav
329,192,29500,1,0,0:0:0:70:7.wav
36,192,29500,1,0,0:0:0:70:L5-.wav
109,192,30000,1,0,0:0:0:70:L2.wav
402,192,30500,1,0,0:0:0:70:6.wav
182,192,30500,1,0,0:0:0:70:L7.wav
329,192,30750,1,0,0:0:0:70:5.wav
256,192,31000,1,0,0:0:0:70:3.wav
36,192,31000,1,0,0:0:0:70:L1-.wav
109,192,31500,1,0,0:0:0:70:L5-.wav
182,192,32000,1,0,0:0:0:70:L3.wav
329,192,32250,1,0,0:0:0:70:2.wav
475,192,32500,1,0,0:0:0:70:3.wav
36,192,32500,1,0,0:0:0:70:L6--.wav
109,192,33000,1,0,0:0:0:70:L3-.wav
329,192,33500,1,0,0:0:0:70:6.wav
182,192,33500,1,0,0:0:0:70:L1.wav
475,192,34000,1,0,0:0:0:70:3+.wav
36,192,34000,1,0,0:0:0:70:L4-.wav
109,192,34500,1,0,0:0:0:70:L1.wav
402,192,35000,1,0,0:0:0:70:2+.wav
182,192,35000,1,0,0:0:0:50:6.wav
329,192,35250,1,0,0:0:0:70:1+.wav
256,192,35500,1,0,0:0:0:70:7.wav
36,192,35500,1,0,0:0:0:70:L5-.wav
109,192,36000,1,0,0:0:0:70:L2.wav
475,192,36500,1,0,0:0:0:70:5+.wav
182,192,36500,1,0,0:0:0:70:L7.wav
329,192,37000,1,0,0:0:0:70:3+.wav
36,192,37000,1,0,0:0:0:70:L6-.wav
256,192,37500,1,0,0:0:0:50:6.wav
329,192,38000,1,0,0:0:0:50:1#+.wav
402,192,38250,1,0,0:0:0:70:2+.wav
182,192,38250,1,0,0:0:0:70:L3.wav
475,192,38500,1,0,0:0:0:70:3+.wav
36,192,38500,1,0,0:0:0:70:L6-.wav
109,192,39000,1,0,0:0:0:50:1#.wav
329,192,39500,1,0,0:0:0:70:6.wav
182,192,39500,1,0,0:0:0:50:6.wav
475,192,40000,1,0,0:0:0:70:3+.wav
36,192,40000,1,0,0:0:0:70:L4-.wav
109,192,40500,1,0,0:0:0:70:L1.wav
402,192,41000,1,0,0:0:0:70:2+.wav
182,192,41000,1,0,0:0:0:50:6.wav
329,192,41250,1,0,0:0:0:70:1+.wav
256,192,41500,1,0,0:0:0:70:7.wav
36,192,41500,1,0,0:0:0:70:L5-.wav
109,192,42000,1,0,0:0:0:70:L2.wav
475,192,42500,1,0,0:0:0:70:6.wav
182,192,42500,1,0,0:0:0:70:L7.wav
402,192,42750,1,0,0:0:0:70:5.wav
329,192,43000,1,0,0:0:0:70:3.wav
36,192,43000,1,0,0:0:0:70:L1-.wav
109,192,43500,1,0,0:0:0:70:L5-.wav
182,192,44000,1,0,0:0:0:70:L3.wav
329,192,44250,1,0,0:0:0:70:2.wav
402,192,44500,1,0,0:0:0:70:3.wav
36,192,44500,1,0,0:0:0:70:L6--.wav
109,192,45000,1,0,0:0:0:70:L3-.wav
329,192,45500,1,0,0:0:0:70:6.wav
182,192,45500,1,0,0:0:0:70:L1.wav
475,192,46000,1,0,0:0:0:70:3+.wav
36,192,46000,1,0,0:0:0:70:L4-.wav
109,192,46500,1,0,0:0:0:70:L1.wav
402,192,47000,1,0,0:0:0:70:2+.wav
182,192,47000,1,0,0:0:0:50:6.wav
329,192,47250,1,0,0:0:0:70:1+.wav
256,192,47500,1,0,0:0:0:70:7.wav
36,192,47500,1,0,0:0:0:70:L5-.wav
109,192,48000,1,0,0:0:0:70:L2.wav
402,192,48500,1,0,0:0:0:70:6.wav
182,192,48500,1,0,0:0:0:50:6.wav
329,192,48750,1,0,0:0:0:70:5.wav
475,192,49000,1,0,0:0:0:70:6+.wav
36,192,49000,1,0,0:0:0:70:L6-.wav
182,192,49500,1,0,0:0:0:70:L2.wav
256,192,49750,1,0,0:0:0:70:L3.wav
402,192,50000,1,0,0:0:0:50:6.wav
256,192,50250,1,0,0:0:0:70:L3.wav
36,192,50500,1,0,0:0:0:70:L6-.wav
109,192,51000,1,0,0:0:0:50:1#.wav
402,192,51500,1,0,0:0:0:50:6.wav
329,192,52000,5,0,0:0:0:70:3+.wav
36,192,52000,1,0,0:0:0:70:L6-.wav
109,192,52250,1,0,0:0:0:70:L1.wav
182,192,52500,1,0,0:0:0:50:4.wav
475,192,52500,1,0,0:0:0:70:6+.wav
36,192,52750,1,0,0:0:0:70:L1.wav
109,192,53000,1,0,0:0:0:50:6.wav
329,192,53000,1,0,0:0:0:70:1+.wav
36,192,53500,1,0,0:0:0:70:L5-.wav
402,192,53500,1,0,0:0:0:70:2+.wav
182,192,54000,1,0,0:0:0:70:L2.wav
256,192,54500,1,0,0:0:0:70:L7.wav
36,192,55000,1,0,0:0:0:70:L1-.wav
402,192,55000,1,0,0:0:0:70:2+.wav
109,192,55250,1,0,0:0:0:70:L5-.wav
475,192,55500,1,0,0:0:0:70:5+.wav
182,192,55500,1,0,0:0:0:70:L2.wav
36,192,55750,1,0,0:0:0:70:L5-.wav
109,192,56000,1,0,0:0:0:70:L3.wav
256,192,56000,1,0,0:0:0:70:7.wav
329,192,56500,1,0,0:0:0:70:1+.wav
36,192,56500,1,0,0:0:0:70:L6--.wav
182,192,57000,1,0,0:0:0:70:L3-.wav
256,192,57500,1,0,0:0:0:70:L1.wav
329,192,58000,5,0,0:0:0:70:3+.wav
36,192,58000,1,0,0:0:0:70:L4-.wav
109,192,58250,1,0,0:0:0:70:L1.wav
182,192,58500,1,0,0:0:0:50:4.wav
475,192,58500,1,0,0:0:0:70:6+.wav
36,192,58750,1,0,0:0:0:70:L1.wav
109,192,59000,1,0,0:0:0:50:6.wav
256,192,59000,1,0,0:0:0:70:1+.wav
36,192,59500,1,0,0:0:0:50:L5-.wav
402,192,59500,1,0,0:0:0:70:2+.wav
182,192,60000,1,0,0:0:0:70:L2.wav
256,192,60500,1,0,0:0:0:70:L7.wav
475,192,60500,1,0,0:0:0:70:5+.wav
329,192,61000,5,0,0:0:0:70:3+.wav
36,192,61000,1,0,0:0:0:70:L6-.wav
109,192,61250,1,0,0:0:0:50:3.wav
182,192,61500,1,0,0:0:0:50:6.wav
109,192,61750,1,0,0:0:0:50:3.wav
256,192,62000,1,0,0:0:0:50:1#+.wav
402,192,62250,1,0,0:0:0:70:2+.wav
475,192,62500,5,0,0:0:0:70:3+.wav
36,192,62500,1,0,0:0:0:70:L6-.wav
182,192,63000,1,0,0:0:0:50:1#.wav
329,192,63500,1,0,0:0:0:50:6.wav
402,192,64000,5,0,0:0:0:70:3+.wav
36,192,64000,1,0,0:0:0:70:L6-.wav
109,192,64250,1,0,0:0:0:70:L1.wav
182,192,64500,1,0,0:0:0:50:4.wav
475,192,64500,1,0,0:0:0:70:6+.wav
36,192,64750,1,0,0:0:0:70:L1.wav
109,192,65000,1,0,0:0:0:50:6.wav
329,192,65000,1,0,0:0:0:70:1+.wav
402,192,65500,1,0,0:0:0:70:2+.wav
36,192,65500,1,0,0:0:0:70:L5-.wav
182,192,66000,1,0,0:0:0:70:L2.wav
256,192,66500,1,0,0:0:0:70:L7.wav
36,192,67000,1,0,0:0:0:70:L1-.wav
402,192,67000,1,0,0:0:0:70:2+.wav
109,192,67250,1,0,0:0:0:70:L5-.wav
182,192,67500,1,0,0:0:0:70:L2.wav
475,192,67500,1,0,0:0:0:70:5+.wav
36,192,67750,1,0,0:0:0:70:L5-.wav
109,192,68000,1,0,0:0:0:70:L3.wav
256,192,68000,1,0,0:0:0:70:7.wav
36,192,68500,1,0,0:0:0:70:L6--.wav
329,192,68500,1,0,0:0:0:70:1+.wav
182,192,69000,1,0,0:0:0:70:L3-.wav
256,192,69500,1,0,0:0:0:70:L1.wav
329,192,70000,5,0,0:0:0:70:3+.wav
36,192,70000,1,0,0:0:0:70:L6-.wav
109,192,70250,1,0,0:0:0:70:L1.wav
475,192,70500,1,0,0:0:0:70:6+.wav
182,192,70500,1,0,0:0:0:50:4.wav
109,192,70750,1,0,0:0:0:70:L1.wav
329,192,71000,1,0,0:0:0:70:1+.wav
256,192,71000,1,0,0:0:0:50:6.wav
36,192,71500,1,0,0:0:0:50:L5-.wav
402,192,71500,1,0,0:0:0:70:2+.wav
182,192,72000,1,0,0:0:0:70:L2.wav
475,192,72500,1,0,0:0:0:70:1+.wav
256,192,72500,1,0,0:0:0:50:6.wav
402,192,72750,1,0,0:0:0:70:7.wav
36,192,73000,1,0,0:0:0:70:L6-.wav
329,192,73000,1,0,0:0:0:70:6.wav
256,192,73250,1,0,0:0:0:50:3.wav
182,192,73500,1,0,0:0:0:50:2.wav
256,192,73750,1,0,0:0:0:50:3.wav
402,192,74000,1,0,0:0:0:50:6.wav
36,192,74500,1,0,0:0:0:70:L6-.wav
256,192,74750,1,0,0:0:0:70:3.wav
109,192,75000,1,0,0:0:0:50:1#.wav
256,192,75250,1,0,0:0:0:70:3.wav
402,192,75500,1,0,0:0:0:50:6.wav
475,192,75750,1,0,0:0:0:70:6.wav
36,192,76000,1,0,0:0:0:70:L4-.wav
402,192,76000,1,0,0:0:0:70:3+.wav
109,192,76500,1,0,0:0:0:70:L1.wav
475,192,77000,1,0,0:0:0:70:2+.wav
182,192,77000,1,0,0:0:0:50:6.wav
402,192,77250,1,0,0:0:0:70:1+.wav
36,192,77500,1,0,0:0:0:70:L5-.wav
256,192,77500,1,0,0:0:0:70:7.wav
109,192,78000,1,0,0:0:0:70:L2.wav
182,192,78500,1,0,0:0:0:70:L7.wav
402,192,78500,1,0,0:0:0:70:6.wav
329,192,78750,1,0,0:0:0:70:5.wav
256,192,79000,1,0,0:0:0:70:3.wav
36,192,79000,1,0,0:0:0:70:L1-.wav
109,192,79500,1,0,0:0:0:70:L5-.wav
182,192,80000,1,0,0:0:0:70:L3.wav
329,192,80250,1,0,0:0:0:70:2.wav
36,192,80500,1,0,0:0:0:70:L6--.wav
402,192,80500,1,0,0:0:0:70:3.wav
109,192,81000,1,0,0:0:0:70:L3-.wav
182,192,81500,1,0,0:0:0:70:L1.wav
329,192,81500,1,0,0:0:0:70:6.wav
475,192,82000,1,0,0:0:0:70:3+.wav
36,192,82000,1,0,0:0:0:70:L4-.wav
109,192,82500,1,0,0:0:0:70:L1.wav
182,192,83000,1,0,0:0:0:50:6.wav
475,192,83000,1,0,0:0:0:70:2+.wav
402,192,83250,1,0,0:0:0:70:1+.wav
36,192,83500,1,0,0:0:0:70:L5-.wav
256,192,83500,1,0,0:0:0:70:7.wav
109,192,84000,1,0,0:0:0:70:L2.wav
475,192,84500,1,0,0:0:0:70:5+.wav
182,192,84500,1,0,0:0:0:70:L7.wav
36,192,85000,1,0,0:0:0:70:L6-.wav
329,192,85000,1,0,0:0:0:70:3+.wav
109,192,85500,1,0,0:0:0:50:6.wav
329,192,86000,1,0,0:0:0:50:1#+.wav
402,192,86250,1,0,0:0:0:70:2+.wav
182,192,86250,1,0,0:0:0:70:L3.wav
475,192,86500,1,0,0:0:0:70:3+.wav
36,192,86500,1,0,0:0:0:70:L6-.wav
109,192,87000,1,0,0:0:0:50:1#.wav
182,192,87500,1,0,0:0:0:50:6.wav
329,192,87500,1,0,0:0:0:70:6.wav
475,192,88000,1,0,0:0:0:70:3+.wav
36,192,88000,1,0,0:0:0:70:L4-.wav
109,192,88500,1,0,0:0:0:70:L1.wav
475,192,89000,1,0,0:0:0:70:2+.wav
182,192,89000,1,0,0:0:0:50:6.wav
402,192,89250,1,0,0:0:0:70:1+.wav
256,192,89500,1,0,0:0:0:70:7.wav
36,192,89500,1,0,0:0:0:70:L5-.wav
109,192,90000,1,0,0:0:0:70:L2.wav
402,192,90500,1,0,0:0:0:70:6.wav
182,192,90500,1,0,0:0:0:70:L7.wav
329,192,90750,1,0,0:0:0:70:5.wav
36,192,91000,1,0,0:0:0:70:L1-.wav
256,192,91000,1,0,0:0:0:70:3.wav
109,192,91500,1,0,0:0:0:70:L5-.wav
182,192,92000,1,0,0:0:0:70:L3.wav
329,192,92250,1,0,0:0:0:70:2.wav
36,192,92500,1,0,0:0:0:70:L6--.wav
402,192,92500,1,0,0:0:0:70:3.wav
109,192,93000,1,0,0:0:0:70:L3-.wav
182,192,93500,1,0,0:0:0:70:L1.wav
329,192,93500,1,0,0:0:0:70:6.wav
36,192,94000,1,0,0:0:0:70:L4-.wav
475,192,94000,1,0,0:0:0:70:3+.wav
109,192,94500,1,0,0:0:0:70:L1.wav
182,192,95000,1,0,0:0:0:50:6.wav
475,192,95000,1,0,0:0:0:70:2+.wav
402,192,95250,1,0,0:0:0:70:1+.wav
36,192,95500,1,0,0:0:0:70:L5-.wav
256,192,95500,1,0,0:0:0:70:7.wav
109,192,96000,1,0,0:0:0:70:L2.wav
402,192,96500,1,0,0:0:0:70:6.wav
182,192,96500,1,0,0:0:0:50:6.wav
329,192,96750,1,0,0:0:0:70:5.wav
475,192,97000,1,0,0:0:0:70:6+.wav
36,192,97000,1,0,0:0:0:70:L6-.wav
109,192,97500,1,0,0:0:0:70:L2.wav
256,192,97750,1,0,0:0:0:70:L3.wav
402,192,98000,1,0,0:0:0:50:6.wav
256,192,98250,1,0,0:0:0:70:L3.wav
36,192,98500,1,0,0:0:0:70:6-.wav
109,192,98625,1,0,0:0:0:70:3.wav
256,192,98750,1,0,0:0:0:70:6.wav
329,192,98875,1,0,0:0:0:70:7.wav
475,192,99000,1,0,0:0:0:70:1#+.wav
