osu file format v13

[General]
AudioFilename: 2m3.mp3
AudioLeadIn: 0
PreviewTime: -1
Countdown: 0
SampleSet: Soft
StackLeniency: 0.7
Mode: 3
LetterboxInBreaks: 0
SpecialStyle: 0
WidescreenStoryboard: 0

[Editor]
DistanceSpacing: 1.2
BeatDivisor: 2
GridSize: 4
TimelineZoom: 0.8000001

[Metadata]
Title:Piano Pack
TitleUnicode:Piano Pack
Artist:KawaEE
ArtistUnicode:KawaEE
Creator:KawaEE
Version:EZ : Fate - Grief
Source:
Tags:Piano
BeatmapID:556190
BeatmapSetID:236952

[Difficulty]
HPDrainRate:7
CircleSize:7
OverallDifficulty:7
ApproachRate:5
SliderMultiplier:1.4
SliderTickRate:1

[Events]
//Background and Video events
0,0,"7777.jpg",0,0
//Break Periods
//Storyboard Layer 0 (Background)
//Storyboard Layer 1 (Fail)
//Storyboard Layer 2 (Pass)
//Storyboard Layer 3 (Foreground)
//Storyboard Sound Samples

[TimingPoints]
0,468.75,4,2,0,10,1,0

[HitObjects]
36,192,3750,5,0,0:0:0:70:L3-.wav
182,192,4218,5,0,0:0:0:70:L7-.wav
256,192,4687,1,0,0:0:0:70:L3.wav
402,192,4687,1,0,0:0:0:70:7.wav
475,192,5625,1,0,0:0:0:70:3+.wav
329,192,5625,1,0,0:0:0:70:5.wav
182,192,6562,1,0,0:0:0:70:4#+.wav
256,192,7031,1,0,0:0:0:70:5+.wav
182,192,7500,1,0,0:0:0:70:7.wav
329,192,7500,1,0,0:0:0:70:6+.wav
36,192,7500,1,0,0:0:0:70:L2-.wav
109,192,7968,1,0,0:0:0:70:L7-.wav
402,192,7968,1,0,0:0:0:70:7+.wav
475,192,8437,1,0,0:0:0:70:1++.wav
182,192,8437,1,0,0:0:0:70:L2.wav
329,192,8906,1,0,0:0:0:70:2+.wav
402,192,9375,1,0,0:0:0:70:7+.wav
256,192,10312,1,0,0:0:0:70:5+.wav
329,192,10781,1,0,0:0:0:70:6+.wav
182,192,10781,1,0,0:0:0:70:3+.wav
36,192,10781,1,0,0:0:0:70:L1-.wav
402,192,11250,1,0,0:0:0:70:7+.wav
109,192,11250,1,0,0:0:0:70:L5-.wav
475,192,11718,1,0,0:0:0:70:1++.wav
182,192,11718,1,0,0:0:0:70:L1.wav
329,192,12187,1,0,0:0:0:70:3+.wav
402,192,12656,1,0,0:0:0:70:7+.wav
182,192,12656,1,0,0:0:0:70:L1.wav
329,192,12656,1,0,0:0:0:70:3+.wav
402,192,13593,1,0,0:0:0:70:5+.wav
329,192,14062,1,0,0:0:0:70:3+.wav
475,192,14062,1,0,0:0:0:70:6+.wav
256,192,14062,1,0,0:0:0:70:1+.wav
36,192,14062,1,0,0:0:0:70:L6-.wav
109,192,14531,1,0,0:0:0:70:L3.wav
182,192,15000,1,0,0:0:0:50:6.wav
329,192,15000,1,0,0:0:0:70:3+.wav
256,192,15468,1,0,0:0:0:50:1+.wav
402,192,15937,1,0,0:0:0:70:5+.wav
329,192,15937,1,0,0:0:0:70:1+.wav
36,192,15937,1,0,0:0:0:70:L2-.wav
109,192,16406,1,0,0:0:0:70:L6-.wav
182,192,16875,1,0,0:0:0:70:2.wav
475,192,16875,1,0,0:0:0:70:4#+.wav
36,192,17812,1,0,0:0:0:70:L3-.wav
256,192,17812,1,0,0:0:0:70:7.wav
402,192,17812,1,0,0:0:0:70:2+.wav
109,192,18281,1,0,0:0:0:70:L7-.wav
182,192,18750,1,0,0:0:0:70:L3.wav
329,192,19218,1,0,0:0:0:70:7.wav
402,192,19687,1,0,0:0:0:70:3+.wav
256,192,20156,1,0,0:0:0:50:5.wav
329,192,20625,1,0,0:0:0:70:4#+.wav
402,192,21093,1,0,0:0:0:70:5+.wav
256,192,21562,1,0,0:0:0:70:2+.wav
329,192,21562,1,0,0:0:0:70:3+.wav
475,192,21562,1,0,0:0:0:70:6+.wav
36,192,21562,1,0,0:0:0:70:L2-.wav
402,192,22031,1,0,0:0:0:70:7+.wav
109,192,22031,1,0,0:0:0:70:L7-.wav
475,192,22500,1,0,0:0:0:70:1++.wav
182,192,22500,1,0,0:0:0:70:L2.wav
256,192,22968,1,0,0:0:0:70:2+.wav
475,192,23437,1,0,0:0:0:70:4#+.wav
329,192,23437,1,0,0:0:0:70:7+.wav
182,192,24375,5,0,0:0:0:70:7.wav
256,192,24843,1,0,0:0:0:70:5+.wav
36,192,25312,1,0,0:0:0:70:L1-.wav
329,192,25312,1,0,0:0:0:70:1+.wav
182,192,25312,1,0,0:0:0:70:3+.wav
475,192,25312,1,0,0:0:0:70:6+.wav
109,192,25781,1,0,0:0:0:70:L5-.wav
402,192,25781,1,0,0:0:0:70:7+.wav
475,192,26250,1,0,0:0:0:70:1++.wav
182,192,26250,1,0,0:0:0:70:L1.wav
329,192,26718,5,0,0:0:0:70:3+.wav
329,192,27187,1,0,0:0:0:70:3+.wav
402,192,27187,1,0,0:0:0:70:7+.wav
182,192,27187,1,0,0:0:0:70:L1.wav
402,192,28125,5,0,0:0:0:70:5+.wav
36,192,28593,1,0,0:0:0:70:L1-.wav
475,192,28593,1,0,0:0:0:70:6+.wav
256,192,28593,1,0,0:0:0:70:1+.wav
109,192,29062,1,0,0:0:0:70:L3.wav
182,192,29531,1,0,0:0:0:50:6.wav
329,192,29531,1,0,0:0:0:70:3+.wav
402,192,30468,1,0,0:0:0:70:4#+.wav
36,192,30468,1,0,0:0:0:70:L7-.wav
256,192,30468,1,0,0:0:0:70:2+.wav
109,192,30937,5,0,0:0:0:50:4#.wav
182,192,31406,1,0,0:0:0:50:7.wav
329,192,31406,1,0,0:0:0:70:2+.wav
36,192,32343,5,0,0:0:0:70:L3-.wav
256,192,32343,1,0,0:0:0:70:6.wav
402,192,32343,1,0,0:0:0:70:4#+.wav
109,192,32812,1,0,0:0:0:70:L7-.wav
182,192,33281,1,0,0:0:0:70:L3.wav
329,192,33750,1,0,0:0:0:70:7.wav
256,192,34218,1,0,0:0:0:70:4#.wav
109,192,34218,1,0,0:0:0:70:L3.wav
402,192,34687,1,0,0:0:0:70:6.wav
329,192,35156,1,0,0:0:0:70:5.wav
256,192,35625,1,0,0:0:0:70:4#.wav
36,192,36093,1,0,0:0:0:70:L3-.wav
329,192,36093,1,0,0:0:0:70:5.wav
475,192,36093,1,0,0:0:0:70:3+.wav
182,192,37968,5,0,0:0:0:70:4#.wav
256,192,38437,1,0,0:0:0:70:5.wav
256,192,38906,1,0,0:0:0:70:5.wav
36,192,38906,1,0,0:0:0:70:L1-.wav
475,192,38906,1,0,0:0:0:70:3+.wav
109,192,39375,1,0,0:0:0:70:L5-.wav
182,192,39843,1,0,0:0:0:70:L1.wav
402,192,40312,5,0,0:0:0:70:5.wav
256,192,40781,5,0,0:0:0:70:7.wav
109,192,40781,1,0,0:0:0:70:L1.wav
329,192,41250,5,0,0:0:0:70:3+.wav
182,192,41250,1,0,0:0:0:70:5.wav
256,192,41718,1,0,0:0:0:70:6.wav
402,192,41718,1,0,0:0:0:70:4#+.wav
329,192,42187,5,0,0:0:0:70:7.wav
475,192,42187,1,0,0:0:0:70:5+.wav
402,192,42656,1,0,0:0:0:70:7.wav
36,192,42656,1,0,0:0:0:70:L1-.wav
256,192,42656,1,0,0:0:0:70:5+.wav
109,192,43125,5,0,0:0:0:70:L5-.wav
182,192,43593,1,0,0:0:0:70:L1.wav
329,192,44062,1,0,0:0:0:70:7.wav
256,192,44531,1,0,0:0:0:70:5.wav
109,192,44531,1,0,0:0:0:70:L1.wav
475,192,44531,1,0,0:0:0:70:3+.wav
182,192,45000,1,0,0:0:0:70:7.wav
329,192,45000,1,0,0:0:0:70:5+.wav
256,192,45468,1,0,0:0:0:70:1+.wav
402,192,45468,1,0,0:0:0:70:6+.wav
182,192,45937,1,0,0:0:0:70:7.wav
329,192,45937,1,0,0:0:0:70:5+.wav
109,192,46406,1,0,0:0:0:70:6.wav
256,192,46406,1,0,0:0:0:70:4#+.wav
36,192,46406,1,0,0:0:0:70:L7--.wav
182,192,46875,1,0,0:0:0:70:L4#-.wav
329,192,47343,5,0,0:0:0:70:L7-.wav
475,192,47812,1,0,0:0:0:70:6.wav
36,192,48281,1,0,0:0:0:70:L7-.wav
182,192,48281,1,0,0:0:0:70:1+.wav
329,192,48750,1,0,0:0:0:70:4#+.wav
182,192,49218,1,0,0:0:0:70:1+.wav
329,192,49658,1,0,0:0:0:70:6.wav
36,192,50156,1,0,0:0:0:70:L3-.wav
256,192,50156,1,0,0:0:0:70:5.wav
475,192,50156,1,0,0:0:0:70:7.wav
182,192,50625,1,0,0:0:0:70:L7-.wav
329,192,51093,1,0,0:0:0:70:L3.wav
475,192,51562,1,0,0:0:0:70:7.wav
36,192,52031,1,0,0:0:0:70:L2-.wav
329,192,52031,1,0,0:0:0:70:4#.wav
109,192,52500,1,0,0:0:0:70:L7-.wav
402,192,52500,1,0,0:0:0:70:5.wav
475,192,52968,1,0,0:0:0:70:6.wav
182,192,52968,1,0,0:0:0:70:L2.wav
329,192,53437,5,0,0:0:0:70:7.wav
475,192,53906,1,0,0:0:0:70:3+.wav
36,192,53906,1,0,0:0:0:70:L1-.wav
329,192,53906,1,0,0:0:0:70:7.wav
182,192,53906,1,0,0:0:0:70:5.wav
109,192,54375,1,0,0:0:0:70:L5-.wav
182,192,54843,1,0,0:0:0:70:L1.wav
329,192,55312,1,0,0:0:0:70:3+.wav
329,192,55781,5,0,0:0:0:70:3+.wav
182,192,55781,1,0,0:0:0:70:L1.wav
475,192,55781,1,0,0:0:0:70:7+.wav
402,192,56250,1,0,0:0:0:70:6+.wav
329,192,56718,1,0,0:0:0:70:5+.wav
182,192,57187,1,0,0:0:0:70:3+.wav
36,192,57656,1,0,0:0:0:70:L6--.wav
475,192,57656,1,0,0:0:0:70:6+.wav
402,192,57656,1,0,0:0:0:70:4#+.wav
256,192,57656,1,0,0:0:0:70:2+.wav
109,192,58125,1,0,0:0:0:70:L3-.wav
182,192,58593,1,0,0:0:0:70:L6-.wav
329,192,59062,1,0,0:0:0:70:1+.wav
329,192,59531,1,0,0:0:0:70:1+.wav
109,192,60000,1,0,0:0:0:70:2+.wav
256,192,60468,1,0,0:0:0:70:3+.wav
402,192,60937,1,0,0:0:0:70:5+.wav
36,192,61406,1,0,0:0:0:70:L2-.wav
402,192,61406,1,0,0:0:0:70:5+.wav
475,192,62343,5,0,0:0:0:70:4#+.wav
256,192,62343,1,0,0:0:0:70:6.wav
109,192,62343,1,0,0:0:0:70:L2.wav
182,192,63281,1,0,0:0:0:70:4#.wav
36,192,63281,1,0,0:0:0:70:L7-.wav
402,192,63281,1,0,0:0:0:70:3+.wav
36,192,64218,1,0,0:0:0:70:L7-.wav
475,192,64218,1,0,0:0:0:70:4#+.wav
329,192,64218,1,0,0:0:0:70:2#+.wav
36,192,65156,5,0,0:0:0:70:L3-.wav
182,192,65625,1,0,0:0:0:70:L7-.wav
475,192,66093,1,0,0:0:0:70:7.wav
256,192,66093,1,0,0:0:0:70:L3.wav
329,192,66562,1,0,0:0:0:50:5.wav
402,192,67031,5,0,0:0:0:70:7.wav
475,192,67031,1,0,0:0:0:70:3+.wav
182,192,67968,5,0,0:0:0:70:4#+.wav
256,192,68437,1,0,0:0:0:70:5+.wav
329,192,68906,1,0,0:0:0:70:6+.wav
182,192,68906,1,0,0:0:0:70:7.wav
36,192,68906,1,0,0:0:0:70:L2-.wav
109,192,69375,1,0,0:0:0:70:L7-.wav
402,192,69375,1,0,0:0:0:70:7+.wav
475,192,69843,1,0,0:0:0:70:1++.wav
182,192,69843,1,0,0:0:0:70:L2.wav
329,192,70312,1,0,0:0:0:70:2+.wav
182,192,70781,1,0,0:0:0:70:L2.wav
402,192,70781,1,0,0:0:0:70:7+.wav
256,192,71718,5,0,0:0:0:70:5+.wav
36,192,72187,1,0,0:0:0:70:L1-.wav
182,192,72187,1,0,0:0:0:70:3+.wav
329,192,72187,1,0,0:0:0:70:6+.wav
402,192,72656,1,0,0:0:0:70:7+.wav
109,192,72656,1,0,0:0:0:70:L5-.wav
182,192,73125,1,0,0:0:0:70:L1.wav
475,192,73125,1,0,0:0:0:70:1++.wav
329,192,73593,1,0,0:0:0:70:3+.wav
182,192,74062,1,0,0:0:0:70:L1.wav
402,192,74062,1,0,0:0:0:70:7+.wav
329,192,74062,1,0,0:0:0:70:3+.wav
402,192,75000,5,0,0:0:0:70:5+.wav
182,192,75468,1,0,0:0:0:70:1+.wav
329,192,75468,1,0,0:0:0:70:3+.wav
475,192,75468,1,0,0:0:0:70:6+.wav
36,192,75468,1,0,0:0:0:70:L6--.wav
109,192,75937,1,0,0:0:0:70:L3-.wav
182,192,76406,1,0,0:0:0:70:L6-.wav
329,192,76406,1,0,0:0:0:70:3+.wav
256,192,76875,1,0,0:0:0:70:1+.wav
402,192,77343,1,0,0:0:0:70:4#+.wav
256,192,77343,1,0,0:0:0:70:1+.wav
36,192,77343,1,0,0:0:0:70:L2-.wav
109,192,77812,1,0,0:0:0:70:L6-.wav
329,192,78281,1,0,0:0:0:70:2+.wav
182,192,78281,1,0,0:0:0:70:L2.wav
256,192,78750,1,0,0:0:0:70:1+.wav
109,192,79218,1,0,0:0:0:70:5.wav
36,192,79218,1,0,0:0:0:70:L3-.wav
402,192,79218,1,0,0:0:0:70:7.wav
182,192,79687,1,0,0:0:0:70:L7-.wav
329,192,80156,1,0,0:0:0:70:L3.wav
109,192,80625,1,0,0:0:0:70:7.wav
475,192,81093,1,0,0:0:0:70:7+.wav
109,192,81562,1,0,0:0:0:70:7.wav
402,192,82031,1,0,0:0:0:70:6+.wav
329,192,82500,1,0,0:0:0:70:5+.wav
256,192,82968,1,0,0:0:0:70:4#+.wav
36,192,82968,1,0,0:0:0:70:L7--.wav
182,192,82968,1,0,0:0:0:70:2+.wav
329,192,83437,1,0,0:0:0:70:5+.wav
109,192,83437,1,0,0:0:0:70:L4#-.wav
36,192,83906,1,0,0:0:0:70:L7-.wav
475,192,83906,1,0,0:0:0:70:4#+.wav
402,192,84375,1,0,0:0:0:70:2+.wav
36,192,84843,1,0,0:0:0:70:L7-.wav
182,192,84843,1,0,0:0:0:70:4#-.wav
329,192,84843,1,0,0:0:0:70:7.wav
475,192,85781,5,0,0:0:0:70:2+.wav
475,192,86250,1,0,0:0:0:70:2+.wav
36,192,86250,1,0,0:0:0:70:L1-.wav
109,192,86718,1,0,0:0:0:70:L5-.wav
402,192,86718,1,0,0:0:0:70:1+.wav
329,192,87187,1,0,0:0:0:70:7.wav
182,192,87187,1,0,0:0:0:70:L1.wav
256,192,87656,1,0,0:0:0:70:6.wav
182,192,88125,1,0,0:0:0:70:L1.wav
36,192,88125,1,0,0:0:0:70:5.wav
36,192,89062,5,0,0:0:0:70:L7--.wav
182,192,89062,1,0,0:0:0:70:L4#-.wav
329,192,89062,1,0,0:0:0:70:2.wav
475,192,89062,1,0,0:0:0:70:7.wav
256,192,90000,5,0,0:0:0:70:1.wav
36,192,90000,1,0,0:0:0:70:L6--.wav
329,192,90000,1,0,0:0:0:70:3.wav
402,192,90000,1,0,0:0:0:70:5.wav
182,192,90468,1,0,0:0:0:70:L3-.wav
109,192,90937,1,0,0:0:0:70:L1.wav
256,192,90937,1,0,0:0:0:70:1.wav
329,192,90937,1,0,0:0:0:70:5.wav
402,192,90937,1,0,0:0:0:70:3.wav
36,192,91875,1,0,0:0:0:70:L7--.wav
329,192,91875,1,0,0:0:0:70:4#.wav
182,192,91875,1,0,0:0:0:70:2.wav
109,192,92343,1,0,0:0:0:70:L4#-.wav
475,192,92812,1,0,0:0:0:70:6.wav
329,192,92812,1,0,0:0:0:70:4#.wav
182,192,92812,1,0,0:0:0:70:L2.wav
36,192,93750,1,0,0:0:0:70:L3-.wav
109,192,94218,1,0,0:0:0:70:L7-.wav
182,192,94687,1,0,0:0:0:70:L3.wav
256,192,95156,1,0,0:0:0:70:7.wav
329,192,95625,1,0,0:0:0:70:3+.wav
402,192,96093,1,0,0:0:0:70:4#+.wav
475,192,96562,1,0,0:0:0:70:7+.wav
36,192,96562,1,0,0:0:0:70:L3.wav
