osu file format v14

[General]
AudioFilename: 2m3.mp3
AudioLeadIn: 0
PreviewTime: -1
Countdown: 0
SampleSet: Soft
StackLeniency: 0.7
Mode: 3
LetterboxInBreaks: 0
SpecialStyle: 0
WidescreenStoryboard: 1

[Editor]
Bookmarks: 30608
DistanceSpacing: 1.2
BeatDivisor: 8
GridSize: 4
TimelineZoom: 2.2

[Metadata]
Title:Piano Pack
TitleUnicode:Piano Pack
Artist:KawaEE
ArtistUnicode:KawaEE
Creator:KawaEE
Version:ET : Night of Nights
Source:
Tags:Piano
BeatmapID:630999
BeatmapSetID:236952

[Difficulty]
HPDrainRate:9
CircleSize:7
OverallDifficulty:9
ApproachRate:5
SliderMultiplier:1.4
SliderTickRate:1

[Events]
//Background and Video events
0,0,"7777.jpg",0,0
//Break Periods
//Storyboard Layer 0 (Background)
//Storyboard Layer 1 (Fail)
//Storyboard Layer 2 (Pass)
//Storyboard Layer 3 (Foreground)
//Storyboard Sound Samples
Sample,24608,0,"1#+.wav",70
Sample,27941,0,"6#.wav",70
Sample,27941,0,"6#+.wav",70
Sample,28053,0,"6#+.wav",70
Sample,28053,0,"6#.wav",70
Sample,28164,0,"6#+.wav",70
Sample,28164,0,"6#.wav",70
Sample,28275,0,"6#+.wav",70
Sample,28275,0,"6#.wav",70
Sample,28386,0,"6#+.wav",70
Sample,28386,0,"6#.wav",70
Sample,28497,0,"6#+.wav",70
Sample,28497,0,"6#.wav",70
Sample,28608,0,"1++.wav",70
Sample,28608,0,"1+.wav",70
Sample,28719,0,"1+.wav",70
Sample,28719,0,"1++.wav",70
Sample,28830,0,"1+.wav",70
Sample,28830,0,"1++.wav",70
Sample,28941,0,"1+.wav",70
Sample,28941,0,"1++.wav",70
Sample,29053,0,"1+.wav",70
Sample,29053,0,"1++.wav",70
Sample,29164,0,"1+.wav",70
Sample,29164,0,"1++.wav",70
Sample,29275,0,"2#+.wav",70
Sample,29275,0,"2#++.wav",70
Sample,29386,0,"2#++.wav",70
Sample,29386,0,"2#+.wav",70
Sample,29497,0,"2#++.wav",70
Sample,29497,0,"2#+.wav",70
Sample,29608,0,"2#++.wav",70
Sample,29608,0,"2#+.wav",70
Sample,29719,0,"2#++.wav",70
Sample,29719,0,"2#+.wav",70
Sample,29830,0,"2#++.wav",70
Sample,29830,0,"2#+.wav",70
Sample,29941,0,"L1-.wav",70
Sample,30275,0,"L1-.wav",70
Sample,30275,0,"L1--.wav",70
Sample,30275,0,"L1---.wav",70
Sample,30358,0,"L3-.wav",70
Sample,30358,0,"L3--.wav",70
Sample,30358,0,"L3---.wav",70
Sample,30441,0,"L5-.wav",70
Sample,30441,0,"L5---.wav",70
Sample,30441,0,"L5--.wav",70
Sample,30525,0,"L1.wav",70
Sample,30525,0,"L1-.wav",70
Sample,30525,0,"L1--.wav",70
Sample,30775,0,"L6#-.wav",70
Sample,30775,0,"L6#--.wav",70
Sample,30941,0,"L6#--.wav",70
Sample,30941,0,"L6#---.wav",70
Sample,31108,0,"L6#--.wav",70
Sample,31108,0,"L6#-.wav",70
Sample,31441,0,"L1--.wav",70
Sample,31441,0,"L1-.wav",70
Sample,31608,0,"L1---.wav",70
Sample,31608,0,"L1--.wav",70
Sample,31775,0,"L1--.wav",70
Sample,31775,0,"L1-.wav",70
Sample,32108,0,"L2--.wav",70
Sample,32108,0,"L2-.wav",70
Sample,32275,0,"L2---.wav",70
Sample,32275,0,"L2--.wav",70
Sample,32441,0,"L2--.wav",70
Sample,32441,0,"L2-.wav",70
Sample,32775,0,"L2--.wav",70
Sample,32775,0,"L2-.wav",70
Sample,32941,0,"L1---.wav",70
Sample,32941,0,"L1--.wav",70
Sample,33108,0,"L1--.wav",70
Sample,33108,0,"L1-.wav",70
Sample,33441,0,"L6#--.wav",70
Sample,33441,0,"L6#-.wav",70
Sample,33608,0,"L6#---.wav",70
Sample,33608,0,"L6#--.wav",70
Sample,33775,0,"L6#-.wav",70
Sample,33775,0,"L6#--.wav",70
Sample,34108,0,"L1--.wav",70
Sample,34108,0,"L1-.wav",70
Sample,34275,0,"L1---.wav",70
Sample,34275,0,"L1--.wav",70
Sample,34441,0,"L1--.wav",70
Sample,34441,0,"L1-.wav",70
Sample,34775,0,"L2--.wav",70
Sample,34775,0,"L2-.wav",70
Sample,35108,0,"L2--.wav",70
Sample,35108,0,"L2-.wav",70
Sample,35441,0,"L3--.wav",70
Sample,35441,0,"L3-.wav",70
Sample,35608,0,"L1---.wav",70
Sample,35608,0,"L1--.wav",70
Sample,35775,0,"L1-.wav",70
Sample,35775,0,"L1--.wav",70
Sample,36108,0,"L6#--.wav",70
Sample,36108,0,"L6#-.wav",70
Sample,36275,0,"L6#---.wav",70
Sample,36275,0,"L6#--.wav",70
Sample,36441,0,"L6#--.wav",70
Sample,36441,0,"L6#-.wav",70
Sample,36775,0,"L1--.wav",70
Sample,36775,0,"L1-.wav",70
Sample,36941,0,"L1--.wav",70
Sample,36941,0,"L1---.wav",70
Sample,37108,0,"L1-.wav",70
Sample,37108,0,"L1--.wav",70
Sample,37441,0,"L2--.wav",70
Sample,37441,0,"L2-.wav",70
Sample,37608,0,"L2---.wav",70
Sample,37608,0,"L2--.wav",70
Sample,37775,0,"L2-.wav",70
Sample,37775,0,"L2--.wav",70
Sample,38108,0,"L2--.wav",70
Sample,38108,0,"L2-.wav",70
Sample,38441,0,"L1--.wav",70
Sample,38441,0,"L1-.wav",70
Sample,39775,0,"L6-.wav",70
Sample,39941,0,"L2---.wav",70
Sample,39941,0,"L2--.wav",70

[TimingPoints]
3942,333.333333333333,4,2,0,10,1,0

[HitObjects]
36,192,3941,5,0,0:0:0:70:L2--.wav
182,192,3941,1,0,0:0:0:70:2++.wav
256,192,3941,1,0,0:0:0:70:2+.wav
402,192,3941,1,0,0:0:0:70:6+.wav
475,192,3941,1,0,0:0:0:70:4++.wav
329,192,3941,1,0,0:0:0:70:4+.wav
109,192,3941,1,0,0:0:0:70:L4--.wav
329,192,4108,1,0,0:0:0:70:6+.wav
182,192,4275,1,0,0:0:0:70:5+.wav
329,192,4358,1,0,0:0:0:70:6+.wav
109,192,4525,1,0,0:0:0:70:3+.wav
256,192,4691,1,0,0:0:0:70:4+.wav
475,192,4858,1,0,0:0:0:70:6+.wav
329,192,4941,1,0,0:0:0:70:5+.wav
256,192,5025,1,0,0:0:0:70:4+.wav
182,192,5108,1,0,0:0:0:70:3+.wav
36,192,5191,1,0,0:0:0:70:2+.wav
36,192,5358,1,0,0:0:0:70:2+.wav
329,192,5441,1,0,0:0:0:70:6+.wav
182,192,5608,1,0,0:0:0:70:5+.wav
329,192,5691,1,0,0:0:0:70:6+.wav
109,192,5858,1,0,0:0:0:70:3+.wav
256,192,6025,1,0,0:0:0:70:4+.wav
402,192,6191,1,0,0:0:0:70:6+.wav
182,192,6275,1,0,0:0:0:100:1+.wav
36,192,6275,1,0,0:0:0:100:L1---.wav
329,192,6275,1,0,0:0:0:100:5+.wav
475,192,6275,1,0,0:0:0:100:5++.wav
109,192,6275,1,0,0:0:0:100:L5---.wav
402,192,6358,1,0,0:0:0:100:1.wav
256,192,6358,1,0,0:0:0:100:L1--.wav
109,192,6441,1,0,0:0:0:100:L5#---.wav
182,192,6441,1,0,0:0:0:100:1#+.wav
329,192,6441,1,0,0:0:0:100:5#+.wav
36,192,6441,1,0,0:0:0:100:L1#--.wav
475,192,6441,1,0,0:0:0:100:5#++.wav
402,192,6525,1,0,0:0:0:100:1#.wav
256,192,6525,1,0,0:0:0:100:L1#--.wav
329,192,6608,1,0,0:0:0:100:6+.wav
182,192,6608,1,0,0:0:0:100:2+.wav
109,192,6608,1,0,0:0:0:100:L6---.wav
475,192,6608,1,0,0:0:0:100:6++.wav
36,192,6608,1,0,0:0:0:100:L2---.wav
329,192,6775,1,0,0:0:0:70:6+.wav
182,192,6941,1,0,0:0:0:70:5+.wav
329,192,7025,1,0,0:0:0:70:6+.wav
109,192,7191,1,0,0:0:0:70:3+.wav
256,192,7358,1,0,0:0:0:70:4+.wav
475,192,7525,1,0,0:0:0:70:6+.wav
329,192,7608,1,0,0:0:0:70:5+.wav
256,192,7691,1,0,0:0:0:70:4+.wav
182,192,7775,1,0,0:0:0:70:3+.wav
36,192,7858,1,0,0:0:0:70:2+.wav
36,192,8025,1,0,0:0:0:70:2+.wav
329,192,8108,1,0,0:0:0:70:6+.wav
182,192,8275,1,0,0:0:0:70:5+.wav
329,192,8358,1,0,0:0:0:70:6+.wav
109,192,8525,1,0,0:0:0:70:3+.wav
256,192,8691,1,0,0:0:0:70:4+.wav
402,192,8858,1,0,0:0:0:70:6+.wav
36,192,8941,1,0,0:0:0:100:L1---.wav
475,192,8941,1,0,0:0:0:100:5++.wav
329,192,8941,1,0,0:0:0:100:5+.wav
109,192,8941,1,0,0:0:0:100:L5---.wav
256,192,8941,1,0,0:0:0:100:1+.wav
402,192,9025,1,0,0:0:0:100:1.wav
182,192,9025,1,0,0:0:0:100:L1--.wav
256,192,9108,1,0,0:0:0:100:1#+.wav
109,192,9108,1,0,0:0:0:100:L5#---.wav
475,192,9108,1,0,0:0:0:100:5#++.wav
36,192,9108,1,0,0:0:0:100:L1#--.wav
329,192,9108,1,0,0:0:0:100:5#+.wav
402,192,9191,1,0,0:0:0:100:1#.wav
182,192,9191,1,0,0:0:0:100:L1#--.wav
36,192,9275,1,0,0:0:0:100:L2---.wav
256,192,9275,1,0,0:0:0:100:2+.wav
109,192,9275,1,0,0:0:0:100:L6---.wav
475,192,9275,1,0,0:0:0:100:6++.wav
329,192,9275,1,0,0:0:0:100:6+.wav
329,192,9441,1,0,0:0:0:70:6+.wav
182,192,9608,1,0,0:0:0:70:5+.wav
329,192,9691,1,0,0:0:0:70:6+.wav
109,192,9858,1,0,0:0:0:70:3+.wav
256,192,10025,1,0,0:0:0:70:4+.wav
475,192,10191,1,0,0:0:0:70:6+.wav
329,192,10275,1,0,0:0:0:70:5+.wav
256,192,10358,1,0,0:0:0:70:4+.wav
182,192,10441,1,0,0:0:0:70:3+.wav
36,192,10525,1,0,0:0:0:70:2+.wav
36,192,10691,1,0,0:0:0:70:2+.wav
256,192,10775,1,0,0:0:0:70:6+.wav
109,192,10941,1,0,0:0:0:70:5+.wav
256,192,11025,1,0,0:0:0:70:6+.wav
402,192,11191,1,0,0:0:0:70:1++.wav
402,192,11358,1,0,0:0:0:70:1++.wav
256,192,11441,1,0,0:0:0:70:6+.wav
475,192,11525,1,0,0:0:0:70:6++.wav
402,192,11608,1,0,0:0:0:100:5++.wav
329,192,11608,1,0,0:0:0:100:5+.wav
36,192,11608,1,0,0:0:0:100:L1---.wav
182,192,11608,1,0,0:0:0:100:L5---.wav
256,192,11608,1,0,0:0:0:100:1+.wav
182,192,11691,1,0,0:0:0:100:L1--.wav
329,192,11691,1,0,0:0:0:100:1.wav
109,192,11775,1,0,0:0:0:100:L5#---.wav
256,192,11775,1,0,0:0:0:100:1#+.wav
36,192,11775,1,0,0:0:0:100:L1#--.wav
475,192,11775,1,0,0:0:0:100:5#+.wav
402,192,11775,1,0,0:0:0:100:5#++.wav
329,192,11858,1,0,0:0:0:100:1#.wav
182,192,11858,1,0,0:0:0:100:L1#--.wav
402,192,11941,1,0,0:0:0:100:6+.wav
109,192,11941,1,0,0:0:0:100:L6---.wav
256,192,11941,1,0,0:0:0:100:2+.wav
36,192,11941,1,0,0:0:0:100:L2---.wav
475,192,11941,1,0,0:0:0:100:6++.wav
475,192,12108,1,0,0:0:0:70:6+.wav
182,192,12108,1,0,0:0:0:70:L2-.wav
329,192,12275,1,0,0:0:0:70:5+.wav
36,192,12275,1,0,0:0:0:70:L2--.wav
475,192,12358,1,0,0:0:0:70:6+.wav
182,192,12441,1,0,0:0:0:70:L2-.wav
256,192,12525,1,0,0:0:0:70:3+.wav
36,192,12608,1,0,0:0:0:70:L2--.wav
402,192,12691,1,0,0:0:0:70:4+.wav
182,192,12775,1,0,0:0:0:70:L2-.wav
475,192,12858,1,0,0:0:0:70:6+.wav
402,192,12941,1,0,0:0:0:70:5+.wav
36,192,12941,1,0,0:0:0:70:L2--.wav
329,192,13025,1,0,0:0:0:70:4+.wav
402,192,13108,1,0,0:0:0:70:3+.wav
182,192,13108,1,0,0:0:0:70:L2-.wav
329,192,13191,1,0,0:0:0:70:2+.wav
36,192,13275,1,0,0:0:0:70:L2--.wav
329,192,13358,1,0,0:0:0:70:2+.wav
475,192,13441,1,0,0:0:0:70:6+.wav
182,192,13441,1,0,0:0:0:70:L2-.wav
402,192,13608,1,0,0:0:0:70:5+.wav
36,192,13608,1,0,0:0:0:70:L2--.wav
475,192,13691,1,0,0:0:0:70:6+.wav
182,192,13775,1,0,0:0:0:70:L2-.wav
329,192,13858,1,0,0:0:0:70:3+.wav
36,192,13941,1,0,0:0:0:70:L2--.wav
402,192,14025,1,0,0:0:0:70:4+.wav
182,192,14108,1,0,0:0:0:70:L2-.wav
475,192,14191,1,0,0:0:0:70:6+.wav
329,192,14275,1,0,0:0:0:100:1+.wav
36,192,14275,1,0,0:0:0:100:L1---.wav
402,192,14275,1,0,0:0:0:100:5++.wav
256,192,14275,1,0,0:0:0:100:5+.wav
109,192,14275,1,0,0:0:0:100:L5---.wav
182,192,14358,1,0,0:0:0:100:L1--.wav
329,192,14358,1,0,0:0:0:100:1.wav
256,192,14441,1,0,0:0:0:100:1#+.wav
475,192,14441,1,0,0:0:0:100:5#++.wav
109,192,14441,1,0,0:0:0:100:L5#---.wav
36,192,14441,1,0,0:0:0:100:L1#--.wav
402,192,14441,1,0,0:0:0:100:5#+.wav
182,192,14525,1,0,0:0:0:100:L1#--.wav
329,192,14525,1,0,0:0:0:100:1#.wav
109,192,14608,1,0,0:0:0:100:L6---.wav
256,192,14608,1,0,0:0:0:100:2+.wav
402,192,14608,1,0,0:0:0:100:6+.wav
475,192,14608,1,0,0:0:0:100:6++.wav
36,192,14608,1,0,0:0:0:100:L2---.wav
182,192,14775,1,0,0:0:0:70:L2-.wav
475,192,14775,1,0,0:0:0:70:6+.wav
36,192,14941,1,0,0:0:0:70:L2--.wav
329,192,14941,1,0,0:0:0:70:5+.wav
475,192,15025,1,0,0:0:0:70:6+.wav
182,192,15108,1,0,0:0:0:70:L2-.wav
256,192,15191,1,0,0:0:0:70:3+.wav
36,192,15275,1,0,0:0:0:70:L2--.wav
402,192,15358,1,0,0:0:0:70:4+.wav
182,192,15441,1,0,0:0:0:70:L2-.wav
475,192,15525,1,0,0:0:0:70:6+.wav
36,192,15608,1,0,0:0:0:70:L2--.wav
402,192,15608,1,0,0:0:0:70:5+.wav
329,192,15691,1,0,0:0:0:70:4+.wav
182,192,15775,1,0,0:0:0:70:L2-.wav
402,192,15775,1,0,0:0:0:70:3+.wav
329,192,15858,1,0,0:0:0:70:2+.wav
36,192,15941,1,0,0:0:0:70:L2--.wav
329,192,16025,1,0,0:0:0:70:2+.wav
182,192,16108,1,0,0:0:0:70:L2-.wav
475,192,16108,1,0,0:0:0:70:6+.wav
36,192,16275,1,0,0:0:0:70:L2--.wav
329,192,16275,1,0,0:0:0:70:5+.wav
475,192,16358,1,0,0:0:0:70:6+.wav
182,192,16441,1,0,0:0:0:70:L2-.wav
329,192,16525,1,0,0:0:0:70:3+.wav
36,192,16608,1,0,0:0:0:70:L2--.wav
402,192,16691,1,0,0:0:0:70:4+.wav
182,192,16775,1,0,0:0:0:70:L2-.wav
475,192,16858,1,0,0:0:0:70:6+.wav
36,192,16941,1,0,0:0:0:100:L1---.wav
402,192,16941,1,0,0:0:0:100:5++.wav
329,192,16941,1,0,0:0:0:100:5+.wav
256,192,16941,1,0,0:0:0:100:1+.wav
109,192,16941,1,0,0:0:0:100:L5---.wav
329,192,17025,1,0,0:0:0:100:1.wav
182,192,17025,1,0,0:0:0:100:L1--.wav
109,192,17108,1,0,0:0:0:100:L5#---.wav
36,192,17108,1,0,0:0:0:100:L1#--.wav
256,192,17108,1,0,0:0:0:100:1#+.wav
475,192,17108,1,0,0:0:0:100:5#++.wav
402,192,17108,1,0,0:0:0:100:5#+.wav
402,192,17191,1,0,0:0:0:100:1#.wav
182,192,17191,1,0,0:0:0:100:L1#--.wav
329,192,17275,1,0,0:0:0:100:6+.wav
475,192,17275,1,0,0:0:0:100:6++.wav
36,192,17275,1,0,0:0:0:100:L2---.wav
256,192,17275,1,0,0:0:0:100:2+.wav
109,192,17275,1,0,0:0:0:100:L6---.wav
475,192,17441,1,0,0:0:0:70:6+.wav
182,192,17441,1,0,0:0:0:70:L2-.wav
329,192,17608,1,0,0:0:0:70:5+.wav
36,192,17608,1,0,0:0:0:70:L2--.wav
475,192,17691,1,0,0:0:0:70:6+.wav
182,192,17775,1,0,0:0:0:70:L2-.wav
256,192,17858,1,0,0:0:0:70:3+.wav
36,192,17941,1,0,0:0:0:70:L3--.wav
402,192,18025,1,0,0:0:0:70:4+.wav
109,192,18108,1,0,0:0:0:70:L3-.wav
475,192,18191,1,0,0:0:0:70:6+.wav
402,192,18275,1,0,0:0:0:70:5+.wav
36,192,18275,1,0,0:0:0:70:L3--.wav
329,192,18358,1,0,0:0:0:70:4+.wav
402,192,18441,1,0,0:0:0:70:3+.wav
109,192,18441,1,0,0:0:0:70:L3-.wav
329,192,18525,1,0,0:0:0:70:2+.wav
475,192,18608,1,0,0:0:0:70:6+.wav
36,192,18608,1,0,0:0:0:70:L4--.wav
329,192,18691,1,0,0:0:0:70:2+.wav
182,192,18775,1,0,0:0:0:70:L4-.wav
475,192,18775,1,0,0:0:0:70:6+.wav
36,192,18941,1,0,0:0:0:70:L5--.wav
256,192,18941,1,0,0:0:0:70:5+.wav
402,192,19025,1,0,0:0:0:70:6+.wav
109,192,19108,1,0,0:0:0:70:L5-.wav
329,192,19191,1,0,0:0:0:70:1++.wav
36,192,19275,1,0,0:0:0:70:L6--.wav
402,192,19358,1,0,0:0:0:70:2++.wav
182,192,19441,1,0,0:0:0:70:L6-.wav
475,192,19525,1,0,0:0:0:70:4++.wav
329,192,19608,1,0,0:0:0:70:2++.wav
182,192,19608,1,0,0:0:0:70:L1--.wav
36,192,19608,1,0,0:0:0:70:L1-.wav
402,192,19691,1,0,0:0:0:70:3++.wav
256,192,19719,1,0,0:0:0:70:L1--.wav
109,192,19719,1,0,0:0:0:70:L1-.wav
329,192,19775,1,0,0:0:0:70:1.wav
182,192,19830,1,0,0:0:0:70:L1--.wav
36,192,19830,1,0,0:0:0:70:L1-.wav
36,192,19941,1,0,0:0:0:100:L6#---.wav
109,192,19941,1,0,0:0:0:100:L6#--.wav
256,192,19941,1,0,0:0:0:70:5#+.wav
402,192,19941,1,0,0:0:0:70:5#.wav
329,192,19983,1,0,0:0:0:70:6.wav
475,192,19983,1,0,0:0:0:70:6+.wav
402,192,20108,1,0,0:0:0:70:4+.wav
182,192,20108,1,0,0:0:0:70:4++.wav
109,192,20275,1,0,0:0:0:70:3++.wav
329,192,20275,1,0,0:0:0:70:3+.wav
182,192,20358,1,0,0:0:0:70:4++.wav
402,192,20358,1,0,0:0:0:70:4+.wav
109,192,20441,1,0,0:0:0:70:3++.wav
329,192,20441,1,0,0:0:0:70:3+.wav
182,192,20525,1,0,0:0:0:70:4++.wav
402,192,20525,1,0,0:0:0:70:4+.wav
109,192,20608,1,0,0:0:0:100:L1--.wav
36,192,20608,1,0,0:0:0:100:L1-.wav
256,192,20608,1,0,0:0:0:70:5++.wav
475,192,20608,1,0,0:0:0:70:5+.wav
182,192,20691,1,0,0:0:0:70:1++.wav
402,192,20691,1,0,0:0:0:70:1+++.wav
329,192,20775,1,0,0:0:0:70:4+.wav
109,192,20775,1,0,0:0:0:70:4++.wav
182,192,20858,1,0,0:0:0:70:1++.wav
402,192,20858,1,0,0:0:0:70:1+++.wav
329,192,20941,1,0,0:0:0:70:3++.wav
109,192,20941,1,0,0:0:0:70:3+.wav
402,192,21025,1,0,0:0:0:70:4+.wav
182,192,21025,1,0,0:0:0:70:4++.wav
109,192,21066,1,0,0:0:0:70:3++.wav
329,192,21066,1,0,0:0:0:70:3+.wav
475,192,21108,1,0,0:0:0:70:4++.wav
256,192,21108,1,0,0:0:0:70:4+++.wav
402,192,21150,1,0,0:0:0:70:3+.wav
182,192,21150,1,0,0:0:0:70:3++.wav
329,192,21191,1,0,0:0:0:70:1++.wav
109,192,21191,1,0,0:0:0:70:1+.wav
182,192,21233,1,0,0:0:0:70:1#+.wav
402,192,21233,1,0,0:0:0:70:1#++.wav
256,192,21275,1,0,0:0:0:70:2+.wav
475,192,21275,1,0,0:0:0:70:2++.wav
36,192,21275,1,0,0:0:0:100:L2-.wav
109,192,21275,1,0,0:0:0:100:L2--.wav
182,192,21358,1,0,0:0:0:70:6++.wav
402,192,21358,1,0,0:0:0:70:6+.wav
109,192,21441,1,0,0:0:0:70:2+.wav
329,192,21441,1,0,0:0:0:70:2++.wav
256,192,21525,1,0,0:0:0:70:5+.wav
402,192,21525,1,0,0:0:0:70:5++.wav
36,192,21525,1,0,0:0:0:70:5.wav
329,192,21608,1,0,0:0:0:70:6+.wav
475,192,21608,1,0,0:0:0:70:6++.wav
109,192,21608,1,0,0:0:0:70:6.wav
36,192,21691,1,0,0:0:0:70:5.wav
256,192,21691,1,0,0:0:0:70:5+.wav
402,192,21691,1,0,0:0:0:70:5++.wav
329,192,21775,1,0,0:0:0:70:6+.wav
475,192,21775,1,0,0:0:0:70:6++.wav
109,192,21775,1,0,0:0:0:70:6.wav
402,192,21830,1,0,0:0:0:70:7++.wav
182,192,21830,1,0,0:0:0:70:7+.wav
256,192,21886,1,0,0:0:0:70:1++.wav
475,192,21886,1,0,0:0:0:70:1+++.wav
36,192,21941,1,0,0:0:0:100:L2-.wav
329,192,21941,1,0,0:0:0:100:L2--.wav
182,192,22025,1,0,0:0:0:70:1.wav
329,192,22108,1,0,0:0:0:70:6++.wav
475,192,22108,1,0,0:0:0:70:6+.wav
256,192,22191,1,0,0:0:0:70:6.wav
329,192,22275,1,0,0:0:0:100:L1--.wav
36,192,22275,1,0,0:0:0:100:L1-.wav
182,192,22275,1,0,0:0:0:70:5+.wav
475,192,22275,1,0,0:0:0:70:5++.wav
256,192,22358,1,0,0:0:0:70:5#++.wav
402,192,22358,1,0,0:0:0:70:5#+.wav
109,192,22358,1,0,0:0:0:70:5#.wav
182,192,22441,1,0,0:0:0:70:6++.wav
329,192,22441,1,0,0:0:0:70:6.wav
475,192,22441,1,0,0:0:0:70:6+.wav
109,192,22525,1,0,0:0:0:70:1.wav
36,192,22608,1,0,0:0:0:100:L6#---.wav
182,192,22608,1,0,0:0:0:100:L6#--.wav
329,192,22608,1,0,0:0:0:70:6.wav
475,192,22608,1,0,0:0:0:70:6+.wav
475,192,22691,1,0,0:0:0:70:6.wav
329,192,22691,1,0,0:0:0:70:6+.wav
109,192,22775,1,0,0:0:0:70:4+.wav
402,192,22775,1,0,0:0:0:70:4++.wav
256,192,22858,1,0,0:0:0:70:4.wav
36,192,22941,1,0,0:0:0:70:2#+.wav
182,192,22941,1,0,0:0:0:70:2#++.wav
109,192,23025,1,0,0:0:0:70:3++.wav
256,192,23025,1,0,0:0:0:70:3+.wav
182,192,23108,1,0,0:0:0:70:4++.wav
329,192,23108,1,0,0:0:0:70:4+.wav
256,192,23191,1,0,0:0:0:70:4#+.wav
402,192,23191,1,0,0:0:0:70:4#++.wav
36,192,23275,1,0,0:0:0:100:L1--.wav
182,192,23275,1,0,0:0:0:100:L1-.wav
329,192,23275,1,0,0:0:0:70:5+.wav
475,192,23275,1,0,0:0:0:70:5++.wav
475,192,23358,1,0,0:0:0:70:5++.wav
256,192,23441,1,0,0:0:0:70:4+.wav
402,192,23441,1,0,0:0:0:70:4++.wav
402,192,23525,1,0,0:0:0:70:4++.wav
36,192,23608,1,0,0:0:0:70:3+.wav
256,192,23608,1,0,0:0:0:70:3++.wav
109,192,23691,1,0,0:0:0:70:4+.wav
329,192,23691,1,0,0:0:0:70:4++.wav
182,192,23775,1,0,0:0:0:70:5+.wav
402,192,23775,1,0,0:0:0:70:5++.wav
109,192,23858,1,0,0:0:0:70:1+.wav
329,192,23858,1,0,0:0:0:70:1++.wav
402,192,23900,1,0,0:0:0:70:1#+.wav
182,192,23900,1,0,0:0:0:70:1#++.wav
36,192,23941,1,0,0:0:0:100:L2--.wav
109,192,23941,1,0,0:0:0:100:L2-.wav
256,192,23941,1,0,0:0:0:70:2+.wav
475,192,23941,1,0,0:0:0:70:2++.wav
182,192,24108,1,0,0:0:0:70:6+.wav
402,192,24108,1,0,0:0:0:70:6++.wav
329,192,24191,1,0,0:0:0:70:5++.wav
109,192,24191,1,0,0:0:0:70:5+.wav
475,192,24275,1,0,0:0:0:70:L3-.wav
182,192,24275,1,0,0:0:0:70:L3--.wav
36,192,24275,1,0,0:0:0:70:5#+.wav
329,192,24275,1,0,0:0:0:70:5#++.wav
402,192,24316,1,0,0:0:0:70:6++.wav
109,192,24316,1,0,0:0:0:70:6+.wav
182,192,24358,1,0,0:0:0:70:5#+.wav
329,192,24358,1,0,0:0:0:70:5#++.wav
402,192,24400,1,0,0:0:0:70:6++.wav
109,192,24400,1,0,0:0:0:70:6+.wav
329,192,24441,1,0,0:0:0:70:5#++.wav
182,192,24441,1,0,0:0:0:70:5#+.wav
109,192,24483,1,0,0:0:0:70:6+.wav
402,192,24483,1,0,0:0:0:70:6++.wav
182,192,24525,1,0,0:0:0:70:5#+.wav
329,192,24525,1,0,0:0:0:70:5#++.wav
402,192,24566,1,0,0:0:0:70:6++.wav
109,192,24566,1,0,0:0:0:70:6+.wav
182,192,24608,1,0,0:0:0:100:L6--.wav
36,192,24608,1,0,0:0:0:100:L6-.wav
256,192,24608,1,0,0:0:0:70:1#++.wav
329,192,24608,1,0,0:0:0:70:1#+++.wav
475,192,24608,1,0,0:0:0:70:6+++.wav
109,192,24691,1,0,0:0:0:70:1#+.wav
256,192,24691,1,0,0:0:0:70:6+.wav
402,192,24691,1,0,0:0:0:70:3++.wav
182,192,24775,1,0,0:0:0:70:6+.wav
329,192,24775,1,0,0:0:0:70:6++.wav
475,192,24775,1,0,0:0:0:70:6+++.wav
36,192,24775,1,0,0:0:0:70:6.wav
475,192,24858,1,0,0:0:0:70:6+++.wav
109,192,24858,1,0,0:0:0:70:1#+.wav
256,192,24858,1,0,0:0:0:70:1#++.wav
402,192,24858,1,0,0:0:0:70:1#+++.wav
36,192,24941,1,0,0:0:0:100:L6--.wav
182,192,24941,1,0,0:0:0:70:5+.wav
329,192,24941,1,0,0:0:0:70:5++.wav
109,192,25025,1,0,0:0:0:70:5#+.wav
256,192,25025,1,0,0:0:0:70:5#++.wav
402,192,25025,1,0,0:0:0:70:5#.wav
36,192,25053,1,0,0:0:0:100:L4--.wav
475,192,25108,1,0,0:0:0:70:6.wav
329,192,25108,1,0,0:0:0:70:6+.wav
182,192,25108,1,0,0:0:0:70:6++.wav
36,192,25164,1,0,0:0:0:100:L1#-.wav
402,192,25191,1,0,0:0:0:70:6.wav
256,192,25191,1,0,0:0:0:70:6+.wav
182,192,25233,1,0,0:0:0:70:5#+.wav
329,192,25233,1,0,0:0:0:70:5#.wav
256,192,25275,1,0,0:0:0:70:6+.wav
475,192,25275,1,0,0:0:0:70:6.wav
36,192,25275,1,0,0:0:0:100:L6#--.wav
109,192,25275,1,0,0:0:0:100:L6#---.wav
182,192,25441,1,0,0:0:0:70:4++.wav
402,192,25441,1,0,0:0:0:70:4+.wav
109,192,25608,1,0,0:0:0:70:3++.wav
329,192,25608,1,0,0:0:0:70:3+.wav
182,192,25691,1,0,0:0:0:70:4++.wav
402,192,25691,1,0,0:0:0:70:4+.wav
329,192,25775,1,0,0:0:0:70:3+.wav
109,192,25775,1,0,0:0:0:70:3++.wav
402,192,25858,1,0,0:0:0:70:4+.wav
182,192,25858,1,0,0:0:0:70:4++.wav
36,192,25941,1,0,0:0:0:70:L1--.wav
329,192,25941,1,0,0:0:0:70:L1-.wav
109,192,25941,1,0,0:0:0:70:5+.wav
475,192,25941,1,0,0:0:0:70:5++.wav
182,192,26025,1,0,0:0:0:70:1++.wav
402,192,26025,1,0,0:0:0:70:1+++.wav
109,192,26108,1,0,0:0:0:70:4++.wav
329,192,26108,1,0,0:0:0:70:4+.wav
402,192,26191,1,0,0:0:0:70:1+++.wav
182,192,26191,1,0,0:0:0:70:1++.wav
256,192,26275,1,0,0:0:0:70:3++.wav
36,192,26275,1,0,0:0:0:70:3+.wav
329,192,26358,1,0,0:0:0:70:4+.wav
109,192,26358,1,0,0:0:0:70:4++.wav
256,192,26400,1,0,0:0:0:70:3++.wav
36,192,26400,1,0,0:0:0:70:3+.wav
475,192,26441,1,0,0:0:0:70:4+++.wav
182,192,26441,1,0,0:0:0:70:4++.wav
402,192,26483,1,0,0:0:0:70:3++.wav
109,192,26483,1,0,0:0:0:70:3+.wav
36,192,26525,1,0,0:0:0:70:1+.wav
329,192,26525,1,0,0:0:0:70:1++.wav
256,192,26566,1,0,0:0:0:70:1#+.wav
109,192,26566,1,0,0:0:0:70:1#++.wav
182,192,26608,1,0,0:0:0:70:L2-.wav
36,192,26608,1,0,0:0:0:70:L2--.wav
329,192,26608,1,0,0:0:0:70:2+.wav
475,192,26608,1,0,0:0:0:70:2++.wav
182,192,26775,1,0,0:0:0:70:6+.wav
402,192,26775,1,0,0:0:0:70:6++.wav
329,192,26858,1,0,0:0:0:70:2++.wav
109,192,26858,1,0,0:0:0:70:2+.wav
256,192,26941,1,0,0:0:0:70:5+.wav
402,192,26941,1,0,0:0:0:70:5++.wav
36,192,26941,1,0,0:0:0:70:5.wav
475,192,27025,1,0,0:0:0:70:6++.wav
329,192,27025,1,0,0:0:0:70:6+.wav
109,192,27025,1,0,0:0:0:70:6.wav
256,192,27108,1,0,0:0:0:70:5+.wav
402,192,27108,1,0,0:0:0:70:5++.wav
36,192,27108,1,0,0:0:0:70:5.wav
329,192,27191,1,0,0:0:0:70:6++.wav
109,192,27191,1,0,0:0:0:70:6+.wav
402,192,27233,1,0,0:0:0:70:7++.wav
182,192,27233,1,0,0:0:0:70:7+.wav
36,192,27275,1,0,0:0:0:70:L2--.wav
256,192,27275,1,0,0:0:0:70:L2-.wav
329,192,27275,1,0,0:0:0:70:1++.wav
475,192,27275,1,0,0:0:0:70:1+++.wav
109,192,27358,1,0,0:0:0:70:1.wav
256,192,27441,1,0,0:0:0:70:6+.wav
402,192,27441,1,0,0:0:0:70:6++.wav
182,192,27525,1,0,0:0:0:70:6.wav
109,192,27608,1,0,0:0:0:70:L1-.wav
36,192,27608,1,0,0:0:0:70:L1--.wav
256,192,27608,1,0,0:0:0:70:5+.wav
475,192,27608,1,0,0:0:0:70:5++.wav
182,192,27691,1,0,0:0:0:70:3+.wav
329,192,27691,1,0,0:0:0:70:3++.wav
256,192,27775,1,0,0:0:0:70:4#+.wav
402,192,27775,1,0,0:0:0:70:4#++.wav
256,192,27858,1,0,0:0:0:70:4#+.wav
402,192,27858,1,0,0:0:0:70:4#++.wav
256,192,27941,1,0,0:0:0:100:L5--.wav
36,192,27941,1,0,0:0:0:100:L5---.wav
109,192,27941,1,0,0:0:0:70:2+.wav
402,192,27941,1,0,0:0:0:70:2++.wav
475,192,27941,1,0,0:0:0:70:5#++.wav
329,192,27941,1,0,0:0:0:70:5+.wav
329,192,28053,1,0,0:0:0:70:5#++.wav
256,192,28053,1,0,0:0:0:70:2++.wav
109,192,28053,1,0,0:0:0:70:5+.wav
36,192,28053,1,0,0:0:0:70:2+.wav
109,192,28164,1,0,0:0:0:70:5+.wav
36,192,28164,1,0,0:0:0:70:2+.wav
329,192,28164,1,0,0:0:0:70:5#++.wav
256,192,28164,1,0,0:0:0:70:2++.wav
329,192,28275,1,0,0:0:0:70:5#++.wav
256,192,28275,1,0,0:0:0:70:2++.wav
109,192,28275,1,0,0:0:0:70:5+.wav
36,192,28275,1,0,0:0:0:70:2+.wav
109,192,28386,1,0,0:0:0:70:5+.wav
36,192,28386,1,0,0:0:0:70:2+.wav
329,192,28386,1,0,0:0:0:70:5#++.wav
256,192,28386,1,0,0:0:0:70:2++.wav
329,192,28497,1,0,0:0:0:70:5#++.wav
256,192,28497,1,0,0:0:0:70:2++.wav
109,192,28497,1,0,0:0:0:70:5+.wav
36,192,28497,1,0,0:0:0:70:2+.wav
36,192,28608,1,0,0:0:0:70:L6---.wav
182,192,28608,1,0,0:0:0:70:L6--.wav
109,192,28608,1,0,0:0:0:70:3+.wav
402,192,28608,1,0,0:0:0:70:6++.wav
329,192,28608,1,0,0:0:0:70:3++.wav
475,192,28608,1,0,0:0:0:70:6+.wav
329,192,28719,1,0,0:0:0:70:6++.wav
402,192,28719,1,0,0:0:0:70:6+.wav
182,192,28719,1,0,0:0:0:70:3++.wav
109,192,28719,1,0,0:0:0:70:3+.wav
329,192,28830,1,0,0:0:0:70:6++.wav
402,192,28830,1,0,0:0:0:70:6+.wav
182,192,28830,1,0,0:0:0:70:3++.wav
109,192,28830,1,0,0:0:0:70:3+.wav
182,192,28941,1,0,0:0:0:70:3++.wav
109,192,28941,1,0,0:0:0:70:3+.wav
329,192,28941,1,0,0:0:0:70:6++.wav
402,192,28941,1,0,0:0:0:70:6+.wav
329,192,29053,1,0,0:0:0:70:6++.wav
402,192,29053,1,0,0:0:0:70:6+.wav
182,192,29053,1,0,0:0:0:70:3++.wav
109,192,29053,1,0,0:0:0:70:3+.wav
182,192,29164,1,0,0:0:0:70:3++.wav
109,192,29164,1,0,0:0:0:70:3+.wav
329,192,29164,1,0,0:0:0:70:6++.wav
402,192,29164,1,0,0:0:0:70:6+.wav
256,192,29275,1,0,0:0:0:70:6#++.wav
182,192,29275,1,0,0:0:0:70:4++.wav
109,192,29275,1,0,0:0:0:70:L6#---.wav
402,192,29275,1,0,0:0:0:70:4+.wav
475,192,29275,1,0,0:0:0:70:6#+.wav
36,192,29275,1,0,0:0:0:70:L6#--.wav
182,192,29386,1,0,0:0:0:70:4++.wav
256,192,29386,1,0,0:0:0:70:6#++.wav
402,192,29386,1,0,0:0:0:70:4+.wav
475,192,29386,1,0,0:0:0:70:6#+.wav
182,192,29497,1,0,0:0:0:70:4++.wav
256,192,29497,1,0,0:0:0:70:6#++.wav
475,192,29497,1,0,0:0:0:70:6#+.wav
402,192,29497,1,0,0:0:0:70:4+.wav
475,192,29608,1,0,0:0:0:70:6#+.wav
402,192,29608,1,0,0:0:0:70:4+.wav
182,192,29608,1,0,0:0:0:70:4++.wav
256,192,29608,1,0,0:0:0:70:6#++.wav
182,192,29719,1,0,0:0:0:70:4++.wav
256,192,29719,1,0,0:0:0:70:6#++.wav
402,192,29719,1,0,0:0:0:70:4+.wav
475,192,29719,1,0,0:0:0:70:6#+.wav
36,192,29830,1,0,0:0:0:70:4++.wav
182,192,29830,1,0,0:0:0:70:7+.wav
329,192,29830,1,0,0:0:0:70:4+.wav
475,192,29830,1,0,0:0:0:70:7++.wav
36,192,29941,1,0,0:0:0:100:L1--.wav
109,192,29941,1,0,0:0:0:100:3+.wav
182,192,29941,1,0,0:0:0:100:5+.wav
256,192,29941,1,0,0:0:0:100:1++.wav
329,192,29941,1,0,0:0:0:100:3++.wav
402,192,29941,1,0,0:0:0:100:5++.wav
475,192,29941,1,0,0:0:0:100:1+++.wav
109,192,30025,1,0,0:0:0:70:6.wav
256,192,30025,1,0,0:0:0:70:6+.wav
402,192,30025,1,0,0:0:0:70:6++.wav
36,192,30108,1,0,0:0:0:70:1+.wav
182,192,30108,1,0,0:0:0:70:1++.wav
329,192,30108,1,0,0:0:0:70:1+++.wav
109,192,30191,1,0,0:0:0:70:4+.wav
256,192,30191,1,0,0:0:0:70:4+++.wav
402,192,30191,1,0,0:0:0:70:4++.wav
182,192,30275,1,0,0:0:0:70:3+++.wav
329,192,30275,1,0,0:0:0:70:3++.wav
475,192,30275,1,0,0:0:0:70:3+.wav
256,192,30358,1,0,0:0:0:70:1+++.wav
109,192,30358,1,0,0:0:0:70:1++.wav
402,192,30358,1,0,0:0:0:70:1+.wav
36,192,30441,1,0,0:0:0:70:5++.wav
182,192,30441,1,0,0:0:0:70:5+.wav
329,192,30441,1,0,0:0:0:70:5.wav
256,192,30525,1,0,0:0:0:70:3++.wav
402,192,30525,1,0,0:0:0:70:3+.wav
109,192,30525,1,0,0:0:0:70:3+++.wav
329,192,30566,1,0,0:0:0:70:5#+.wav
475,192,30566,1,0,0:0:0:70:5#.wav
256,192,30608,1,0,0:0:0:70:5.wav
402,192,30608,1,0,0:0:0:70:5+.wav
36,192,30608,1,0,0:0:0:70:L6#--.wav
182,192,30608,1,0,0:0:0:70:L6#-.wav
109,192,30775,1,0,0:0:0:70:4++.wav
402,192,30775,1,0,0:0:0:70:4+.wav
329,192,30941,1,0,0:0:0:70:3+.wav
36,192,30941,1,0,0:0:0:70:3++.wav
475,192,31025,1,0,0:0:0:70:4+.wav
182,192,31025,1,0,0:0:0:70:4++.wav
329,192,31108,1,0,0:0:0:70:3+.wav
36,192,31108,1,0,0:0:0:70:3++.wav
475,192,31191,1,0,0:0:0:70:4+.wav
182,192,31191,1,0,0:0:0:70:4++.wav
109,192,31275,1,0,0:0:0:100:L1--.wav
256,192,31275,1,0,0:0:0:70:5++.wav
36,192,31275,1,0,0:0:0:70:L1---.wav
402,192,31275,1,0,0:0:0:70:5+.wav
329,192,31358,1,0,0:0:0:70:1+++.wav
182,192,31358,1,0,0:0:0:70:1++.wav
256,192,31441,1,0,0:0:0:70:4++.wav
402,192,31441,1,0,0:0:0:70:4+.wav
182,192,31525,1,0,0:0:0:70:1++.wav
329,192,31525,1,0,0:0:0:70:1+++.wav
109,192,31608,1,0,0:0:0:70:3+.wav
256,192,31608,1,0,0:0:0:70:3++.wav
402,192,31691,1,0,0:0:0:70:4+.wav
182,192,31691,1,0,0:0:0:70:4++.wav
329,192,31733,1,0,0:0:0:70:3+.wav
109,192,31733,1,0,0:0:0:70:3++.wav
36,192,31775,1,0,0:0:0:70:4+++.wav
256,192,31775,1,0,0:0:0:70:4++.wav
182,192,31816,1,0,0:0:0:70:3++.wav
402,192,31816,1,0,0:0:0:70:3+.wav
329,192,31858,1,0,0:0:0:70:1++.wav
109,192,31858,1,0,0:0:0:70:1+.wav
402,192,31900,1,0,0:0:0:70:1#++.wav
182,192,31900,1,0,0:0:0:70:1#+.wav
36,192,31941,1,0,0:0:0:70:L2--.wav
475,192,31941,1,0,0:0:0:70:2++.wav
256,192,31941,1,0,0:0:0:70:2+.wav
109,192,31941,1,0,0:0:0:70:L2---.wav
182,192,32025,1,0,0:0:0:70:6++.wav
402,192,32025,1,0,0:0:0:70:6+.wav
109,192,32108,1,0,0:0:0:70:2+.wav
329,192,32108,1,0,0:0:0:70:2++.wav
182,192,32191,1,0,0:0:0:70:5+.wav
36,192,32191,1,0,0:0:0:70:5.wav
475,192,32191,1,0,0:0:0:70:5++.wav
256,192,32275,1,0,0:0:0:70:6++.wav
402,192,32275,1,0,0:0:0:70:6+.wav
109,192,32275,1,0,0:0:0:70:6.wav
182,192,32358,1,0,0:0:0:70:5+.wav
36,192,32358,1,0,0:0:0:70:5.wav
475,192,32358,1,0,0:0:0:70:5++.wav
402,192,32441,1,0,0:0:0:70:6++.wav
256,192,32441,1,0,0:0:0:70:6+.wav
109,192,32441,1,0,0:0:0:70:6.wav
182,192,32497,1,0,0:0:0:70:7+.wav
329,192,32497,1,0,0:0:0:70:7++.wav
256,192,32553,1,0,0:0:0:70:1++.wav
475,192,32553,1,0,0:0:0:70:1+++.wav
36,192,32608,1,0,0:0:0:70:L2---.wav
402,192,32608,1,0,0:0:0:100:L2--.wav
182,192,32691,1,0,0:0:0:70:1.wav
475,192,32775,1,0,0:0:0:70:6+.wav
329,192,32775,1,0,0:0:0:70:6++.wav
256,192,32858,1,0,0:0:0:70:6.wav
329,192,32941,1,0,0:0:0:100:L1--.wav
36,192,32941,1,0,0:0:0:100:L1-.wav
182,192,32941,1,0,0:0:0:70:5+.wav
475,192,32941,1,0,0:0:0:70:5++.wav
402,192,33025,1,0,0:0:0:70:5#+.wav
256,192,33025,1,0,0:0:0:70:5#++.wav
109,192,33025,1,0,0:0:0:70:5#.wav
329,192,33108,1,0,0:0:0:70:6.wav
475,192,33108,1,0,0:0:0:70:6+.wav
182,192,33108,1,0,0:0:0:70:6++.wav
109,192,33191,1,0,0:0:0:70:1.wav
36,192,33275,1,0,0:0:0:100:L6#---.wav
182,192,33275,1,0,0:0:0:100:L6#--.wav
475,192,33275,1,0,0:0:0:70:6+.wav
329,192,33275,1,0,0:0:0:70:6.wav
329,192,33358,1,0,0:0:0:70:6+.wav
475,192,33358,1,0,0:0:0:70:6.wav
256,192,33441,1,0,0:0:0:70:4+.wav
402,192,33441,1,0,0:0:0:70:4++.wav
182,192,33525,1,0,0:0:0:70:4.wav
256,192,33608,1,0,0:0:0:70:2#++.wav
36,192,33608,1,0,0:0:0:70:2#+.wav
109,192,33691,1,0,0:0:0:70:3++.wav
329,192,33691,1,0,0:0:0:70:3+.wav
182,192,33775,1,0,0:0:0:70:4++.wav
402,192,33775,1,0,0:0:0:70:4+.wav
109,192,33858,1,0,0:0:0:70:4#++.wav
256,192,33858,1,0,0:0:0:70:4#+.wav
182,192,33941,1,0,0:0:0:70:L1---.wav
329,192,33941,1,0,0:0:0:70:5+.wav
475,192,33941,1,0,0:0:0:70:5++.wav
36,192,33941,1,0,0:0:0:100:L1--.wav
475,192,34025,1,0,0:0:0:70:5++.wav
109,192,34108,1,0,0:0:0:70:4+.wav
256,192,34108,1,0,0:0:0:70:4++.wav
256,192,34191,1,0,0:0:0:70:4++.wav
36,192,34275,1,0,0:0:0:70:3+.wav
402,192,34275,1,0,0:0:0:70:3++.wav
329,192,34358,1,0,0:0:0:70:4++.wav
109,192,34358,1,0,0:0:0:70:4+.wav
182,192,34441,1,0,0:0:0:70:5+.wav
402,192,34441,1,0,0:0:0:70:5++.wav
329,192,34525,1,0,0:0:0:70:1++.wav
36,192,34525,1,0,0:0:0:70:1+.wav
109,192,34566,1,0,0:0:0:70:1#++.wav
402,192,34566,1,0,0:0:0:70:1#+.wav
475,192,34608,1,0,0:0:0:70:2++.wav
182,192,34608,1,0,0:0:0:100:L2--.wav
36,192,34608,1,0,0:0:0:70:L2---.wav
256,192,34608,1,0,0:0:0:70:2+.wav
402,192,34775,1,0,0:0:0:70:6++.wav
109,192,34775,1,0,0:0:0:70:6+.wav
182,192,34858,1,0,0:0:0:70:5+.wav
329,192,34858,1,0,0:0:0:70:5++.wav
182,192,34941,1,0,0:0:0:70:L2---.wav
475,192,34941,1,0,0:0:0:70:L2--.wav
36,192,34941,1,0,0:0:0:70:5#+.wav
329,192,34941,1,0,0:0:0:70:5#++.wav
402,192,34983,1,0,0:0:0:70:6++.wav
109,192,34983,1,0,0:0:0:70:6+.wav
329,192,35025,1,0,0:0:0:70:5#++.wav
182,192,35025,1,0,0:0:0:70:5#+.wav
402,192,35066,1,0,0:0:0:70:6++.wav
109,192,35066,1,0,0:0:0:70:6+.wav
182,192,35108,1,0,0:0:0:70:5#+.wav
329,192,35108,1,0,0:0:0:70:5#++.wav
402,192,35150,1,0,0:0:0:70:6++.wav
109,192,35150,1,0,0:0:0:70:6+.wav
182,192,35191,1,0,0:0:0:70:5#+.wav
329,192,35191,1,0,0:0:0:70:5#++.wav
402,192,35233,1,0,0:0:0:70:6++.wav
109,192,35233,1,0,0:0:0:70:6+.wav
475,192,35275,1,0,0:0:0:70:6+++.wav
182,192,35275,1,0,0:0:0:70:L3---.wav
36,192,35275,1,0,0:0:0:70:L3--.wav
256,192,35275,1,0,0:0:0:70:1#++.wav
329,192,35275,1,0,0:0:0:70:1#+++.wav
109,192,35358,1,0,0:0:0:70:1#+.wav
402,192,35358,1,0,0:0:0:70:3++.wav
256,192,35358,1,0,0:0:0:70:6+.wav
329,192,35441,1,0,0:0:0:70:6++.wav
182,192,35441,1,0,0:0:0:70:6+.wav
475,192,35441,1,0,0:0:0:70:6+++.wav
36,192,35441,1,0,0:0:0:70:6.wav
109,192,35525,1,0,0:0:0:70:1#+.wav
475,192,35525,1,0,0:0:0:70:6+++.wav
256,192,35525,1,0,0:0:0:70:1#++.wav
402,192,35525,1,0,0:0:0:70:1#+++.wav
182,192,35608,1,0,0:0:0:70:5+.wav
329,192,35608,1,0,0:0:0:70:5++.wav
109,192,35691,1,0,0:0:0:70:5#+.wav
402,192,35691,1,0,0:0:0:70:5#.wav
256,192,35691,1,0,0:0:0:70:5#++.wav
329,192,35775,1,0,0:0:0:70:6+.wav
475,192,35775,1,0,0:0:0:70:6.wav
182,192,35775,1,0,0:0:0:70:6++.wav
402,192,35858,1,0,0:0:0:70:6.wav
256,192,35858,1,0,0:0:0:70:6+.wav
329,192,35900,1,0,0:0:0:70:5#.wav
182,192,35900,1,0,0:0:0:70:5#+.wav
36,192,35941,1,0,0:0:0:100:L6#--.wav
256,192,35941,1,0,0:0:0:70:6+.wav
475,192,35941,1,0,0:0:0:70:6.wav
109,192,35941,1,0,0:0:0:100:L6#---.wav
402,192,36108,1,0,0:0:0:70:4+.wav
182,192,36108,1,0,0:0:0:70:4++.wav
36,192,36275,1,0,0:0:0:70:3++.wav
329,192,36275,1,0,0:0:0:70:3+.wav
402,192,36358,1,0,0:0:0:70:4+.wav
182,192,36358,1,0,0:0:0:70:4++.wav
36,192,36441,1,0,0:0:0:70:3++.wav
329,192,36441,1,0,0:0:0:70:3+.wav
402,192,36525,1,0,0:0:0:70:4+.wav
182,192,36525,1,0,0:0:0:70:4++.wav
329,192,36608,1,0,0:0:0:70:L1---.wav
36,192,36608,1,0,0:0:0:70:L1--.wav
475,192,36608,1,0,0:0:0:70:5++.wav
256,192,36608,1,0,0:0:0:70:5+.wav
402,192,36691,1,0,0:0:0:70:1+++.wav
182,192,36691,1,0,0:0:0:70:1++.wav
109,192,36775,1,0,0:0:0:70:4++.wav
329,192,36775,1,0,0:0:0:70:4+.wav
402,192,36858,1,0,0:0:0:70:1+++.wav
182,192,36858,1,0,0:0:0:70:1++.wav
475,192,36941,1,0,0:0:0:70:3+.wav
256,192,36941,1,0,0:0:0:70:3++.wav
109,192,37025,1,0,0:0:0:70:4++.wav
329,192,37025,1,0,0:0:0:70:4+.wav
36,192,37066,1,0,0:0:0:70:3+.wav
256,192,37066,1,0,0:0:0:70:3++.wav
182,192,37108,1,0,0:0:0:70:4++.wav
475,192,37108,1,0,0:0:0:70:4+++.wav
109,192,37150,1,0,0:0:0:70:3+.wav
402,192,37150,1,0,0:0:0:70:3++.wav
36,192,37191,1,0,0:0:0:70:1+.wav
329,192,37191,1,0,0:0:0:70:1++.wav
109,192,37233,1,0,0:0:0:70:1#++.wav
256,192,37233,1,0,0:0:0:70:1#+.wav
182,192,37275,1,0,0:0:0:70:L2---.wav
329,192,37275,1,0,0:0:0:70:2+.wav
475,192,37275,1,0,0:0:0:70:2++.wav
36,192,37275,1,0,0:0:0:70:L2--.wav
402,192,37441,1,0,0:0:0:70:6++.wav
109,192,37441,1,0,0:0:0:70:6+.wav
329,192,37525,1,0,0:0:0:70:2++.wav
182,192,37525,1,0,0:0:0:70:2+.wav
402,192,37608,1,0,0:0:0:70:5++.wav
256,192,37608,1,0,0:0:0:70:5+.wav
36,192,37608,1,0,0:0:0:70:5.wav
329,192,37691,1,0,0:0:0:70:6+.wav
475,192,37691,1,0,0:0:0:70:6++.wav
109,192,37691,1,0,0:0:0:70:6.wav
256,192,37775,1,0,0:0:0:70:5+.wav
36,192,37775,1,0,0:0:0:70:5.wav
402,192,37775,1,0,0:0:0:70:5++.wav
329,192,37858,1,0,0:0:0:70:6++.wav
182,192,37858,1,0,0:0:0:70:6+.wav
402,192,37900,1,0,0:0:0:70:7++.wav
109,192,37900,1,0,0:0:0:70:7+.wav
475,192,37941,1,0,0:0:0:70:1+++.wav
36,192,37941,1,0,0:0:0:70:L2--.wav
256,192,37941,1,0,0:0:0:70:L2---.wav
329,192,37941,1,0,0:0:0:70:1++.wav
109,192,38025,1,0,0:0:0:70:1.wav
256,192,38108,1,0,0:0:0:70:6+.wav
402,192,38108,1,0,0:0:0:70:6++.wav
182,192,38191,1,0,0:0:0:70:6.wav
256,192,38275,1,0,0:0:0:70:L1---.wav
36,192,38275,1,0,0:0:0:70:L1--.wav
109,192,38275,1,0,0:0:0:70:5+.wav
475,192,38275,1,0,0:0:0:70:5++.wav
182,192,38358,1,0,0:0:0:70:3+.wav
329,192,38358,1,0,0:0:0:70:3++.wav
256,192,38441,1,0,0:0:0:70:4#+.wav
402,192,38441,1,0,0:0:0:70:4#++.wav
256,192,38525,1,0,0:0:0:70:4#+.wav
402,192,38525,1,0,0:0:0:70:4#++.wav
109,192,38608,1,0,0:0:0:100:L5--.wav
36,192,38608,1,0,0:0:0:100:L5---.wav
182,192,38608,1,0,0:0:0:70:5+.wav
329,192,38608,1,0,0:0:0:70:6#+.wav
475,192,38608,1,0,0:0:0:70:5++.wav
109,192,38775,1,0,0:0:0:100:L5--.wav
36,192,38775,1,0,0:0:0:70:L5-.wav
256,192,38775,1,0,0:0:0:70:5+.wav
329,192,38775,1,0,0:0:0:70:6#+.wav
475,192,38775,1,0,0:0:0:70:5++.wav
475,192,38858,1,0,0:0:0:70:5++.wav
329,192,38858,1,0,0:0:0:70:6#+.wav
256,192,38858,1,0,0:0:0:70:5+.wav
109,192,38941,1,0,0:0:0:100:L5--.wav
36,192,38941,1,0,0:0:0:100:L5---.wav
256,192,38941,1,0,0:0:0:70:5+.wav
329,192,38941,1,0,0:0:0:70:6#+.wav
475,192,38941,1,0,0:0:0:70:5++.wav
36,192,39108,1,0,0:0:0:70:L5-.wav
109,192,39108,1,0,0:0:0:100:L5--.wav
402,192,39108,1,0,0:0:0:70:1+.wav
256,192,39108,1,0,0:0:0:70:3+.wav
475,192,39108,1,0,0:0:0:70:1++.wav
329,192,39191,1,0,0:0:0:70:5+.wav
182,192,39191,1,0,0:0:0:70:3+.wav
402,192,39191,1,0,0:0:0:70:3++.wav
109,192,39275,1,0,0:0:0:70:L6---.wav
36,192,39275,1,0,0:0:0:70:L6--.wav
329,192,39275,1,0,0:0:0:70:5+.wav
182,192,39275,1,0,0:0:0:70:6#+.wav
475,192,39275,1,0,0:0:0:70:5++.wav
109,192,39358,1,0,0:0:0:70:6+.wav
256,192,39358,1,0,0:0:0:70:6++.wav
402,192,39358,1,0,0:0:0:70:1++.wav
36,192,39441,1,0,0:0:0:70:L6--.wav
182,192,39441,1,0,0:0:0:70:L6-.wav
329,192,39441,1,0,0:0:0:70:2+.wav
402,192,39441,1,0,0:0:0:70:4+.wav
475,192,39441,1,0,0:0:0:70:2++.wav
329,192,39525,1,0,0:0:0:70:6#+.wav
256,192,39525,1,0,0:0:0:70:5++.wav
109,192,39525,1,0,0:0:0:70:5+.wav
182,192,39608,1,0,0:0:0:70:L6---.wav
36,192,39608,1,0,0:0:0:70:L6--.wav
402,192,39608,1,0,0:0:0:70:2+.wav
329,192,39608,1,0,0:0:0:70:4+.wav
475,192,39608,1,0,0:0:0:70:2++.wav
109,192,39691,1,0,0:0:0:70:4+.wav
256,192,39691,1,0,0:0:0:70:6+.wav
402,192,39691,1,0,0:0:0:70:4++.wav
36,192,39775,1,0,0:0:0:70:L6--.wav
475,192,39775,1,0,0:0:0:70:5++.wav
182,192,39775,1,0,0:0:0:70:5+.wav
329,192,39775,1,0,0:0:0:70:6#+.wav
402,192,39816,1,0,0:0:0:70:4++.wav
109,192,39816,1,0,0:0:0:70:4+.wav
256,192,39816,1,0,0:0:0:70:6+.wav
329,192,39858,1,0,0:0:0:70:5+.wav
182,192,39858,1,0,0:0:0:70:3+.wav
475,192,39858,1,0,0:0:0:70:3++.wav
109,192,39900,1,0,0:0:0:70:4++.wav
256,192,39900,1,0,0:0:0:70:4+.wav
402,192,39900,1,0,0:0:0:70:6+.wav
36,192,39941,1,0,0:0:0:70:2+.wav
182,192,39941,1,0,0:0:0:70:4+.wav
329,192,39941,1,0,0:0:0:70:6+.wav
475,192,39941,1,0,0:0:0:70:2++.wav
36,192,40108,1,0,0:0:0:100:L2--.wav
256,192,40108,1,0,0:0:0:100:L2-.wav
109,192,40275,1,0,0:0:0:100:L3--.wav
256,192,40275,1,0,0:0:0:100:L3---.wav
109,192,40441,1,0,0:0:0:100:L3--.wav
329,192,40441,1,0,0:0:0:100:L3-.wav
182,192,40608,1,0,0:0:0:100:L4---.wav
329,192,40608,1,0,0:0:0:100:L4--.wav
402,192,40775,1,0,0:0:0:100:L4--.wav
182,192,40775,1,0,0:0:0:100:L4-.wav
256,192,40941,1,0,0:0:0:100:L5---.wav
402,192,40941,1,0,0:0:0:100:L5--.wav
475,192,41108,1,0,0:0:0:100:L5--.wav
256,192,41108,1,0,0:0:0:100:L5-.wav
