osu file format v7

[General]
AudioFilename: Katy_Perry_California_Gurls_feat_Snoop_Dogg.mp3
AudioLeadIn: 0
PreviewTime: 53816
Countdown: 1
SampleSet: Soft
StackLeniency: 0.7
Mode: 0
LetterboxInBreaks: 1
StoryFireInFront: 0
EpilepsyWarning: 1

[Editor]
DistanceSpacing: 0.899999976158142
BeatDivisor: 4
GridSize: 32

[Metadata]
Title:California Gurls
Artist:Katy Perry feat. Snoop Dogg
Creator:Skyripper
Version:Easy
Source:
Tags:

[Difficulty]
HPDrainRate:0
CircleSize:3
OverallDifficulty:1
SliderMultiplier:1
SliderTickRate:2

[Events]
//Background and Video events
0,0,"katy perry sexy bg.jpg"
//Break Periods
2,38182,52142
2,99621,111422
//Storyboard Layer 0 (Background)
//Storyboard Layer 1 (Fail)
//Storyboard Layer 2 (Pass)
//Storyboard Layer 3 (Foreground)
//Storyboard Sound Samples
//Background Colour Transformations
3,100,0,0,0

[TimingPoints]
7742,480,4,2,0,59,1,0
22846,-100,4,1,0,31,0,0
53798,-100,4,1,0,71,0,1
69102,-100,4,1,0,71,0,0
69162,-100,4,1,0,100,0,1
84536,-100,4,1,0,26,0,0
115242,-100,4,1,0,72,0,1
130362,-100,4,1,0,72,0,0
130602,-100,4,1,0,72,0,1
144042,-100,4,1,0,44,0,0
145002,-100,4,1,0,19,0,0
145962,-100,4,1,0,0,0,0

[Colours]
Combo1 : 204,0,0
Combo2 : 4,83,0
Combo3 : 0,0,119
Combo4 : 168,176,0

[HitObjects]
288,96,8222,1,8
288,288,9182,1,8
96,288,10142,1,8
96,96,11102,2,0,B|256:96,1,100,8|0
224,192,12062,2,0,B|352:192,1,100,8|0
416,192,13022,1,0
320,32,13982,2,0,B|192:32,2,100,8|0|0
416,128,15422,6,2,B|416:288,1,100,0|8
416,320,16382,2,2,B|288:320,1,100,0|8
224,320,17342,1,2
224,224,17822,2,2,B|224:96,2,100,8|2|10
384,160,19742,1,10
256,32,20702,1,10
256,128,21182,2,2,B|256:256,3,100,0|8|0|12
352,224,23102,5,2
256,224,23582,1,10
160,224,24062,1,0
64,224,24542,1,8
64,128,25022,5,2
160,128,25502,1,10
256,128,25982,1,2
352,128,26462,1,8
352,32,26942,6,0,B|224:32,1,100,0|10
160,32,27902,2,0,B|60:32,1,100,0|10
160,160,29342,1,10
352,160,30302,1,14
352,256,30782,6,0,C|256:352,1,100,0|8
192,288,31742,2,0,C|256:192,1,100,0|8
160,160,32702,2,0,C|64:256,1,100,0|8
32,160,33662,2,0,C|96:64,1,100,0|8
192,64,34622,5,0
288,64,35102,1,8
384,64,35582,1,0
384,160,36062,1,8
288,160,36542,5,4
288,256,37022,1,8
384,256,37502,1,4
384,160,37982,1,12
224,160,53822,5,2
288,224,54302,1,8
352,288,54782,1,2
416,352,55262,1,8
448,256,55742,5,2
384,192,56222,1,10
320,128,56702,1,0
256,64,57182,1,10
192,128,57662,6,0,B|96:224,2,100,2|10|2
256,192,59102,2,0,B|160:288,2,100,10|0|10
320,256,60542,1,2
352,160,61022,6,0,B|352:32,2,100,8|2|10
256,160,62462,1,2
160,160,62942,1,10
64,160,63422,2,0,B|64:288,2,100,0|10|2
64,64,64862,1,10
192,192,65582,5,0
192,192,65822,2,0,B|224:192|224:192|256:160|288:160|320:224|352:192|352:192|416:192,2,200,8|8|12
96,192,68222,1,4
96,96,68702,2,0,C|96:0,2,50,8|0|4
192,96,69662,5,8
288,96,70142,1,0
384,96,70622,1,8
384,192,71102,1,0
288,192,71582,2,0,B|160:192,1,100,8|0
96,192,72542,1,8
128,288,73022,5,2
224,288,73502,1,10
320,288,73982,1,2
320,192,74462,1,10
224,192,74942,2,2,B|224:64,1,100,2|8
134,92,75902,2,0,B|134:220,1,100,2|12
224,224,76862,5,0
288,288,77342,1,8
352,224,77822,1,0
288,160,78302,1,8
352,96,78782,1,0
288,32,79262,1,8
224,96,79742,1,0
288,160,80222,1,12
352,320,80942,5,0
352,320,81182,2,0,B|320:320|320:320|288:352|256:352|224:288|192:320|192:320|128:320,2,200,8|8|12
320,224,83582,1,4
256,160,84062,2,0,B|256:96,2,50,4|0|0
160,160,85022,5,8
256,288,85982,1,8
416,192,86942,1,8
320,64,87902,1,8
192,192,88862,5,8
384,192,89822,1,8
224,96,90782,1,8
32,96,91742,1,4
32,192,92222,6,0,B|160:192,1,100,0|8
224,192,93182,2,0,B|224:64,1,100,0|8
320,96,94142,2,0,B|448:96,1,100,0|8
420,186,95102,2,0,B|420:314,1,100,0|8
326,292,96062,6,0,B|198:292,1,100,0|8
224,192,97022,2,0,B|224:64,1,100,0|8
314,92,97982,5,0
416,96,98462,1,0
416,192,98942,2,0,B|416:289,2,50,4|0|0
256,192,113102,12,0,115262
192,96,115742,5,8
255,159,116222,2,0,B|351:255,1,100,0|8
389,293,117182,1,0
448,224,117662,1,8
384,160,118142,1,4
320,96,118622,1,12
256,32,119102,5,0
160,32,119582,1,8
160,128,120062,1,0
256,128,120542,1,8
256,224,121022,1,0
160,224,121502,1,8
160,224,121982,1,4
160,320,122462,1,12
256,320,122942,6,0,B|384:320,1,100,0|8
384,224,123902,2,0,B|256:224,1,100,0|8
256,128,124862,2,0,B|384:128,1,100,0|8
384,32,125822,2,0,B|288:32,2,50,0|0|8
256,192,126782,12,12,130142
352,192,130622,5,2
256,192,131102,1,8
160,192,131582,1,2
64,192,132062,1,8
64,288,132542,1,2
160,288,133022,2,0,B|224:288,4,50,8|0|2|0|10
160,192,134462,5,2
160,96,134942,1,10
256,96,135422,1,2
352,96,135902,2,2,B|352:192,1,50,8|2
352,236,136622,2,2,B|352:320,1,50,0|10
261,286,137342,1,2
160,256,137822,1,8
192,128,138302,5,2
192,128,138782,1,10
288,128,139262,1,2
384,128,139742,1,10
384,128,139982,1,2
384,224,140462,2,2,B|448:224,3,50,0|10|2|2
480,320,141662,1,10
256,192,142382,12,0,145982
