osu file format v12

[General]
AudioFilename: Katy Perry - Roar.mp3
AudioLeadIn: 0
PreviewTime: 46223
Countdown: 0
SampleSet: Soft
StackLeniency: 0.7
Mode: 0
LetterboxInBreaks: 1
WidescreenStoryboard: 1

[Editor]
DistanceSpacing: 1
BeatDivisor: 4
GridSize: 4
TimelineZoom: 1

[Metadata]
Title:Roar
TitleUnicode:Roar
Artist:Katy Perry
ArtistUnicode:Katy Perry
Creator:cleangamer220
Version:Roar!
Source:
Tags:katy perry roar prism 2013 power pop capitol
BeatmapID:315663
BeatmapSetID:114550

[Difficulty]
HPDrainRate:7
CircleSize:4
OverallDifficulty:7
ApproachRate:8
SliderMultiplier:1.5
SliderTickRate:1

[Events]
//Background and Video events
0,0,"bg.jpg",0,0
//Break Periods
2,160089,165806
//Storyboard Layer 0 (Background)
//Storyboard Layer 1 (Fail)
//Storyboard Layer 2 (Pass)
//Storyboard Layer 3 (Foreground)
//Storyboard Sound Samples
//Background Colour Transformations
3,100,255,255,255

[TimingPoints]
5890,333.333333333333,4,2,0,100,1,0
29556,-100,4,2,0,50,0,0
29639,-100,4,2,0,100,0,0
40223,-100,4,2,0,50,0,0
40306,-100,4,2,0,100,0,0
46223,-100,4,2,0,50,0,0
48556,-100,4,2,0,100,0,1
69556,-200,4,2,0,100,0,1
69806,-100,4,2,0,100,0,0
69889,-100,4,2,0,100,0,1
70556,-100,4,1,1,100,0,1
77889,-100,4,2,0,100,0,1
80223,-100,4,2,0,100,0,0
96223,-100,4,2,0,50,0,0
96306,-100,4,2,0,100,0,0
106889,-100,4,2,0,50,0,0
106973,-100,4,2,0,100,0,0
112889,-100,4,2,0,50,0,0
115223,-100,4,2,0,100,0,1
136223,-200,4,2,0,100,0,1
136473,-100,4,2,0,100,0,0
136556,-100,4,2,0,100,0,1
137223,-100,4,1,1,100,0,1
144556,-100,4,2,0,100,0,1
147889,-100,4,1,1,100,0,1
155223,-100,4,2,0,100,0,1
157556,-100,4,2,0,100,0,0
158223,-100,4,2,0,75,0,0
158889,-100,4,2,0,50,0,0
159556,-100,4,2,0,25,0,0
166556,-100,4,2,0,50,0,0
169223,-100,4,2,0,75,0,0
171889,-100,4,1,0,75,0,0
172889,-100,4,1,0,100,0,0
173723,-100,4,2,0,100,0,0
176556,-66.6666666666667,4,2,0,100,0,1
196223,-66.6666666666667,4,1,0,75,0,1
196723,-66.6666666666667,4,1,0,85,0,1
197223,-66.6666666666667,4,1,0,100,0,1
197806,-66.6666666666667,4,2,0,100,0,0
197889,-66.6666666666667,4,2,1,100,0,1
200556,-66.6666666666667,4,1,1,100,0,1
205889,-66.6666666666667,4,2,0,100,0,1
209223,-66.6666666666667,4,1,1,100,0,1
210056,-66.6666666666667,4,2,0,100,0,1
210556,-66.6666666666667,4,1,1,100,0,1
216556,-66.6666666666667,4,2,0,100,0,1
218889,-100,4,2,0,50,0,0
220556,-100,4,2,1,100,0,0

[Colours]
Combo1 : 149,204,198
Combo2 : 244,100,4
Combo3 : 62,147,4
Combo4 : 253,200,151
Combo5 : 0,36,0

[HitObjects]
284,44,5889,5,4,0:0:0:0:
336,104,6056,1,0,0:0:0:0:
396,152,6223,2,0,P|412:96|360:28,1,150,0|8,0:0|0:0,0:0:0:0:
328,176,6889,2,0,P|376:224|448:204,1,150
396,68,7556,2,0,P|364:40|320:40,1,75,0|2,0:0|0:0,0:0:0:0:
256,20,7889,1,8,0:0:0:0:
179,36,8056,2,0,P|142:42|116:68,1,75,0|2,0:0|0:0,0:0:0:0:
332,92,8556,6,0,P|304:164|308:236,1,150,4|0,0:3|0:0,0:0:0:0:
376,204,9056,2,0,P|376:172|396:132,1,75,0|8,0:0|0:0,0:0:0:0:
444,188,9389,1,0,0:0:0:0:
376,204,9556,2,0,P|424:256|496:236,1,150
396,132,10223,2,0,L|324:112,1,75,0|2,0:0|0:0,0:0:0:0:
256,76,10556,1,8,0:0:0:0:
188,112,10723,2,0,L|116:132,1,75,0|2,0:0|0:0,0:0:0:0:
68,192,11056,1,2,0:0:0:0:
68,268,11223,6,0,P|136:256|180:192,1,150,4|0,0:3|0:0,0:0:0:0:
188,112,11889,2,0,B|256:80|256:80|324:112,1,150,8|0,0:0|0:0,0:0:0:0:
332,36,12389,2,0,B|368:44|420:88|384:152,1,150,2|0,0:0|0:0,0:0:0:0:
324,112,12889,2,0,P|268:276|484:312,1,450,2|4,0:0|0:3,0:0:0:0:
416,276,14056,5,0,0:0:0:0:
344,260,14223,1,0,0:0:0:0:
352,184,14389,1,0,0:0:0:0:
324,112,14556,1,8,0:0:0:0:
188,112,14889,21,0,0:0:0:0:
160,184,15056,1,2,0:0:0:0:
168,260,15222,1,0,0:0:0:0:
96,276,15389,1,0,0:0:0:0:
28,312,15556,2,0,P|224:308|188:112,1,450,2|4,0:0|0:3,0:0:0:0:
152,44,16723,5,0,0:0:0:0:
232,48,16889,2,0,P|296:112|324:168,1,150,0|8,0:0|0:0,0:0:0:0:
468,152,17556,1,0,0:0:0:0:
392,160,17723,1,0,0:0:0:0:
336,208,17889,1,0,0:0:0:0:
424,88,18223,2,0,P|384:80|352:92,1,75,0|2,0:0|0:0,0:0:0:0:
392,160,18556,1,8,0:0:0:0:
336,208,18723,2,0,P|312:172|288:152,1,75,0|2,0:0|0:0,0:0:0:0:
292,300,19223,6,0,P|256:308|220:300,1,75,4|0,0:3|0:0,0:0:0:0:
220,224,19556,2,0,P|256:216|292:224,1,75
328,156,19889,2,0,P|256:136|184:156,1,150,8|0,0:0|0:0,0:0:0:0:
184,304,20556,2,0,P|256:324|328:304,1,150,0|0,0:0|0:0,0:0:0:0:
356,236,21056,2,0,P|320:220|296:192,1,75,2|8,0:0|0:0,0:0:0:0:
216,192,21389,2,0,P|191:219|156:234,2,75,0|2|2,0:0|0:0|0:0,0:0:0:0:
148,160,21889,5,4,0:3:0:0:
40,52,22223,2,0,P|104:28|144:88,1,150,0|8,0:0|0:0,0:0:0:0:
212,120,22723,1,0,0:0:0:0:
148,160,22889,1,0,0:0:0:0:
116,228,23056,2,0,B|184:244|212:192|212:192|256:192|288:152|288:112,1,225,2|2,0:0|0:0,0:0:0:0:
420,48,23889,2,0,P|508:164|432:276,1,300,8|4,0:0|0:3,0:0:0:0:
412,348,24723,21,0,0:0:0:0:
340,368,24889,2,0,P|304:360|300:264,1,150,0|8,0:0|0:0,0:0:0:0:
300,264,25389,1,0,0:0:0:0:
364,224,25556,1,0,0:0:0:0:
396,156,25723,2,0,B|328:140|300:192|300:192|256:192|224:232|224:272,1,225,2|2,0:0|0:0,0:0:0:0:
160,304,26389,1,2,0:0:0:0:
92,336,26556,2,0,P|68:216|124:52,1,300,8|4,0:0|0:3,0:0:0:0:
206,69,27556,6,0,P|160:127|144:200,1,150,2|8,0:0|0:0,0:0:0:0:
276,52,28223,1,0,0:0:0:0:
216,184,28389,2,0,P|232:144|256:120,1,75,0|2,0:0|0:0,0:0:0:0:
136,272,28889,2,0,B|168:276|192:252|192:252|212:300|256:312,1,150,2|8,0:0|0:0,0:0:0:0:
408,340,29556,1,4,0:0:0:0:
400,264,29723,1,0,0:0:0:0:
360,200,29889,6,0,B|312:172|244:104,1,150,4|0,0:3|0:0,0:0:0:0:
204,256,30556,2,0,L|132:280,1,75,8|2,0:0|0:0,0:0:0:0:
100,348,30889,1,0,0:0:0:0:
176,340,31056,2,0,L|248:315,1,75,2|0,0:0|0:0,0:0:0:0:
276,248,31389,2,0,P|240:244|204:256,1,75,0|0,0:0|0:0,0:0:0:0:
332,336,31889,2,0,P|347:278|276:248,1,150,8|0,0:0|0:0,0:0:0:0:
268,172,32389,6,0,P|304:168|344:176,2,75,0|4|0,0:0|0:3|0:0,0:0:0:0:
260,96,32889,2,0,P|204:128|204:208,1,150,2|8,0:0|0:0,0:0:0:0:
328,128,33556,1,0,0:0:0:0:
268,172,33723,2,0,P|300:196|336:200,1,75,0|2,0:0|0:0,0:0:0:0:
396,160,34056,2,0,P|400:112|392:88,1,75,0|2,0:0|0:0,0:0:0:0:
268,172,34556,2,0,B|328:128|328:128|396:160,1,150,8|0,0:0|0:0,0:0:0:0:
336,208,35056,1,0,0:0:0:0:
276,248,35223,22,0,P|272:304|196:348,2,150,4|0|8,0:3|0:0|0:0,0:0:0:0:
220,200,36056,1,2,0:0:0:0:
276,248,36223,1,0,0:0:0:0:
204,272,36389,1,2,0:0:0:0:
148,224,36556,1,0,0:0:0:0:
288,176,36889,1,0,0:0:0:0:
260,324,37223,1,8,0:0:0:0:
304,104,37723,6,0,P|344:128|356:152,1,75,0|4,0:0|0:3,0:0:0:0:
424,184,38056,1,0,0:0:0:0:
364,228,38223,1,2,0:0:0:0:
216,240,38556,2,0,P|168:292|172:368,2,150,8|0|2,0:0|0:0|0:0,0:0:0:0:
292,252,39389,1,0,0:0:0:0:
364,228,39556,1,2,0:0:0:0:
216,240,39889,2,0,P|252:316|312:332,2,150,8|4|4,0:0|0:0|0:3,0:0:0:0:
144,212,40723,6,0,L|72:240,1,75
160,364,41223,2,0,P|136:324|128:296,1,75,8|2,0:0|0:0,0:0:0:0:
112,224,41556,2,0,P|140:192|172:188,1,75,0|2,0:0|0:0,0:0:0:0:
236,220,41889,2,0,P|315:225|351:169,1,150
324,104,42389,1,0,0:0:0:0:
280,164,42556,2,0,L|352:296,1,150,8|0,0:0|0:0,0:0:0:0:
420,264,43056,6,0,P|396:232|388:196,1,75,0|4,0:0|0:3,0:0:0:0:
448,332,43556,2,0,P|480:304|464:208,1,150,2|8,0:0|0:0,0:0:0:0:
92,264,44389,22,0,P|116:232|124:196,1,75,0|0,0:0|0:0,0:0:0:0:
64,332,44889,2,0,P|32:304|48:208,1,150,2|8,0:0|0:0,0:0:0:0:
196,184,45556,5,0,0:0:0:0:
256,136,45723,1,0,0:0:0:0:
316,184,45889,1,4,0:3:0:0:
444,264,46223,5,0,0:0:0:0:
316,80,46556,1,8,0:0:0:0:
168,248,46889,1,0,0:0:0:0:
256,320,47056,1,0,0:0:0:0:
344,248,47223,1,0,0:0:0:0:
196,80,47556,1,0,0:0:0:0:
68,264,47889,1,8,0:0:0:0:
136,48,48223,6,0,P|132:100|208:144,1,150,0|4,0:0|0:0,0:0:0:0:
375,47,48889,2,0,P|370:118|303:143,1,150,2|10,0:0|0:0,0:0:0:0:
312,292,49556,2,0,P|256:334|200:292,1,150,2|2,0:0|0:0,0:0:0:0:
176,220,50056,1,0,0:0:0:0:
220,160,50223,1,2,0:0:0:0:
292,160,50389,1,0,0:0:0:0:
336,220,50556,1,10,0:0:0:0:
204,292,50889,22,0,P|128:280|96:220,1,150,2|4,0:0|0:3,0:0:0:0:
188,100,51556,2,0,B|256:68|256:68|324:100,1,150,2|2,0:0|0:0,0:0:0:0:
415,220,52223,2,0,P|379:282|308:292,1,150,2|2,0:0|0:0,0:0:0:0:
336,220,52723,1,0,0:0:0:0:
292,160,52889,1,2,0:0:0:0:
220,160,53056,1,0,0:0:0:0:
176,220,53223,1,10,0:0:0:0:
152,72,53556,6,0,B|124:88|120:120|120:120|88:132|88:132|64:200|107:334,1,300,2|2,0:0|0:0,0:0:0:0:
256,356,54556,1,10,0:0:0:0:
404,334,54889,2,0,B|448:200|424:132|424:132|392:120|392:120|388:88|360:72,1,300,2|2,0:0|0:0,0:0:0:0:
320,136,55723,1,0,0:0:0:0:
360,196,55889,1,10,0:0:0:0:
320,52,56223,6,0,P|256:19|192:52,1,150,2|4,0:0|0:3,0:0:0:0:
152,196,56889,1,2,0:0:0:0:
192,136,57056,1,0,0:0:0:0:
120,132,57223,1,10,0:0:0:0:
120,284,57556,2,0,P|256:340|392:284,1,300,2|2,0:0|0:0,0:0:0:0:
396,136,58556,1,10,0:0:0:0:
504,32,58889,6,0,B|380:32|300:88|328:172|328:172|320:204,1,300,2|2,0:0|0:0,0:0:0:0:
172,216,59889,1,10,0:0:0:0:
152,68,60223,2,0,P|84:40|8:32,1,150
40,108,60723,1,0,0:0:0:0:
116,136,60889,1,2,0:0:0:0:
84,204,61056,1,0,0:0:0:0:
12,176,61223,2,0,P|28:252|88:280,1,150,10|2,0:0|0:0,0:0:0:0:
116,136,61889,22,0,P|181:168|193:240,1,150,4|2,0:3|0:0,0:0:0:0:
256,104,62556,1,10,0:0:0:0:
320,240,62889,2,0,P|332:168|396:136,1,150,2|2,0:0|0:0,0:0:0:0:
468,104,63389,1,0,0:0:0:0:
396,136,63556,1,2,0:0:0:0:
428,204,63723,1,0,0:0:0:0:
500,176,63889,6,0,P|484:252|424:280,1,150,10|2,0:0|0:0,0:0:0:0:
396,136,64556,1,4,0:3:0:0:
428,292,64889,1,2,0:0:0:0:
292,352,65223,1,10,0:0:0:0:
156,284,65556,2,0,P|256:191|356:284,1,300,2|2,0:0|0:0,0:0:0:0:
220,352,66556,1,10,0:0:0:0:
84,292,66889,6,0,P|104:216|148:160,1,150,2|4,0:0|0:3,0:0:0:0:
256,56,67556,1,2,0:0:0:0:
365,160,67889,2,0,P|410:219|428:292,1,150,10|2,0:0|0:0,0:0:0:0:
296,213,68556,1,2,0:0:0:0:
216,212,68723,2,0,L|216:288,1,75,0|2,0:0|0:0,0:0:0:0:
296,288,69056,2,0,L|296:212,1,75,0|10,0:0|0:0,0:0:0:0:
224,140,69556,6,0,B|256:120|256:120|288:140,1,75,2|4,0:0|0:0,0:0:0:0:
224,140,70556,22,0,L|80:96,1,150,2|2,0:0|0:0,0:0:0:0:
288,140,71223,2,0,L|432:96,1,150,2|2,0:0|0:0,0:0:0:0:
328,204,71889,2,2,B|256:224|256:224|184:204,1,150,2|0,0:0|0:0,0:0:0:0:
184,204,72889,6,2,L|184:128,1,75,0|2,0:0|0:0,0:0:0:0:
184,129,73223,1,2,0:0:0:0:
196,280,73556,2,0,P|128:256|112:184,1,150,2|2,0:0|0:0,0:0:0:0:
256,232,74223,1,2,0:0:0:0:
132,320,74556,2,2,P|124:256|184:204,1,150,2|0,0:0|0:0,0:0:0:0:
328,180,75556,6,2,L|328:256,1,75,0|2,0:0|0:0,0:0:0:0:
328,255,75889,1,2,0:0:0:0:
316,104,76223,2,0,P|384:128|400:200,1,150,2|2,0:0|0:0,0:0:0:0:
256,152,76889,1,2,0:0:0:0:
380,64,77223,2,2,P|388:128|328:180,1,150,2|0,0:0|0:0,0:0:0:0:
328,180,77889,5,4,0:3:0:0:
428,292,78223,2,0,B|404:320|412:352|412:352|368:336|328:352,1,150,2|10,0:0|0:0,0:0:0:0:
184,352,78889,2,0,B|144:336|100:352|100:352|108:320|84:292,1,150,2|2,0:0|0:0,0:0:0:0:
156,276,79389,1,0,0:0:0:0:
204,220,79556,1,2,0:0:0:0:
256,272,79723,1,0,0:0:0:0:
308,220,79889,1,10,0:0:0:0:
356,276,80223,21,0,0:0:0:0:
256,192,80306,12,2,82556,0:0:0:0:
228,232,83223,6,0,P|212:268|124:332,1,150,4|0,0:3|0:0,0:0:0:0:
52,340,83723,1,0,0:0:0:0:
80,272,83889,2,0,P|96:236|184:172,1,150,8|0,0:0|0:0,0:0:0:0:
332,152,84556,2,0,B|392:136|392:136|452:72,1,150
388,32,85056,2,0,P|344:16|316:20,1,75,2|8,0:0|0:0,0:0:0:0:
252,56,85389,2,0,P|236:100|240:128,1,75,0|2,0:0|0:0,0:0:0:0:
384,80,85889,5,4,0:3:0:0:
380,156,86056,1,0,0:0:0:0:
396,228,86223,2,0,P|408:272|404:304,1,75
336,276,86556,2,0,B|316:240|316:208|336:160|384:156,1,150,8|0,0:0|0:0,0:0:0:0:
380,156,87223,1,0,0:0:0:0:
236,176,87556,2,0,L|160:160,1,75,0|2,0:0|0:0,0:0:0:0:
192,92,87889,1,8,0:0:0:0:
228,24,88056,2,0,L|304:40,1,75,0|2,0:0|0:0,0:0:0:0:
320,116,88389,1,2,0:0:0:0:
388,96,88556,6,0,L|428:240,1,150,4|0,0:3|0:0,0:0:0:0:
320,115,89223,2,0,P|408:165|456:76,1,225,8|2,0:0|0:0,0:0:0:0:
448,228,90056,1,0,0:0:0:0:
428,300,90223,1,2,0:0:0:0:
428,300,90556,21,8,0:0:0:0:
124,288,91223,6,0,L|84:144,1,150,4|0,0:3|0:0,0:0:0:0:
191,268,91889,2,0,P|103:218|56:308,1,225,8|2,0:0|0:0,0:0:0:0:
64,156,92723,1,0,0:0:0:0:
84,84,92890,1,2,0:0:0:0:
84,84,93223,5,8,0:0:0:0:
304,104,93723,6,0,P|344:128|356:152,1,75,0|4,0:0|0:3,0:0:0:0:
348,304,94223,1,2,0:0:0:0:
216,240,94556,2,0,P|168:292|172:368,2,150,8|0|2,0:0|0:0|0:0,0:0:0:0:
336,152,95556,1,2,0:0:0:0:
216,240,95889,2,0,P|252:316|312:332,2,150,8|4|4,0:0|0:0|0:3,0:0:0:0:
244,92,96889,21,0,0:0:0:0:
380,32,97223,2,0,P|420:8|448:0,1,75,8|2,0:0|0:0,0:0:0:0:
476,68,97556,2,0,P|436:92|408:100,1,75,0|2,0:0|0:0,0:0:0:0:
412,176,97889,2,0,P|352:196|324:272,1,150
324,272,98556,1,8,0:0:0:0:
168,108,99056,6,0,L|96:84,1,75,0|4,0:0|0:3,0:0:0:0:
200,192,99556,2,0,L|56:144,1,150,2|8,0:0|0:0,0:0:0:0:
344,108,100389,6,0,L|416:84,1,75,0|2,0:0|0:0,0:0:0:0:
312,192,100889,2,0,L|456:144,1,150,2|8,0:0|0:0,0:0:0:0:
52,348,102223,5,0,0:0:0:0:
124,216,102556,2,0,P|168:208|192:184,1,75,8|2,0:0|0:0,0:0:0:0:
244,136,102889,2,0,P|260:100|288:80,1,75,0|2,0:0|0:0,0:0:0:0:
316,148,103223,2,0,P|392:148|452:108,1,150
384,240,103889,1,8,0:0:0:0:
208,104,104389,22,0,P|168:128|156:152,1,75,0|4,0:0|0:3,0:0:0:0:
164,304,104889,1,2,0:0:0:0:
296,240,105223,2,0,P|344:292|340:368,2,150,8|0|2,0:0|0:0|0:0,0:0:0:0:
176,152,106223,1,2,0:0:0:0:
296,240,106556,2,0,P|260:316|200:332,2,150,8|4|4,0:0|0:0|0:3,0:0:0:0:
268,92,107556,5,0,0:0:0:0:
128,44,107889,1,8,0:0:0:0:
48,48,108056,1,2,0:0:0:0:
92,108,108223,1,0,0:0:0:0:
32,148,108389,1,2,0:0:0:0:
100,180,108556,2,0,P|160:200|188:276,1,150
188,276,109223,1,8,0:0:0:0:
188,276,109723,5,0,0:0:0:0:
256,244,109889,1,4,0:3:0:0:
180,128,110223,2,0,P|185:264|192:284,1,150,2|8,0:0|0:0,0:0:0:0:
408,256,111056,5,0,0:0:0:0:
372,324,111223,1,2,0:0:0:0:
332,260,111556,2,0,P|327:124|320:104,2,150,2|8|0,0:0|0:0|0:0,0:0:0:0:
408,256,112389,2,0,P|412:208|408:176,1,75,0|4,0:0|0:3,0:0:0:0:
472,144,112889,21,0,0:0:0:0:
412,92,113223,1,8,0:0:0:0:
336,104,113556,1,0,0:0:0:0:
284,164,113889,1,0,0:0:0:0:
228,220,114223,1,0,0:0:0:0:
176,280,114556,1,8,0:0:0:0:
100,292,114889,1,0,0:0:0:0:
40,240,115223,5,4,0:0:0:0:
180,140,115556,2,0,B|176:160|156:184|156:184|136:240|176:276,1,150,2|10,0:0|0:0,0:0:0:0:
332,140,116223,2,0,B|336:160|356:184|356:184|376:240|336:276,1,150,2|2,0:0|0:0,0:0:0:0:
292,220,116723,1,0,0:0:0:0:
256,156,116889,1,2,0:0:0:0:
220,220,117056,1,0,0:0:0:0:
256,284,117223,1,10,0:0:0:0:
168,164,117556,6,0,P|136:108|180:44,1,150,2|4,0:0|0:3,0:0:0:0:
332,44,118223,2,0,P|375:100|343:163,1,150,2|10,0:0|0:0,0:0:0:0:
256,284,118889,2,0,B|276:252|256:212|256:212|236:172|256:136,1,150,2|2,0:0|0:0,0:0:0:0:
320,172,119389,1,0,0:0:0:0:
256,140,119556,1,2,0:0:0:0:
192,172,119723,1,0,0:0:0:0:
256,212,119889,1,10,0:0:0:0:
328,232,120223,6,0,B|404:216|396:128|396:128|392:100|376:80|376:80|348:44|288:16,1,300,2|2,0:0|0:0,0:0:0:0:
324,156,121223,1,10,0:0:0:0:
184,152,121556,2,0,B|108:168|116:256|116:256|120:284|136:304|136:304|164:340|224:368,1,300,2|2,0:0|0:0,0:0:0:0:
224,292,122389,1,0,0:0:0:0:
188,228,122556,1,10,0:0:0:0:
328,152,122889,22,0,P|256:132|184:152,1,150,2|4,0:0|0:3,0:0:0:0:
324,228,123556,1,2,0:0:0:0:
288,292,123723,1,0,0:0:0:0:
364,292,123889,1,10,0:0:0:0:
364,140,124223,2,0,B|280:152|256:60|256:60|232:152|148:140,1,300,2|2,0:0|0:0,0:0:0:0:
144,0,125223,1,10,0:0:0:0:
44,104,125556,6,0,P|256:356|336:340,1,450,2|10,0:0|0:0,0:0:0:0:
440,248,126889,2,0,P|464:196|468:104,1,150,2|2,0:0|0:0,0:0:0:0:
432,36,127389,1,0,0:0:0:0:
360,20,127556,1,2,0:0:0:0:
296,56,127723,1,0,0:0:0:0:
360,96,127889,2,0,B|400:140|452:124|452:124|496:108,1,150,10|2,0:0|0:0,0:0:0:0:
360,20,128556,6,0,B|296:56|296:56|324:84|360:96,1,150,4|2,0:3|0:0,0:0:0:0:
256,204,129223,1,10,0:0:0:0:
152,96,129556,2,0,B|188:84|216:56|216:56|152:20,1,150,2|2,0:0|0:0,0:0:0:0:
88,56,130056,1,0,0:0:0:0:
152,20,130223,1,2,0:0:0:0:
216,56,130389,1,0,0:0:0:0:
152,96,130556,2,0,B|112:140|60:124|60:124|16:108,1,150,10|2,0:0|0:0,0:0:0:0:
92,236,131223,5,4,0:3:0:0:
16,108,131556,1,2,0:0:0:0:
28,256,131889,1,10,0:0:0:0:
140,356,132223,2,0,B|140:280|248:298|236:308|276:348|266:357|372:376|372:300,1,300,2|2,0:0|0:0,0:0:0:0:
512,232,133223,1,10,0:0:0:0:
504,88,133556,22,0,B|468:124|420:116|420:116|404:140|380:156,1,150,2|4,0:0|0:3,0:0:0:0:
256,240,134223,1,2,0:0:0:0:
132,156,134556,2,0,B|108:140|92:116|92:116|44:124|8:88,1,150,10|2,0:0|0:0,0:0:0:0:
160,88,135223,1,2,0:0:0:0:
220,132,135389,2,0,L|216:208,1,75,0|2,0:0|0:0,0:0:0:0:
295,206,135723,2,0,L|292:132,1,75,0|10,0:0|0:0,0:0:0:0:
292,284,136223,6,0,P|256:292|220:284,1,75,2|4,0:0|0:0,0:0:0:0:
220,284,137223,6,0,B|180:272|176:216|176:216|176:152,1,150,2|2,0:0|0:0,0:0:0:0:
316,80,137889,2,0,B|296:44|256:24|216:44|196:80,1,150,2|2,0:0|0:0,0:0:0:0:
336,152,138556,2,2,B|336:216|336:216|332:272|292:284,1,150,2|0,0:0|0:0,0:0:0:0:
292,284,139556,6,2,L|368:272,1,75,0|2,0:0|0:0,0:0:0:0:
396,204,139889,1,2,0:0:0:0:
408,56,140223,2,0,P|320:64|296:112,2,150,2|2|2,0:0|0:0|0:0,0:0:0:0:
320,184,141223,2,2,P|232:152|220:104,1,150,2|0,0:0|0:0,0:0:0:0:
220,104,142223,22,2,L|144:116,1,75,0|2,0:0|0:0,0:0:0:0:
116,180,142556,1,2,0:0:0:0:
104,328,142889,2,0,P|192:320|216:272,2,150,2|2|2,0:0|0:0|0:0,0:0:0:0:
192,200,143889,2,2,P|280:232|292:280,1,150,2|0,0:0|0:0,0:0:0:0:
400,180,144556,6,0,B|400:124|364:92|364:92|332:84|320:68,1,150,2|2,0:0|0:0,0:0:0:0:
256,28,145056,1,0,0:0:0:0:
192,68,145223,2,0,B|180:84|148:92|148:92|112:124|112:180,1,150,10|2,0:0|0:0,0:0:0:0:
188,156,145723,1,0,0:0:0:0:
188,236,145889,2,0,B|228:248|256:268|256:268|284:248|324:236,1,150,2|2,0:0|0:0,0:0:0:0:
324,156,146389,1,0,0:0:0:0:
256,184,146556,1,10,0:0:0:0:
172,60,146889,6,0,B|228:100|296:60|256:-76|216:60|284:100|340:60,1,225,2|0,0:0|0:0,0:0:0:0:
340,59,147556,1,2,0:0:0:0:
472,228,147889,6,0,P|484:160|460:84,2,150,2|2|2,0:0|0:0|0:0,0:0:0:0:
256,292,148889,1,2,0:0:0:0:
40,228,149223,2,2,P|28:160|52:84,1,150,2|0,0:0|0:0,0:0:0:0:
256,92,149889,21,4,0:0:0:0:
400,48,150223,2,2,L|328:72,1,75,0|2,0:0|0:0,0:0:0:0:
256,92,150556,1,2,0:0:0:0:
404,124,150889,2,0,L|256:168,2,150,2|2|2,0:0|0:0|0:0,0:0:0:0:
300,232,151889,2,2,P|368:256|408:200,1,150,2|0,0:0|0:0,0:0:0:0:
256,292,152556,5,4,0:0:0:0:
112,336,152889,2,2,L|184:312,1,75,0|2,0:0|0:0,0:0:0:0:
256,292,153223,1,2,0:0:0:0:
108,260,153556,2,0,L|256:216,2,150,2|2|2,0:0|0:0|0:0,0:0:0:0:
212,152,154556,2,2,P|144:128|104:184,1,150,2|0,0:0|0:0,0:0:0:0:
328,204,155223,5,4,0:3:0:0:
444,108,155556,2,0,P|432:64|340:44,1,150,2|10,0:0|0:0,0:0:0:0:
171,43,156223,2,0,P|100:44|68:108,1,150,2|2,0:0|0:0,0:0:0:0:
140,108,156723,1,0,0:0:0:0:
216,144,156889,1,2,0:0:0:0:
296,144,157056,1,0,0:0:0:0:
372,108,157223,1,10,0:0:0:0:
256,216,157556,5,0,0:0:0:0:
256,192,157639,12,2,159889,0:0:0:0:
388,100,166556,22,0,P|324:180|284:180,1,150,0|0,0:0|0:0,0:0:0:0:
172,172,167056,1,0,0:0:0:0:
164,60,167223,1,4,0:3:0:0:
164,60,167889,6,0,P|244:124|244:164,1,150,0|0,0:0|0:0,0:0:0:0:
236,276,168389,1,0,0:0:0:0:
124,284,168556,1,4,0:3:0:0:
124,284,169223,6,0,P|188:204|228:204,1,150,0|0,0:0|0:0,0:0:0:0:
340,212,169723,1,0,0:0:0:0:
348,324,169889,1,4,0:3:0:0:
348,324,170556,6,0,P|268:260|268:220,1,150,0|0,0:0|0:0,0:0:0:0:
276,108,171056,1,0,0:0:0:0:
388,100,171223,1,4,0:3:0:0:
88,372,171889,21,0,0:0:0:0:
56,148,172223,1,0,0:0:0:0:
256,44,172556,1,0,0:0:0:0:
456,148,172889,1,0,0:0:0:0:
424,372,173223,1,0,0:0:0:0:
356,160,173556,5,0,0:0:0:0:
256,112,173723,1,0,0:0:0:0:
156,160,173889,1,4,0:0:0:0:
152,188,176556,38,0,P|48:264|56:348,1,225.000008583069,4|2,0:0|0:0,0:0:0:0:
256,244,177223,1,10,0:0:0:0:
456,348,177556,2,0,P|454:240|361:188,1,225.000008583069,2|2,0:0|0:0,0:0:0:0:
256,244,178056,1,0,0:0:0:0:
212,140,178223,1,2,0:0:0:0:
256,36,178389,1,0,0:0:0:0:
300,140,178556,1,10,0:0:0:0:
164,280,178889,6,0,B|200:332|256:300|256:300|288:344|288:344|352:332,1,225.000008583069,2|4,0:0|0:3,0:0:0:0:
348,104,179556,2,0,B|312:52|256:84|256:84|224:40|224:40|160:52,1,225.000008583069,2|10,0:0|0:0,0:0:0:0:
272,248,180223,2,0,B|316:216|256:153|256:153|196:216|240:248,1,225.000008583069,2|2,0:0|0:0,0:0:0:0:
312,336,180723,1,0,0:0:0:0:
200,336,180889,1,2,0:0:0:0:
312,352,181056,1,0,0:0:0:0:
200,352,181223,1,10,0:0:0:0:
32,200,181556,6,0,B|100:76|100:76|184:116|184:116|272:20|372:112,1,450.000017166138,2|2,0:0|0:0,0:0:0:0:
280,308,182556,1,10,0:0:0:0:
480,184,182889,2,0,B|412:308|412:308|328:268|328:268|240:364|140:272,1,450.000017166138,2|2,0:0|0:0,0:0:0:0:
176,164,183723,1,0,0:0:0:0:
204,56,183889,1,10,0:0:0:0:
348,228,184223,6,0,B|296:216|256:280|256:280|216:216|164:228,1,225.000008583069,2|4,0:0|0:3,0:0:0:0:
308,56,184889,1,2,0:0:0:0:
336,164,185056,1,0,0:0:0:0:
256,244,185223,1,10,0:0:0:0:
108,76,185556,2,0,P|256:216|404:76,1,450.000017166138,2|2,0:0|0:0,0:0:0:0:
452,300,186556,1,10,0:0:0:0:
476,76,186889,2,0,P|256:288|36:76,1,675.000025749207,2|10,0:0|0:0,0:0:0:0:
256,136,188223,1,2,0:0:0:0:
476,76,188556,6,0,P|408:80|368:60,1,112.500004291535,2|0,0:0|0:0,0:0:0:0:
256,48,188889,1,2,0:0:0:0:
142,61,189056,2,0,P|91:82|36:76,1,112.500004291535,0|10,0:0|0:0,0:0:0:0:
200,232,189556,2,0,B|200:308|200:308|200:364|132:376|104:344|104:312,1,225.000008583069,2|4,0:0|0:3,0:0:0:0:
312,232,190223,2,0,B|312:308|312:308|312:364|380:376|408:344|408:312,1,225.000008583069,2|10,0:0|0:0,0:0:0:0:
300,104,190889,2,0,P|256:74|212:104,1,112.500004291535,2|0,0:0|0:0,0:0:0:0:
212,328,191389,2,0,P|256:358|300:328,1,112.500004291535,0|2,0:0|0:0,0:0:0:0:
300,216,191723,2,0,P|256:186|212:216,1,112.500004291535,0|10,0:0|0:0,0:0:0:0:
436,192,192223,5,2,0:0:0:0:
256,56,192556,1,4,0:3:0:0:
76,192,192889,1,2,0:0:0:0:
256,328,193223,1,10,0:0:0:0:
436,192,193556,2,0,B|380:224|324:208|312:152|312:152|300:128|256:88|208:132|200:152|200:152|188:208|132:224|76:192,1,450.000017166138,2|2,0:0|0:0,0:0:0:0:
148,96,194389,1,0,0:0:0:0:
256,44,194556,2,0,L|256:272,1,225.000008583069,10|2,0:0|0:0,0:0:0:0:
468,208,195223,2,0,P|408:120|468:32,1,225.000008583069,4|2,0:3|0:0,0:0:0:0:
44,32,195889,2,0,P|102:120|42:207,1,225.000008583069,10|0,0:0|0:0,0:0:0:0:
92,308,196389,5,0,0:0:0:0:
188,156,196556,1,0,0:0:0:0:
196,336,196723,1,0,0:0:0:0:
84,196,196889,1,0,0:0:0:0:
256,240,197056,1,0,0:0:0:0:
424,308,197223,1,0,0:0:0:0:
324,156,197390,1,0,0:0:0:0:
316,336,197557,1,0,0:0:0:0:
428,196,197723,1,0,0:0:0:0:
256,140,197890,5,12,0:0:0:0:
256,192,197973,12,4,200556,0:0:0:0:
216,224,200889,6,2,P|176:192|176:132,1,112.500004291535,0|2,0:0|0:0,0:0:0:0:
174,134,201223,1,10,0:0:0:0:
208,360,201556,2,0,B|208:300|208:300|120:276|96:188,1,225.000008583069,2|2,0:0|0:0,0:0:0:0:
312,264,202223,1,2,0:0:0:0:
476,112,202556,2,2,P|384:82|296:160,1,225.000008583069,10|0,0:0|0:0,0:0:0:0:
296,160,203223,5,4,0:0:0:0:
296,160,203556,2,2,P|336:192|336:252,1,112.500004291535,0|2,0:0|0:0,0:0:0:0:
338,250,203890,1,10,0:0:0:0:
304,24,204223,2,0,B|304:84|304:84|392:108|416:196,1,225.000008583069,2|2,0:0|0:0,0:0:0:0:
200,120,204890,1,2,0:0:0:0:
36,272,205223,2,2,P|128:302|216:224,1,225.000008583069,10|0,0:0|0:0,0:0:0:0:
440,192,205889,6,0,B|476:284|384:316|384:316|348:312|328:344,1,225.000008583069,4|2,0:3|0:0,0:0:0:0:
256,256,206389,1,0,0:0:0:0:
184,344,206556,2,0,B|164:312|128:316|128:316|36:284|72:192,1,225.000008583069,10|2,0:0|0:0,0:0:0:0:
136,100,207056,1,0,0:0:0:0:
172,200,207223,2,0,B|192:164|232:160|257:127|257:127|280:160|320:164|340:200,1,225.000008583069,2|2,0:0|0:0,0:0:0:0:
376,100,207723,1,0,0:0:0:0:
256,52,207889,1,8,0:0:0:0:
84,200,208223,2,0,P|256:324|428:200,1,450.000017166138,2|2,0:0|0:0,0:0:0:0:
216,120,209223,6,0,P|105:109|84:200,2,225.000008583069,10|2|2,0:0|0:0|0:0,0:0:0:0:
356,168,210056,1,0,0:0:0:0:
256,224,210223,1,2,0:0:0:0:
156,168,210389,1,0,0:0:0:0:
296,120,210556,2,2,P|407:109|428:200,1,225.000008583069,10|0,0:0|0:0,0:0:0:0:
256,344,211223,5,4,0:0:0:0:
48,256,211556,2,2,L|152:304,1,112.500004291535,0|2,0:0|0:0,0:0:0:0:
256,344,211889,1,10,0:0:0:0:
464,256,212223,2,0,L|256:344,1,225.000008583069,2|2,0:0|0:0,0:0:0:0:
464,256,212889,1,2,0:0:0:0:
256,265,213223,2,2,L|256:40,1,225.000008583069,10|0,0:0|0:0,0:0:0:0:
256,40,213889,5,4,0:0:0:0:
464,128,214223,2,2,L|360:80,1,112.500004291535,0|2,0:0|0:0,0:0:0:0:
256,40,214556,1,10,0:0:0:0:
48,128,214889,2,0,L|256:40,1,225.000008583069,2|2,0:0|0:0,0:0:0:0:
48,128,215556,1,2,0:0:0:0:
256,119,215889,2,2,L|256:344,1,225.000008583069,10|0,0:0|0:0,0:0:0:0:
472,284,216556,6,0,P|380:224|328:124,1,225.000008583069,4|2,0:3|0:0,0:0:0:0:
256,344,217223,1,10,0:0:0:0:
184,123,217556,2,0,P|132:222|40:284,1,225.000008583069,2|2,0:0|0:0,0:0:0:0:
32,172,218056,1,0,0:0:0:0:
92,76,218223,1,2,0:0:0:0:
200,52,218389,1,0,0:0:0:0:
312,52,218556,1,10,0:0:0:0:
420,76,218723,1,0,0:0:0:0:
480,172,218889,5,0,0:0:0:0:
256,192,218973,12,10,220556,0:0:0:0:
