osu file format v5

[General]
AudioFilename: Katy Perry - I Kissed A Girl.mp3
AudioLeadIn: 0
PreviewTime: -1
Countdown: 1
SampleSet: Normal
StackLeniency: 0.7
Mode: 0

[Metadata]
Title:I Kissed A Girl
Artist:Katy Perry
Creator:Utena
Version:Normal

[Difficulty]
HPDrainRate:5
CircleSize:4
OverallDifficulty:5
SliderMultiplier:1.6
SliderTickRate:3

[Events]
//Background and Video events
0,0,"kissedagirl copy.jpg"
//Break Periods
2,139639,143666
//Storyboard Layer 0 (Background)
//Storyboard Layer 1 (Failing)
//Storyboard Layer 2 (Passing)
//Storyboard Layer 3 (Foreground)
//Storyboard Sound Samples
//Background Colour Transformations
3,100,163,162,255

[TimingPoints]
4180,461.538461538462,4,1,1,100

[Colours]
Combo1 : 128,0,128
Combo2 : 254,185,24
Combo3 : 205,27,27
Combo4 : 186,177,5

[HitObjects]
64,80,4180,1,0
160,80,4641,1,0
256,80,5103,1,0
352,80,5564,1,0
448,80,6026,1,4
424,160,6487,6,0,L|208:160,1,160
112,248,7410,2,0,L|312:248,1,160
448,288,8795,5,0
352,288,9256,1,0
256,288,9718,1,0
160,288,10180,1,0
64,288,10641,1,4
64,128,11564,5,0
144,128,12026,6,0,B|240:128|288:32,1,160
352,32,12949,5,0
440,32,13410,2,0,B|440:152,1,80
440,112,13872,2,0,B|440:288,1,160
440,272,14795,1,0
320,320,15718,1,0
176,320,16641,1,0
88,320,17103,2,4,L|8:288|104:224|48:176|88:136,1,320
80,144,18487,5,0
128,80,18949,1,0
208,48,19410,1,0
288,48,19872,1,0
432,64,20795,1,0
432,160,21256,1,0
432,256,21718,1,0
352,304,22180,2,0,B|144:304,1,160
112,304,23103,1,4
64,192,24026,5,0
128,128,24487,1,0
176,192,24949,1,0
240,128,25410,1,0
304,192,25872,1,0
440,128,26795,6,0,L|336:264,1,160
344,256,27718,1,2
304,192,28180,2,0,B|192:336,1,160
208,320,29103,1,2
136,288,29564,2,0,L|48:136,1,160
48,48,30487,5,2
256,296,31410,1,2
472,40,32333,1,2
464,192,33256,5,0
368,192,33718,1,0
272,192,34180,1,0
272,272,34641,2,2,B|480:272,1,160
440,344,35564,1,0
360,344,36026,1,0
280,344,36487,1,4
256,112,37410,5,0
176,160,37872,1,0
256,192,38333,1,0
256,192,38795,1,0
256,192,39256,1,0
336,160,39718,1,0
368,64,40180,2,4,B|192:64,1,160
128,64,41103,5,0
48,64,41564,1,0
48,144,42026,1,0
48,256,42949,1,0
48,336,43410,1,0
128,336,43872,1,0
384,320,44795,5,0
464,320,45256,1,0
464,240,45718,1,0
384,240,46180,1,0
464,160,46641,1,0
384,160,47103,1,0
464,64,47564,2,2,B|256:64,1,160
224,64,48487,1,4
224,160,48949,6,0,B|224:352,1,160
144,320,49872,1,0
56,320,50333,2,0,L|56:144,1,160
128,64,51256,1,0
256,64,51718,1,0
352,64,52180,2,0,L|480:64|304:192|448:192,1,480
432,272,54026,5,0
328,272,54487,2,0,L|152:272,1,160
72,272,55410,1,0
176,272,55872,1,0
176,272,56333,1,0
176,272,56795,1,0
256,192,57718,5,0
256,192,58180,1,0
256,192,58641,1,0
336,128,59564,5,0
336,128,60026,1,0
336,128,60487,1,0
208,64,61410,5,0
112,96,61872,1,0
112,192,62333,1,4
256,192,63256,1,0
256,320,64180,1,0
144,320,65103,1,0
32,320,66026,1,0
32,192,66949,5,0
112,192,67410,1,0
192,192,67872,2,0,L|368:192,1,160
320,120,68795,1,0
244,120,69256,1,0
164,120,69718,1,0
48,96,70180,6,0,L|96:32|160:80,1,160
240,80,71103,1,2
352,96,72026,5,0
416,144,72487,1,0
352,96,72949,1,0
288,144,73410,1,0
352,176,73872,1,4
288,224,74333,5,0
352,256,74795,1,0
352,256,75256,1,0
416,224,75718,1,0
464,336,76180,2,0,B|272:336,1,160
208,336,77103,1,0
112,336,77564,2,0,B|32:304|64:176,1,160
112,336,78487,1,4
48,336,79410,5,0
48,256,79872,1,0
48,176,80333,1,0
48,96,80795,1,0
128,64,81718,1,0
192,112,82180,1,0
256,176,82641,1,4
256,176,83564,5,0
320,112,84026,1,0
384,64,84487,1,0
448,128,84949,2,0,L|496:208|448:272,1,160
384,320,85872,1,4
304,320,86795,5,0
208,272,87256,1,0
320,208,87718,1,0
208,160,88180,1,0
160,80,89103,1,0
256,80,89564,1,0
352,80,90026,1,2
352,176,90949,5,0
256,176,91410,1,0
160,176,91872,1,2
80,192,92333,2,0,L|32:256|96:304,1,160
176,336,93256,1,2
480,336,94180,1,2
472,72,95103,1,2
80,80,96026,5,0
160,80,96487,1,0
240,80,96949,1,0
240,80,97410,1,0
160,80,97872,1,0
160,160,98333,1,0
240,160,98795,1,0
80,160,99256,1,0
80,80,99718,1,4
80,240,100641,5,0
176,240,101103,1,0
272,240,101564,1,0
272,320,102026,2,0,L|352:320|352:224,1,160
352,144,102949,2,4,L|352:64|256:64,1,160
192,64,103872,1,0
192,64,104333,1,0
192,160,104795,1,0
192,256,105256,1,0
288,208,105718,1,0
112,208,106180,1,0
112,128,106641,2,4,L|32:128|32:224,1,160
32,288,107564,5,0
128,288,108026,1,0
224,288,108487,1,0
320,288,108949,1,0
416,288,109410,1,0
320,288,109872,1,0
224,288,110333,1,4
32,32,111256,5,0
112,48,111718,1,0
48,112,112180,1,0
256,192,113103,5,0
352,256,113564,1,0
160,144,114026,1,0
256,192,114949,5,0
352,144,115410,1,0
160,256,115872,1,0
256,192,116795,5,0
256,288,117256,1,0
256,96,117718,1,0
256,192,118641,5,0
160,192,119103,1,0
352,192,119564,1,0
256,192,120487,5,0
256,192,120949,1,0
256,192,121410,1,0
320,96,122333,5,0
192,96,122795,1,0
256,192,123256,1,0
256,192,124180,5,0
192,288,124641,1,0
320,288,125103,1,4
64,64,126026,5,0
160,64,126487,1,0
256,64,126949,1,0
256,64,127410,1,0
256,144,127872,1,0
256,224,128333,2,2,L|320:272|400:208,1,160
384,144,129256,5,0
384,64,129718,1,0
464,64,130180,1,0
464,144,130641,1,0
464,224,131103,1,0
448,304,131564,2,2,L|272:304,1,160
208,304,132487,5,0
128,304,132949,2,0,L|48:256|64:176,1,160
80,112,133872,1,0
160,80,134333,1,0
80,32,134795,1,0
160,80,135256,1,0
80,112,135718,1,0
144,160,136180,1,0
224,144,136641,6,2,L|304:80|368:48,1,160
448,48,137564,1,0
448,128,138026,1,0
368,80,138487,1,0
448,128,138949,1,0
368,160,139410,1,4
256,192,144026,12,0,147256
256,288,148180,5,0
256,192,148641,1,0
256,96,149103,1,0
256,192,149564,1,0
256,288,150026,1,4
256,288,150487,6,0,L|320:352|192:352,1,160
176,352,151410,1,0
96,352,151872,2,4,L|16:352|80:288,1,160
144,256,152795,5,0
240,256,153256,1,0
336,256,153718,1,0
440,256,154180,1,0
440,256,154641,1,4
440,160,155103,2,0,L|440:48|344:48,1,160
288,48,156026,1,0
208,48,156487,1,0
128,48,156949,1,4
112,128,157410,5,0
144,208,157872,1,0
208,272,158333,1,4
256,192,159256,6,0,L|352:320,1,160
400,240,160180,2,0,L|304:112,1,160
240,64,161103,1,0
320,32,161564,1,0
400,80,162026,1,4
488,240,162949,5,0
488,240,163410,2,4,B|0:240,1,480
8,136,165256,2,4,B|528:136,1,480
256,192,167564,1,4
64,80,168487,5,0
160,80,168949,1,0
256,80,169410,1,4
256,176,170333,5,0
336,176,170795,1,0
416,176,171256,1,0
472,232,171718,1,4
416,288,172180,5,0
336,288,172641,1,0
256,288,173103,1,4
176,272,173564,2,0,L|96:224|64:128,1,160
64,64,174487,1,0
64,64,174949,1,4
144,64,175410,1,0
224,64,175872,1,0
224,64,176333,1,0
312,64,176795,5,4
312,64,177026,1,4
