osu file format v5

[General]
AudioFilename: Katy Perry - I Kissed A Girl.mp3
AudioLeadIn: 0
PreviewTime: -1
Countdown: 1
SampleSet: Normal
StackLeniency: 0.7
Mode: 0

[Metadata]
Title:I Kissed A Girl
Artist:Katy Perry
Creator:Utena
Version:Hard

[Difficulty]
HPDrainRate:6
CircleSize:5
OverallDifficulty:7
SliderMultiplier:1.6
SliderTickRate:3

[Events]
//Background and Video events
0,0,"kissedagirl copy.jpg"
//Break Periods
2,139639,143666
//Storyboard Layer 0 (Background)
//Storyboard Layer 1 (Failing)
//Storyboard Layer 2 (Passing)
//Storyboard Layer 3 (Foreground)
//Storyboard Sound Samples
//Background Colour Transformations
3,100,0,0,0

[TimingPoints]
4180,461.538461538462,4,1,1,80

[Colours]
Combo1 : 128,0,128
Combo2 : 254,185,24
Combo3 : 205,27,27
Combo4 : 186,177,5

[HitObjects]
64,304,4180,1,0
160,304,4641,1,0
256,304,5103,1,0
352,304,5564,1,0
448,304,6026,1,4
456,224,6487,6,0,B|496:125|384:88,1,160
402,94,7180,2,0,B|376:56|312:56,1,80
248,32,7872,1,0
152,64,8333,6,0,B|112:163|224:200,1,160
272,256,9256,1,0
384,272,9718,1,0
448,184,10180,1,0
352,104,10641,1,4
256,40,11103,1,4
256,40,11564,2,4,B|200:104,1,80
200,104,12026,6,0,B|202:207|80:192,1,160
40,128,12949,5,0
64,40,13410,2,0,B|136:128,1,80
128,160,13872,2,0,B|128:336,1,160
216,304,14795,1,0
344,304,15256,1,0
424,208,15718,1,0
384,96,16180,1,0
272,40,16641,1,0
184,64,17103,2,4,B|178:180|307:181,1,160
392,176,18026,1,0
440,48,18487,5,0
328,48,18949,1,0
224,48,19410,1,0
104,48,19872,1,0
184,120,20795,1,0
328,120,21256,1,0
456,120,21718,1,0
432,40,22180,2,0,B|224:40,1,160
168,40,23103,1,4
32,168,24026,2,0,B|80:256,1,80
104,184,24487,2,0,B|152:272,1,80
176,200,24949,2,0,B|224:288,1,80
224,288,25410,1,0
272,176,25872,1,0
160,152,26333,1,0
64,80,26795,6,0,B|136:32|216:80,1,160
264,144,27718,1,2
280,216,28180,2,0,B|373:273|448:184,1,160
464,144,29103,1,2
464,72,29564,2,0,B|388:13|288:88,1,160
240,112,30487,5,2
184,168,30949,1,0
152,192,31180,1,0
112,184,31410,1,0
40,192,31872,2,4,B|131:366|336:240,1,320
464,192,33256,5,0
416,192,33487,1,0
368,192,33718,1,0
272,192,34180,1,0
272,112,34641,2,2,B|480:112,1,160
440,40,35564,1,0
440,40,35795,1,0
440,40,36026,1,0
328,40,36487,1,4
72,40,37410,5,0
128,40,37641,1,0
152,88,37872,1,0
200,88,38103,1,0
248,88,38333,1,0
328,32,38795,1,0
384,112,39256,1,0
432,104,39487,1,0
416,160,39718,1,0
472,232,40180,2,4,B|491:340|360:368,1,160
288,320,41103,5,0
240,320,41333,1,0
192,320,41564,1,0
96,320,42026,1,0
96,232,42487,1,0
96,136,42949,1,0
144,136,43180,1,0
192,136,43410,1,0
272,136,43872,1,0
272,136,44333,1,0
272,40,44795,5,0
344,40,45256,6,0,B|440:40,1,80
456,40,45718,1,0
464,128,46180,1,0
384,128,46641,6,0,B|288:128,1,80
272,128,47103,1,0
168,128,47564,2,2,B|92:204|208:256,1,160
224,320,48487,1,4
328,336,48949,6,0,B|408:272,1,80
432,248,49410,6,0,B|472:168|376:112,1,160
288,72,50333,6,0,B|189:89|184:192,1,160
152,224,51026,6,0,B|88:304,1,80
152,224,51718,1,0
224,240,52180,2,0,B|336:240|368:328,1,160
359,308,53103,1,0
456,224,53564,1,0
432,112,54026,5,0
328,40,54487,2,2,L|152:40,1,160
48,48,55410,1,0
48,96,55641,1,0
48,144,55872,1,0
48,240,56333,1,0
48,336,56795,1,0
96,336,57026,1,0
144,336,57256,1,0
152,232,57718,5,0
152,184,57949,1,0
152,136,58180,1,0
248,136,58641,1,0
248,184,58872,1,0
248,232,59103,1,0
336,312,59564,2,0,L|439:305|472:168,1,240
472,136,60487,2,0,L|472:55|360:56,1,160
256,88,61410,5,0
256,88,61641,1,0
256,88,61872,1,4
256,192,62333,1,4
256,296,62795,1,0
256,192,63256,12,0,66026
112,192,66487,1,0
32,192,66949,5,0
112,192,67410,1,0
192,192,67872,2,0,L|368:192,1,160
428,272,68795,1,0
352,272,69256,1,0
312,272,69487,1,0
272,272,69718,1,0
184,312,70180,6,0,B|96:360|32:304,1,160
32,304,71103,1,4
32,104,72026,5,0
104,24,72487,1,0
176,96,72949,1,0
176,96,73180,2,0,L|224:104|264:88,1,80
312,56,73872,1,4
312,56,74333,5,0
432,56,74795,1,0
376,136,75256,2,0,L|419:140|456:128,2,80
456,192,76180,2,0,L|424:208|368:200,2,80
456,192,77103,1,0
480,264,77564,2,2,B|480:368,1,80
408,352,78026,2,2,B|408:248,1,80
408,272,78487,1,4
48,48,79410,5,0
48,128,79872,1,0
48,208,80333,1,0
48,288,80795,1,0
184,240,81718,1,0
224,240,81949,1,4
248,208,82180,1,0
264,176,82410,2,4,L|264:136|328:144,1,80
184,176,83564,1,0
224,176,83795,1,4
248,208,84026,1,0
264,240,84256,2,4,L|264:280|328:272,1,80
256,328,84949,6,0,B|256:136,1,160
256,168,85872,1,4
256,104,86333,6,0,C|256:-8,1,80
256,48,86795,6,0,C|256:232,1,160
256,272,87718,1,0
256,272,88180,1,0
152,304,88641,1,0
184,304,88872,2,0,B|360:304,1,160
376,304,89564,1,0
336,216,90026,1,0
368,216,90257,1,0
352,136,90949,5,0
312,136,91180,1,0
272,136,91410,1,2
272,136,91872,1,2
192,136,92333,2,0,L|144:72|96:136,1,160
96,136,93256,1,2
192,136,93718,2,0,L|144:200|96:136,1,160
144,192,94641,1,0
144,264,95103,1,2
320,304,96026,5,0
320,224,96487,1,0
392,264,96949,1,0
248,264,97410,1,0
320,264,97872,1,0
320,192,98333,1,0
320,120,98795,1,0
320,192,99256,1,0
240,120,99718,1,4
240,192,100180,1,0
240,272,100641,5,0
240,192,101103,1,0
240,120,101564,1,0
320,112,102026,2,0,L|400:112|400:272,1,240
400,272,102949,2,4,L|332:328|232:328,1,160
264,328,103872,1,0
176,328,104333,1,0
112,264,104795,1,0
120,176,105256,1,0
168,112,105718,1,0
168,112,106180,1,0
168,112,106641,2,4,L|95:151|16:136,1,160
32,72,107564,5,0
128,96,108026,1,0
224,72,108487,1,0
320,96,108949,1,0
416,72,109410,1,0
424,168,109872,1,0
312,208,110333,2,4,L|136:280,1,160
32,352,111256,5,0
112,336,111718,1,0
48,272,112180,1,0
256,192,112641,5,2
472,32,113103,5,0
448,104,113564,1,0
392,48,114026,1,0
256,192,114487,5,2
32,32,114949,5,0
112,48,115410,1,0
48,104,115872,1,0
256,192,116333,5,2
480,352,116795,5,0
448,280,117256,1,0
400,344,117718,1,0
256,192,118641,5,2
288,232,118872,1,0
232,232,119103,1,2
256,152,119564,1,2
256,192,120487,5,2
256,112,120949,1,2
256,272,121410,1,2
320,288,122333,5,0
192,288,122795,1,0
256,192,123256,1,0
256,192,123718,1,0
256,192,124180,5,0
192,96,124641,1,0
320,96,125103,1,4
64,320,126026,5,0
120,248,126487,1,0
168,320,126949,1,0
224,248,127410,1,0
280,320,127872,1,0
336,248,128333,2,0,B|336:80,1,160
336,88,129256,5,0
424,136,129718,1,0
424,48,130180,1,0
328,104,130641,1,0
336,16,131103,1,0
232,56,131564,2,2,L|56:56,1,160
72,64,132487,5,0
88,96,132718,2,0,B|136:184,1,80
168,48,133410,1,0
232,128,133872,1,0
168,48,134333,1,0
296,48,134795,1,0
368,112,135256,1,0
400,200,135718,1,0
272,200,136180,1,0
232,200,136410,1,0
192,200,136641,6,2,B|88:232|152:336,1,160
256,328,137564,1,0
256,328,138026,1,0
352,320,138487,1,0
376,248,138949,1,0
320,184,139410,1,4
256,192,144026,12,0,147718
256,96,148180,5,0
256,96,148641,1,0
256,168,149103,1,0
256,168,149333,1,0
256,168,149564,1,4
256,248,150026,1,4
256,248,150487,6,2,B|352:280|432:224,1,160
256,248,151410,1,0
256,248,151872,6,2,B|160:280|80:224,1,160
88,152,152795,5,0
136,152,153026,1,0
184,152,153256,1,0
256,152,153718,1,0
328,152,154180,1,0
368,152,154410,1,0
408,152,154641,1,4
440,224,155103,2,0,L|474:287|400:352,1,160
288,336,156026,1,0
208,336,156487,1,0
128,336,156949,1,4
120,256,157410,2,0,L|40:208|56:176|104:200,1,160
144,144,158333,1,4
144,144,158795,1,0
232,152,159256,6,0,L|280:184|296:152|336:176|352:144,1,160
352,240,160180,6,0,L|304:272|288:240|248:264|232:232,1,160
232,240,161103,1,0
192,320,161564,1,0
232,240,162026,1,4
192,320,162487,1,0
104,296,162949,5,0
80,264,163180,1,2
56,232,163410,1,0
32,152,163872,1,0
88,88,164333,2,0,C|152:40|216:88,1,160
216,88,165256,1,2
288,88,165718,1,0
304,160,166180,2,2,C|368:112|432:160,1,160
432,160,167103,2,0,C|368:208|304:160,1,160
256,224,168026,1,4
168,248,168487,5,0
256,320,168949,1,0
336,248,169410,1,4
256,208,170333,5,0
336,208,170795,1,0
184,208,171256,1,0
256,272,171718,1,4
256,192,172180,2,4,C|216:168|272:152|224:120,1,160
160,120,173103,1,4
176,208,173564,1,0
328,208,174026,1,0
344,120,174487,1,0
256,272,174949,1,4
256,272,175180,1,0
256,272,175410,1,0
256,192,175872,1,0
256,112,176333,1,0
256,192,176795,12,4,177256
