osu file format v9

[General]
AudioFilename: Katy Perry - E.T.mp3
AudioLeadIn: 0
PreviewTime: 45024
Countdown: 0
SampleSet: Soft
StackLeniency: 0.7
Mode: 0
LetterboxInBreaks: 1

[Editor]
DistanceSpacing: 1
BeatDivisor: 4
GridSize: 8

[Metadata]
Title:E.T.
Artist:Katy Perry
Creator:PotsBreaker
Version:Hard
Source:
Tags:Teenage Dream Larto

[Difficulty]
HPDrainRate:6
CircleSize:5
OverallDifficulty:5
ApproachRate:4
SliderMultiplier:1.1
SliderTickRate:2

[Events]
//Background and Video events
0,0,"Space.jpg"
//Break Periods
2,125233,134913
//Storyboard Layer 0 (Background)
Sprite,Background,Centre,"ET.jpg",320,240 L,45035,16 F,0,0,517,1,0 S,0,0,517,0.5711201,0.7144801 F,0,517,1600,0 S,0,517,1600,0 L,99434,16 F,0,0,517,1,0 S,0,0,517,0.5711201,0.7144801 F,0,517,1600,0 S,0,517,1600,0 L,153833,16 F,0,0,517,1,0 S,0,0,517,0.5711201,0.7144801 F,0,517,1600,0 S,0,517,1600,0
//Storyboard Layer 1 (Fail)
//Storyboard Layer 2 (Pass)
//Storyboard Layer 3 (Foreground)
//Storyboard Sound Samples
//Background Colour Transformations
3,100,163,162,255

[TimingPoints]
3436,399.993361770195,4,2,0,60,1,0
32235,-133.333333333333,4,2,0,60,0,0
33835,-100,4,2,0,60,0,0
35435,-133.333333333333,4,2,0,60,0,0
37035,-100,4,2,0,60,0,0
45035,-100,4,1,1,80,0,1
70618,-100,4,2,0,60,0,0
86634,-133.333333333333,4,2,0,60,0,0
88234,-100,4,2,0,60,0,0
89834,-133.333333333333,4,2,0,60,0,0
91434,-100,4,2,0,60,0,0
99434,-100,4,1,1,80,0,1
125033,-100,4,2,1,60,0,0
136233,-100,4,2,0,60,0,0
153833,-100,4,1,1,80,0,1
177833,-100,4,2,1,80,0,0
203432,-100,4,2,0,5,0,0

[Colours]
Combo1 : 9,87,98
Combo2 : 128,255,255
Combo3 : 175,210,254

[HitObjects]
104,192,6635,2,0,B|104:80,1,110
208,112,7435,1,8
256,328,8235,2,0,B|312:296|384:336,1,110
312,224,9035,1,8
312,224,9435,1,0
384,144,9835,6,0,B|440:224|384:296,1,165
344,336,10635,1,8
344,336,11035,1,0
256,264,11435,6,0,B|176:320|104:264,1,165
56,232,12235,1,8
56,232,12635,1,0
120,144,13035,6,0,B|96:56|200:24|192:32,1,110
224,136,13835,2,0,B|248:224|144:256|152:248,1,110,8|0
288,288,14635,6,0,B|360:208|312:120,1,165
288,88,15435,1,8
288,88,15835,1,0
184,56,16235,6,0,B|120:56|120:128,1,110
144,176,16835,1,0
112,216,17035,2,0,B|112:280|184:280,1,110,8|0
288,240,17835,6,0,B|344:288|400:224,2,110,0|0|8
336,144,19035,1,0
440,120,19435,6,0,B|440:48|368:48,1,110
328,72,20035,1,0
280,40,20235,2,0,B|208:40|208:128,2,110,8|0|0
256,152,21435,1,0
256,152,21835,1,8
40,192,22635,6,0,B|112:192,2,55,0|0|0
136,136,23435,1,8
136,248,23835,1,0
232,192,24235,1,0
256,296,24635,2,0,B|256:400,2,55,0|0|8
232,192,25435,1,0
120,192,25835,6,0,B|120:104|200:104,1,110
224,120,26435,1,0
248,72,26635,2,0,B|312:72|312:160,1,110,8|0
408,192,27435,6,0,B|408:272,2,55
336,272,28235,1,8
336,272,28635,1,0
232,304,29035,2,0,B|96:240|200:120,1,220,0|8
256,40,30235,1,0
256,40,30435,1,0
256,40,30635,1,0
360,72,31035,6,0,B|360:200,1,110,0|8
256,160,31835,1,0
176,160,32235,2,0,B|176:232|240:232|240:232|240:288|312:288|312:288|312:352|392:352,1,329.999990165234,4|0
376,232,34235,6,0,B|432:160|336:112,1,110,0|8
304,48,35035,1,0
312,128,35435,2,0,B|312:200|248:200|248:200|248:256|176:256|176:256|176:320|96:320,1,329.999990165234,0|0
112,208,37435,1,0
192,136,37835,1,8
264,56,38235,5,0
264,56,38635,2,0,B|312:112|256:160,1,110
368,200,39435,2,0,B|320:248|376:312,1,110,8|0
416,320,40035,2,0,B|488:240|400:152,1,165
344,88,41035,1,8
256,160,41435,5,0
256,160,41835,2,0,B|224:208|264:272,1,110
256,320,42435,1,0
256,320,42635,1,8
256,192,43035,12,0,44235
256,192,44635,6,0,B|256:72,1,110,0|4
144,88,45435,1,0
104,192,45835,2,0,B|104:296|216:296,1,165,8|0
248,256,46635,2,0,B|336:256,2,55,0|0|0
256,144,47435,1,8
112,64,48035,6,0,B|80:64|56:104,1,55
112,128,48435,2,0,B|80:128|56:168,1,55
104,200,48835,1,0
104,200,49035,2,0,B|192:200|240:296,1,165,8|0
288,264,49835,6,0,B|392:264,2,55,0|0|0
256,224,50435,1,0
216,184,50635,2,0,B|216:64,1,110,8|0
128,144,51435,6,0,B|72:72|176:32,1,110,0|0
232,112,52235,1,8
352,296,53035,2,0,B|432:296,2,55,0|0|0
360,184,53835,2,0,B|320:184|320:184|280:192|256:224|256:224|256:288,1,165,8|0
200,288,54635,6,0,B|168:288|168:240,1,55
200,208,55035,2,0,B|200:168|160:160,1,55
136,128,55435,1,8
136,128,55835,1,0
200,40,56235,6,0,B|240:48|240:88,1,55
288,48,56635,2,0,B|328:56|328:96,1,55
352,136,57035,2,0,B|408:144|456:184|456:264,1,165,8|0
400,320,57835,6,0,B|400:248|376:208|320:184|256:184,1,220,4|8
160,216,59035,1,0
80,288,59435,1,0
80,288,59635,1,0
128,312,59835,2,0,B|208:312,2,55,0|0|8
208,240,60635,2,0,B|192:200|216:168,1,55
256,168,61035,1,4
256,168,61435,1,4
256,56,61835,6,0,B|136:56,1,110,8|0
104,160,62635,1,0
104,160,62835,1,0
72,200,63035,2,0,B|48:232|88:264,1,55
112,296,63435,1,8
104,352,63635,2,0,B|176:352|160:272,1,110
208,248,64234,2,4,B|208:120,1,110
312,96,65034,6,0,B|400:112|448:200,1,165,8|0
384,200,65834,2,0,B|336:200|320:240,1,55
288,256,66234,2,0,B|256:280|216:272,1,55
192,240,66634,1,8
136,144,67034,2,0,B|136:96|184:112,1,55
208,144,67434,2,4,B|264:144|224:216|304:216,1,110
256,192,68234,12,4,70633
256,192,73834,5,0
176,112,74234,1,0
256,192,74634,1,8
472,240,75434,1,0
448,136,75834,6,0,B|448:56|336:56,1,110,0|8
328,152,76634,1,0
256,64,77034,2,0,B|256:152,2,55
200,64,77634,1,0
200,64,77834,1,8
256,160,78234,5,0
256,160,78634,1,0
256,272,79034,2,0,B|160:272,2,55,0|0|8
176,192,79834,1,0
176,192,80234,1,0
256,120,80634,6,0,B|328:88|360:152,1,110,0|8
416,232,81434,1,0
416,232,81834,1,0
320,280,82234,6,0,B|320:376,2,55
256,192,83034,1,0
160,144,83434,6,0,B|216:112,1,55
256,96,83834,1,0
256,96,84234,1,8
352,40,84634,6,0,B|472:64|456:224,1,220
352,192,85834,1,8
352,192,86234,1,0
288,136,86634,6,0,B|240:88|184:144|184:144|240:192|184:232|184:232|240:280|304:232,1,329.999990165234,4|0
336,152,88634,1,0
336,264,89034,1,8
336,264,89434,5,0
408,224,89834,2,0,B|408:128|496:80|496:80|344:80,1,329.999990165234
320,192,91834,2,0,B|208:192,1,110,0|8
112,136,92634,5,0
112,136,93034,2,0,B|64:184|120:248,1,110
184,320,93834,2,0,B|232:352|304:320,1,110,8|0
320,280,94434,1,0
288,120,95034,5,0
392,160,95434,1,8
440,264,95834,1,0
256,192,96234,12,0,98633
256,256,99434,5,4
360,288,99834,1,0
408,192,100234,2,0,B|408:88|296:88,1,165,8|0
264,128,101034,2,0,B|176:128,2,55,0|0|0
256,240,101834,1,8
400,320,102434,6,0,B|432:320|456:280,1,55
400,256,102834,2,0,B|432:256|456:216,1,55
408,184,103234,1,0
408,184,103434,2,0,B|320:184|272:88,1,165,8|0
224,120,104234,6,0,B|120:120,2,55,0|0|0
256,160,104834,1,0
296,200,105034,2,0,B|296:320,1,110,8|0
384,240,105834,6,0,B|440:312|336:352,1,110,0|0
280,272,106634,1,8
160,88,107434,2,0,B|80:88,2,55,0|0|0
152,200,108234,2,0,B|192:200|192:200|232:192|256:160|256:160|256:96,1,165,8|0
312,96,109034,6,0,B|344:96|344:144,1,55
312,176,109434,2,0,B|312:216|352:224,1,55
376,256,109834,1,8
376,256,110034,1,0
376,256,110234,1,0
312,344,110634,6,0,B|272:336|272:296,1,55
224,336,111034,2,0,B|184:328|184:288,1,55
160,248,111434,2,0,B|104:240|56:200|56:120,1,165,8|0
112,64,112234,6,0,B|112:136|136:176|192:200|256:200,1,220,4|8
352,168,113434,1,0
432,96,113834,1,0
432,96,114034,1,0
384,72,114234,2,0,B|304:72,2,55,0|0|8
304,144,115034,2,0,B|320:184|296:216,1,55
256,216,115434,1,4
256,216,115834,1,4
256,328,116234,6,0,B|376:328,1,110,8|0
408,224,117034,1,0
408,224,117234,1,0
440,184,117434,2,0,B|464:152|424:120,1,55
400,88,117834,1,8
408,32,118034,2,0,B|336:32|352:112,1,110
304,136,118633,2,4,B|304:264,1,110
200,288,119433,6,0,B|112:272|64:184,1,165,8|0
128,184,120233,2,0,B|176:184|192:144,1,55
224,128,120633,2,0,B|256:104|296:112,1,55
320,144,121033,1,8
376,240,121433,2,0,B|376:288|328:272,1,55
304,240,121833,2,4,B|248:240|288:168|208:168,1,110
256,192,123034,12,4,125033
256,192,136233,5,0
312,288,136633,1,0
392,208,137033,2,2,B|392:168|360:136,2,55,2|2|2
440,304,137833,1,0
440,304,138033,2,2,B|384:304|344:352,1,110
296,320,138633,1,4
256,216,139033,5,0
256,216,139233,1,2
256,216,139433,2,0,B|256:128|128:128,1,165
88,152,140233,1,0
96,264,140633,1,0
192,216,141033,2,2,B|248:216,2,55
256,128,141833,1,0
360,104,142233,5,0
392,152,142433,1,2
424,200,142633,2,0,B|448:280|384:304,1,110
352,272,143233,2,2,B|232:272,1,110
200,240,143833,1,0
144,144,144233,1,0
256,144,144633,1,0
304,240,145033,1,0
360,144,145433,5,0
360,144,145633,1,2
360,144,145833,2,2,B|400:216|384:296|296:336,1,220,2|0
208,280,147033,1,0
112,224,147433,2,0,B|112:104,1,110,4|0
224,136,148233,2,0,B|344:136,1,110
416,216,149033,6,0,B|416:336,1,110,4|0
312,288,149833,1,0
208,248,150233,1,0
304,192,150633,2,0,B|304:128,1,55,0|0
360,128,151033,2,0,B|360:64,1,55,0|0
312,56,151433,2,0,B|184:56,1,110,0|0
104,112,152233,6,4,B|104:232|240:288,1,220,4|10
264,80,153833,6,0,B|368:80|368:184,1,165,4|0
336,224,154633,2,0,B|280:224|280:136,1,110,8|0
264,88,155233,1,0
224,128,155433,2,0,B|176:128|176:168,1,55
200,200,155833,1,0
200,200,156233,2,0,B|152:248|152:296|208:360,1,165,8|0
248,328,157033,6,0,B|296:328|320:304,1,55
352,296,157433,2,0,B|392:272|400:240,1,55
424,216,157833,2,0,B|424:168|416:128|376:96,1,110
288,128,158633,5,0
288,128,158833,1,0
240,160,159033,2,0,B|200:224,1,55
152,216,159433,2,0,B|216:120,1,110,8|0
296,56,160233,6,0,B|368:56|408:88|408:176,1,165
368,192,161033,1,8
304,280,161433,2,0,B|224:280,1,55
224,232,161833,2,0,B|192:232|192:176,1,55
224,152,162233,2,0,B|320:152|320:208,1,110,0|8
360,296,163033,1,0
432,216,163433,5,0
392,112,163833,1,0
296,56,164233,2,0,B|224:56|216:120,1,110,8|0
248,160,164833,1,0
248,216,165033,2,0,B|248:280,3,55
192,288,165833,1,8
304,288,166233,1,0
192,288,166633,6,0,B|192:216|216:176|272:152|336:152,1,220,4|8
392,240,167833,1,0
440,136,168233,1,0
440,136,168433,1,0
400,96,168633,2,0,B|320:96,2,55,0|0|8
304,160,169433,2,0,B|320:200|296:232,1,55
280,264,169833,1,4
280,264,170233,1,4
200,192,170633,6,0,B|72:192,1,110,8|0
152,104,171433,1,0
152,104,171633,1,0
200,120,171833,2,0,B|232:144|264:104,1,55
304,120,172233,1,8
360,128,172433,2,0,B|360:56|280:72,1,110
304,120,173032,2,4,B|304:248,1,110
256,328,173832,6,0,B|168:312|120:224,1,165,8|0
144,184,174632,2,0,B|192:184|208:144,1,55
232,128,175032,2,0,B|264:104|304:112,1,55
336,128,175432,1,8
368,232,175832,2,0,B|368:280|320:264,1,55
288,240,176232,2,4,B|232:240|272:168|192:168,1,110
256,192,177833,12,4,179433
