osu file format v14

[General]
AudioFilename: Katy Perry - E.T. (Nightcore Mix).mp3
AudioLeadIn: 0
PreviewTime: -1
Countdown: 1
SampleSet: Normal
StackLeniency: 0.7
Mode: 2
LetterboxInBreaks: 1
WidescreenStoryboard: 0

[Editor]
DistanceSpacing: 1.4
BeatDivisor: 4
GridSize: 4
TimelineZoom: 1

[Metadata]
Title:E.T. (Nightcore Mix)
TitleUnicode:E.T. (Nightcore Mix)
Artist:Katy Perry
ArtistUnicode:Katy Perry
Creator:lNear
Version:Rain
Source:
Tags:
BeatmapID:873069
BeatmapSetID:401349

[Difficulty]
HPDrainRate:6
CircleSize:3
OverallDifficulty:9
ApproachRate:9
SliderMultiplier:1.2
SliderTickRate:1

[Events]
//Background and Video events
0,0,"BG.jpg",0,0
//Break Periods
2,56490,58270
//Storyboard Layer 0 (Background)
//Storyboard Layer 1 (Fail)
//Storyboard Layer 2 (Pass)
//Storyboard Layer 3 (Foreground)
//Storyboard Sound Samples

[TimingPoints]
0,322.58064516129,4,1,0,100,1,0

[Colours]
Combo1 : 255,102,102
Combo2 : 0,255,255
Combo3 : 110,202,245
Combo4 : 158,62,255

[HitObjects]
352,256,5322,6,0,L|448:160,1,120
136,64,5887,2,0,L|64:160,1,120
192,384,6370,1,0,0:0:0:0:
256,288,6532,1,0,0:0:0:0:
288,192,6693,1,0,0:0:0:0:
256,96,6854,1,0,0:0:0:0:
192,32,7016,1,0,0:0:0:0:
96,0,7177,2,0,L|216:0,1,120
64,128,7661,1,0,0:0:0:0:
288,256,7822,6,0,L|224:256,1,60
416,160,8145,2,0,L|476:160,1,60
128,192,8467,2,0,L|0:256,1,120
384,64,8951,1,0,0:0:0:0:
288,192,9112,6,0,L|256:256,1,60
32,192,9435,2,0,L|64:256,1,60
356,192,9757,2,0,L|480:128,1,120
228,192,10403,1,0,0:0:0:0:
128,192,10725,1,0,0:0:0:0:
512,288,11048,6,0,P|384:256|256:288,1,240
384,288,11854,1,0,0:0:0:0:
448,224,12016,1,0,0:0:0:0:
484,136,12177,1,0,0:0:0:0:
436,48,12338,1,0,0:0:0:0:
352,0,12580,1,0,0:0:0:0:
32,64,12741,1,0,0:0:0:0:
256,160,12903,6,0,L|288:96,1,60
480,160,13226,2,0,L|448:96,1,60
136,160,13548,2,0,L|256:160,1,120
128,256,14032,1,0,0:0:0:0:
32,96,14193,6,0,L|0:160,1,60
224,96,14516,2,0,L|252:160,1,60
480,128,14838,2,0,L|352:128,1,120
256,32,15322,1,0,0:0:0:0:
40,128,15483,6,0,L|160:128,1,120
96,64,15967,1,0,0:0:0:0:
352,192,16129,2,0,L|472:192,1,120
160,320,16612,1,0,0:0:0:0:
256,192,16774,2,0,L|192:160,2,60
64,224,17258,1,0,0:0:0:0:
416,192,17419,6,0,L|288:192,1,120
384,96,17903,1,0,0:0:0:0:
64,192,18064,2,0,L|0:192,1,60
288,192,18387,2,0,L|224:192,1,60
504,192,18709,2,0,L|384:192,1,120
96,128,19193,1,0,0:0:0:0:
288,128,19354,6,0,L|228:128,1,60
508,64,19677,2,0,L|448:64,1,60
8,160,19999,2,0,L|128:160,1,120
160,96,20564,1,0,0:0:0:0:
64,288,20725,1,0,0:0:0:0:
256,256,20887,1,0,0:0:0:0:
384,160,21048,1,0,0:0:0:0:
448,32,21209,6,0,L|320:32,1,120
512,160,21693,1,0,0:0:0:0:
64,160,21854,2,0,P|32:128|0:128,2,60
384,192,22338,1,0,0:0:0:0:
160,32,22499,2,0,L|280:32,1,120
416,192,22983,1,0,0:0:0:0:
128,192,23145,6,0,L|64:160,1,60
224,256,23468,2,0,L|288:224,1,60
128,320,23790,2,0,L|0:256,1,120
192,320,24274,1,0,0:0:0:0:
384,160,24434,1,0,0:0:0:0:
128,160,24596,1,0,0:0:0:0:
384,160,24758,1,0,0:0:0:0:
192,32,24919,1,0,0:0:0:0:
448,64,25080,6,0,P|416:32|352:64,1,120
160,320,25564,1,0,0:0:0:0:
288,256,25725,5,0,0:0:0:0:
352,160,25887,1,0,0:0:0:0:
448,32,26048,2,0,L|320:32,1,120
160,96,26532,1,0,0:0:0:0:
320,192,26693,5,0,0:0:0:0:
480,192,26854,1,0,0:0:0:0:
72,32,27016,2,0,L|192:32,1,120
32,128,27499,1,0,0:0:0:0:
224,192,27661,1,0,0:0:0:0:
128,256,27822,1,0,0:0:0:0:
448,192,27983,2,0,L|512:192,2,60
384,32,28548,2,0,L|256:32,1,120
352,256,29032,1,0,0:0:0:0:
136,192,29193,6,0,B|96:160|96:160|64:160,2,60
0,224,29677,1,0,0:0:0:0:
352,192,29838,2,0,L|472:192,1,120
352,96,30322,1,0,0:0:0:0:
128,320,30483,6,0,L|64:320,2,60
288,192,31129,6,0,L|160:192,1,120
384,192,31774,6,0,L|504:192,1,120
128,192,32419,6,0,L|0:192,1,120
384,192,33064,6,0,L|504:192,1,120
128,192,33709,6,0,L|0:192,1,120
392,192,34354,6,0,L|512:192,1,120
320,192,35000,5,0,0:0:0:0:
384,96,35161,1,0,0:0:0:0:
480,32,35322,2,0,L|224:32,1,240
320,352,36209,1,0,0:0:0:0:
416,288,36370,1,0,0:0:0:0:
448,192,36532,1,0,0:0:0:0:
416,96,36693,1,0,0:0:0:0:
352,32,36854,1,0,0:0:0:0:
32,96,37016,1,0,0:0:0:0:
224,32,37177,1,0,0:0:0:0:
64,224,37338,1,0,0:0:0:0:
448,288,37499,6,0,P|416:256|352:288,1,120
160,288,37983,1,0,0:0:0:0:
0,288,38145,1,0,0:0:0:0:
256,192,38306,5,0,0:0:0:0:
64,192,38467,1,0,0:0:0:0:
224,192,38629,1,0,0:0:0:0:
32,192,38790,1,0,0:0:0:0:
288,192,38951,1,0,0:0:0:0:
8,192,39112,2,0,L|128:192,1,120
64,256,39596,1,0,0:0:0:0:
480,192,39758,5,0,0:0:0:0:
320,192,39919,1,0,0:0:0:0:
448,192,40080,1,0,0:0:0:0:
288,192,40241,1,0,0:0:0:0:
96,192,40403,2,0,L|216:192,1,120
384,192,40887,1,0,0:0:0:0:
32,192,41048,1,0,0:0:0:0:
192,320,41209,1,0,0:0:0:0:
32,192,41370,1,0,0:0:0:0:
352,288,41532,1,0,0:0:0:0:
480,192,41693,1,0,0:0:0:0:
32,192,42258,5,0,0:0:0:0:
160,160,42419,1,0,0:0:0:0:
32,128,42580,6,0,P|80:99|125:133,1,120
320,352,43064,1,0,0:0:0:0:
416,288,43225,1,0,0:0:0:0:
480,192,43387,1,0,0:0:0:0:
448,96,43548,1,0,0:0:0:0:
384,32,43709,1,0,0:0:0:0:
224,192,43871,1,0,0:0:0:0:
416,192,44032,1,0,0:0:0:0:
66,186,44193,6,0,P|115:157|160:192,1,120
384,192,44677,1,0,0:0:0:0:
0,192,44838,5,0,0:0:0:0:
192,192,45000,1,0,0:0:0:0:
32,192,45161,1,0,0:0:0:0:
159,191,45322,1,0,0:0:0:0:
480,192,45483,2,0,L|352:192,1,120
192,64,45967,1,0,0:0:0:0:
480,128,46129,1,0,0:0:0:0:
416,64,46290,1,0,0:0:0:0:
320,32,46451,1,0,0:0:0:0:
224,64,46612,1,0,0:0:0:0:
128,128,46774,1,0,0:0:0:0:
480,288,47338,6,0,P|448:256|416:256,1,60
243,189,47660,6,0,P|270:199|288:224,1,60
64,160,47983,6,0,P|32:128|0:128,1,60
448,192,48306,1,0,0:0:0:0:
352,96,48467,1,0,0:0:0:0:
480,32,48629,6,0,P|448:0|384:32,1,120
256,192,49273,1,0,0:0:0:0:
32,96,49919,6,0,P|49:120|76:130,1,60
256,192,50242,6,0,P|273:216|300:226,1,60
480,320,50564,6,0,P|452:309|435:285,1,60
320,192,50887,1,0,0:0:0:0:
512,192,51048,1,0,0:0:0:0:
416,288,51209,6,0,P|384:256|320:288,1,120
96,192,51854,1,0,0:0:0:0:
288,192,52500,5,0,0:0:0:0:
352,96,52822,1,0,0:0:0:0:
448,64,53145,1,0,0:0:0:0:
128,64,53467,2,0,L|64:64,2,60
320,192,54112,1,0,0:0:0:0:
416,192,54435,1,0,0:0:0:0:
192,352,55000,5,0,0:0:0:0:
96,288,55161,1,0,0:0:0:0:
64,192,55322,1,0,0:0:0:0:
96,96,55483,1,0,0:0:0:0:
160,32,55645,1,0,0:0:0:0:
256,0,55806,1,0,0:0:0:0:
484,56,55967,1,0,0:0:0:0:
296,176,56129,1,0,0:0:0:0:
32,96,56290,5,0,0:0:0:0:
45,213,58870,6,0,P|100:191|160:192,1,120
384,192,59516,5,0,0:0:0:0:
104,88,60161,1,0,0:0:0:0:
288,132,60322,1,0,0:0:0:0:
60,228,60484,1,0,0:0:0:0:
240,288,60645,1,0,0:0:0:0:
64,320,60806,6,0,P|192:352|320:320,1,240
468,252,61612,1,0,0:0:0:0:
272,216,61774,1,0,0:0:0:0:
456,128,61935,1,0,0:0:0:0:
288,96,62096,1,0,0:0:0:0:
500,60,62419,5,0,0:0:0:0:
100,268,62741,2,0,P|71:259|44:270,1,60
276,168,63064,2,0,P|247:159|220:170,1,60
464,72,63387,2,0,P|435:63|408:74,1,60
96,80,63709,1,0,0:0:0:0:
432,244,64032,6,0,L|300:232,2,120
240,64,65241,1,0,0:0:0:0:
32,156,65403,2,0,P|76:148|96:172,1,60
336,188,65725,2,0,L|404:136,1,60
256,192,66209,1,0,0:0:0:0:
64,192,66532,6,0,L|36:132,1,60
276,64,66855,2,0,L|308:144,1,60
496,76,67177,2,0,L|392:160,1,120
88,216,68145,6,0,L|236:204,2,120
328,232,69112,1,0,0:0:0:0:
120,160,69435,1,0,0:0:0:0:
320,60,69758,1,0,0:0:0:0:
120,228,70403,5,0,0:0:0:0:
364,252,70725,1,0,0:0:0:0:
208,72,71048,1,0,0:0:0:0:
488,196,71612,5,0,0:0:0:0:
280,136,71935,1,0,0:0:0:0:
476,64,72258,1,0,0:0:0:0:
140,56,72903,5,0,0:0:0:0:
280,152,73225,1,0,0:0:0:0:
88,232,73548,1,0,0:0:0:0:
468,268,73870,1,0,0:0:0:0:
168,192,74193,6,0,L|288:192,1,120
504,192,74838,6,0,L|384:192,1,120
8,192,75483,6,0,L|128:192,1,120
384,192,76128,6,0,L|504:192,1,120
128,192,76773,6,0,L|8:192,1,120
512,192,77418,6,0,L|392:192,1,120
8,200,78064,6,0,L|128:200,1,120
384,96,78548,1,0,0:0:0:0:
32,48,78709,2,0,L|272:48,1,240
224,192,80000,5,0,0:0:0:0:
224,192,80564,1,0,0:0:0:0:
224,192,80725,1,0,0:0:0:0:
224,192,80887,1,0,0:0:0:0:
224,192,81209,1,0,0:0:0:0:
224,192,81693,1,0,0:0:0:0:
224,192,81854,1,0,0:0:0:0:
224,192,82016,1,0,0:0:0:0:
224,192,82177,1,0,0:0:0:0:
224,192,82338,1,0,0:0:0:0:
224,192,82499,1,0,0:0:0:0:
224,192,82741,1,0,0:0:0:0:
224,192,83064,1,0,0:0:0:0:
224,192,83225,1,0,0:0:0:0:
224,192,83387,1,0,0:0:0:0:
224,192,83548,1,0,0:0:0:0:
224,192,83709,1,0,0:0:0:0:
224,192,84032,1,0,0:0:0:0:
224,192,84354,1,0,0:0:0:0:
224,192,84677,1,0,0:0:0:0:
224,192,84999,1,0,0:0:0:0:
224,192,85322,1,0,0:0:0:0:
224,192,85645,1,0,0:0:0:0:
224,192,85806,1,0,0:0:0:0:
224,192,85967,1,0,0:0:0:0:
224,192,86290,1,0,0:0:0:0:
224,192,86532,1,0,0:0:0:0:
224,192,86935,1,0,0:0:0:0:
224,192,87096,1,0,0:0:0:0:
224,192,87258,1,0,0:0:0:0:
224,192,87419,1,0,0:0:0:0:
224,192,87580,1,0,0:0:0:0:
224,192,87903,1,0,0:0:0:0:
224,192,88225,1,0,0:0:0:0:
224,192,88387,1,0,0:0:0:0:
224,192,88548,1,0,0:0:0:0:
224,192,88709,1,0,0:0:0:0:
224,192,88870,1,0,0:0:0:0:
224,192,89193,1,0,0:0:0:0:
224,192,89516,1,0,0:0:0:0:
224,192,89838,1,0,0:0:0:0:
224,192,90080,1,0,0:0:0:0:
224,192,90483,1,0,0:0:0:0:
224,192,90645,1,0,0:0:0:0:
224,192,90806,1,0,0:0:0:0:
224,192,91048,1,0,0:0:0:0:
224,192,91370,1,0,0:0:0:0:
224,192,91693,1,0,0:0:0:0:
224,192,91854,1,0,0:0:0:0:
224,192,92016,1,0,0:0:0:0:
224,192,92338,1,0,0:0:0:0:
224,192,92661,1,0,0:0:0:0:
224,192,92983,1,0,0:0:0:0:
224,192,93145,1,0,0:0:0:0:
224,192,93306,1,0,0:0:0:0:
224,192,93629,1,0,0:0:0:0:
224,192,93951,1,0,0:0:0:0:
224,192,94274,1,0,0:0:0:0:
224,192,94435,1,0,0:0:0:0:
224,192,94596,1,0,0:0:0:0:
224,192,94758,1,0,0:0:0:0:
224,192,94919,1,0,0:0:0:0:
224,192,95241,1,0,0:0:0:0:
224,192,95564,1,0,0:0:0:0:
224,192,95725,1,0,0:0:0:0:
224,192,95887,1,0,0:0:0:0:
224,192,96048,1,0,0:0:0:0:
224,192,96209,1,0,0:0:0:0:
224,192,96451,1,0,0:0:0:0:
224,192,96774,1,0,0:0:0:0:
224,192,96935,1,0,0:0:0:0:
224,192,97096,1,0,0:0:0:0:
224,192,97338,1,0,0:0:0:0:
224,192,97499,1,0,0:0:0:0:
224,192,98064,1,0,0:0:0:0:
224,192,98387,1,0,0:0:0:0:
224,192,98548,1,0,0:0:0:0:
224,192,98709,1,0,0:0:0:0:
224,192,98870,1,0,0:0:0:0:
224,192,99032,1,0,0:0:0:0:
224,192,99193,1,0,0:0:0:0:
224,192,99435,1,0,0:0:0:0:
224,192,99596,1,0,0:0:0:0:
224,192,99677,1,0,0:0:0:0:
