osu file format v9

[General]
AudioFilename: Katy Perry - E.T. (Nightcore Mix).mp3
AudioLeadIn: 0
PreviewTime: 36030
Countdown: 0
SampleSet: Normal
StackLeniency: 0.7
Mode: 0
LetterboxInBreaks: 0
EpilepsyWarning: 1

[Editor]
DistanceSpacing: 1
BeatDivisor: 4
GridSize: 8

[Metadata]
Title:E.T. (Nightcore Mix)
Artist:Katy Perry
Creator:Dark_Ai
Version:Insane
Source:
Tags:Magicphoenix Backfire

[Difficulty]
HPDrainRate:7
CircleSize:4
OverallDifficulty:7
ApproachRate:8
SliderMultiplier:2
SliderTickRate:1

[Events]
//Background and Video events
0,0,"BG.jpg"
//Break Periods
2,56557,58159
2,99947,116545
//Storyboard Layer 0 (Background)
//Storyboard Layer 1 (Fail)
//Storyboard Layer 2 (Pass)
//Storyboard Layer 3 (Foreground)
//Storyboard Sound Samples
//Background Colour Transformations
3,100,163,162,255

[TimingPoints]
205,319.047112623631,4,1,0,80,1,0
35938,-100,4,1,0,80,0,1
56357,-100,4,1,0,50,0,0
79328,-100,4,1,0,80,0,1
99747,-100,4,2,0,40,0,0
117295,-100,4,1,0,30,0,0
121442,-200,4,1,0,50,0,0
122080,-100,4,1,0,50,0,0
122719,-100,4,1,0,80,0,1
143138,-100,4,1,0,80,0,0
162280,-100,4,2,0,40,0,0
163557,-133.333333333333,4,2,0,30,0,0
163876,-100,4,2,0,40,0,0

[Colours]
Combo1 : 238,218,155
Combo2 : 150,150,226
Combo3 : 61,123,226
Combo4 : 223,121,177

[HitObjects]
80,192,5309,2,0,B|80:64|224:64,1,200,0|0
432,192,5947,2,0,B|432:64|288:64,1,200,8|0
256,256,6585,1,8
328,320,6745,1,0
232,352,6904,2,0,B|120:352,1,100,8|0
96,256,7224,1,8
96,256,7543,1,0
192,80,7862,6,0,B|64:80,1,100,0|8
320,80,8181,2,0,B|448:80,1,100,0|0
256,192,8500,1,8
256,192,8819,1,0
56,176,9138,5,8
208,312,9298,1,0
112,136,9457,1,0
264,264,9617,1,0
184,208,9776,1,8
320,64,10095,1,0
184,208,10414,5,8
384,208,10733,1,0
272,40,11052,2,0,B|64:40,1,200,8|0
72,240,11690,1,8
152,296,11850,2,0,B|272:296,1,100
252,296,12328,1,8
128,40,12966,6,0,B|64:128,1,100,8|0
384,40,13285,2,0,B|448:128,1,100
256,192,13604,1,8
256,192,13924,1,0
384,344,14243,6,0,B|448:256,1,100,8|0
128,344,14562,2,0,B|64:256,1,100
256,192,14881,1,8
256,192,15201,1,0
440,264,15519,6,0,B|496:264|512:192|496:120|440:120,2,200,8|0|8
256,192,16476,1,0
256,192,16795,1,8
72,264,17114,2,0,B|16:264|0:192|16:120|72:120,2,200,0|8|0
128,72,18071,6,0,B|192:72|192:144,1,100,8|0
96,160,18390,2,0,B|96:224|168:224,1,100,8|0
248,264,18709,1,8
256,64,19028,1,0
456,64,19347,6,0,B|392:64|392:128,1,100,8|0
488,152,19666,2,0,B|488:216|424:216,1,100,8|0
328,192,19985,1,8
328,192,20304,1,0
152,288,20624,6,0,B|96:192|152:80,1,200,8|0
240,56,21102,1,0
344,56,21262,1,8
480,192,21581,2,0,B|480:320|352:320,1,200,0|8
264,320,22059,1,0
152,320,22219,1,0
152,320,22538,2,0,B|80:248|80:248|64:144,1,200,8|0
256,88,23176,5,8
256,192,23336,1,0
352,192,23495,1,0
352,296,23655,1,0
256,296,23814,1,8
256,296,24133,1,0
256,296,24452,1,8
88,192,24771,6,0,B|24:192|24:344|88:344,2,200,0|8|0
160,264,25569,1,0
256,264,25728,2,0,B|320:264|320:112|256:112,1,200,8|0
440,40,26367,1,8
448,240,26686,1,0
440,336,26845,1,0
344,336,27004,2,0,B|192:336|192:336|144:296,1,200,8|0
256,128,27643,1,8
448,192,27962,5,0
264,272,28281,2,0,B|200:272|200:120|264:120,1,200,8|0
80,40,28920,1,8
80,240,29239,1,0
80,336,29398,1,0
176,336,29557,2,0,B|328:336|328:336|376:296,1,200,8|0
304,112,30195,1,8
472,224,30514,6,0,B|472:336,1,100
368,328,30833,2,0,B|140:328,1,200,8|0
64,160,31471,2,0,B|64:48,1,100,8|0
168,56,31790,2,0,B|396:56,1,200,0|8
184,128,32429,5,0
384,160,32748,1,8
184,128,33066,1,0
288,304,33385,1,8
88,304,33704,2,0,B|88:176|216:176,1,200,0|8
296,360,34343,2,0,B|424:360|424:232,1,200,0|8
224,240,34981,1,0
136,192,35140,1,0
56,128,35300,2,0,B|144:48|240:128,1,200
192,320,35938,6,0,B|104:320|104:192|192:192,1,200,8|0
264,256,36417,1,0
344,320,36576,2,0,B|432:320|432:192|344:192,1,200,8|0
176,96,37214,1,8
80,96,37373,1,0
176,96,37533,1,0
176,96,37852,2,0,B|176:216|312:216,1,200,8|0
288,120,38331,5,0
288,296,38490,1,8
176,152,38650,1,0
344,216,38809,1,0
168,248,38969,1,0
256,208,39128,1,8
256,208,39447,1,0
24,192,39766,5,8
128,192,39926,1,0
232,192,40086,1,0
328,192,40245,1,0
424,192,40404,1,8
424,192,40724,1,0
256,80,41043,6,0,B|128:80|128:216,1,200,8|0
224,168,41521,1,0
320,136,41681,2,0,B|320:264|184:264,1,200,8|0
392,328,42319,1,8
424,232,42478,1,0
328,248,42638,1,0
224,80,42957,1,8
224,80,43276,1,0
24,80,43595,6,0,B|152:80,1,100,8|0
200,152,43914,2,0,B|88:152,1,100
24,224,44233,2,0,B|128:224,1,100,8|0
128,328,44552,1,0
328,336,44871,6,0,B|328:216,1,100,8|0
403,170,45190,2,0,B|323:242,1,100
255,170,45509,2,0,B|335:242,1,100,8|0
328,136,45828,1,0
472,272,46148,6,0,B|424:296|416:352|416:352|408:296|352:272,1,200,8|0
264,272,46626,1,0
168,248,46786,2,0,B|168:112|272:248|272:112,1,200,8|0
176,112,47264,1,0
80,112,47423,6,0,B|80:48|152:32,1,100,8|0
232,40,47743,2,0,B|432:40,1,200,0|8
432,136,48221,1,0
432,240,48381,1,0
336,240,48540,1,0
336,344,48700,1,8
136,344,49019,1,0
72,152,49338,6,0,B|72:24|208:24,1,200,8|0
256,216,49976,1,8
256,16,50295,1,0
312,96,50455,1,0
368,176,50614,2,0,B|488:176|488:312,1,200,8|0
368,344,51252,1,8
168,344,51571,1,0
440,232,51890,6,0,B|440:360|304:360,1,200,8|0
256,168,52528,1,8
256,368,52847,1,0
200,288,53007,1,0
144,208,53166,2,0,B|24:208|24:72,1,200,8|0
224,48,53804,1,8
424,48,54123,1,0
256,152,54443,6,0,B|256:368,1,200,8|0
184,168,55081,2,0,B|64:168,1,100,8|0
176,216,55400,2,0,B|296:216,1,100,8|0
184,256,55719,2,0,B|80:256,1,100,8|0
176,296,56038,2,0,B|384:296,1,200,0|0
416,96,58909,6,0,B|312:96|424:240|312:240,1,200,8|0
322,239,59388,1,0
96,96,59547,2,0,B|200:96|88:240|200:240,1,200,8|0
189,239,60026,1,0
256,160,60185,5,8
256,160,60345,1,0
256,56,60504,1,0
256,56,60664,1,0
256,56,60823,2,0,B|360:56|248:200|360:200,1,200,8|0
168,280,61462,5,8
72,280,61621,1,0
72,176,61781,1,0
168,176,61940,1,0
272,176,62100,1,8
272,176,62419,1,0
96,72,62738,6,0,B|200:72,1,100,8|0
416,72,63057,2,0,B|312:72,1,100,8|0
256,152,63376,2,0,B|256:272,1,100,8|0
256,252,63695,1,0
456,304,64014,6,0,B|456:224|392:256|392:256|392:136,1,200,8|0
288,160,64493,1,0
192,160,64652,2,0,B|192:254|192:254|128:222|128:302,1,200,8|0
56,232,65131,1,0
56,136,65290,1,8
240,64,65609,5,8
240,64,65689,1,0
240,64,65769,1,0
336,64,65928,2,0,B|456:64|456:192,1,200,8|0
264,256,66566,5,8
160,256,66726,1,0
64,256,66885,2,0,B|64:144,1,100
64,56,67204,1,8
264,56,67524,1,0
464,56,67843,1,8
464,256,68162,5,0
264,288,68481,1,8
64,256,68800,1,0
64,56,69119,6,0,B|272:56|272:56|336:128,1,300,8|0
328,208,69757,2,0,B|120:208|120:208|56:280,1,300,8|0
168,320,70395,2,0,B|376:320|376:320|440:248,1,300,8|0
360,184,71033,1,8
160,184,71352,5,0
344,272,71671,2,0,B|240:272|208:408|176:272|48:272,1,300,8|0
64,176,72309,1,8
128,104,72469,1,0
200,40,72628,2,0,B|400:40,1,200,0|8
400,240,73266,1,0
216,320,73585,1,8
40,224,73905,5,0
216,320,74223,2,0,B|216:168|424:320|424:168,1,300,8|0
423,170,74862,1,8
256,56,75181,1,0
112,192,75500,1,8
312,192,75819,5,0
312,192,76138,1,8
200,24,76457,2,0,B|88:24,1,100
176,88,76776,2,0,B|280:88,1,100,8|0
200,152,77095,2,0,B|88:152,1,100
176,216,77414,2,0,B|288:216,1,100,8|0
208,288,77733,6,0,B|96:288,1,100
176,360,78052,2,0,B|296:360,1,100,8|0
336,280,78371,1,0
288,192,78531,1,0
240,280,78690,2,0,B|112:328|88:208,1,200,8|0
88,208,79169,1,0
88,208,79328,6,0,B|88:80|240:80,1,200,8|0
216,184,79807,1,0
216,280,79966,2,0,B|344:280|344:128,1,200,8|0
176,48,80604,1,8
280,48,80764,1,0
384,48,80924,1,0
232,176,81242,2,0,B|232:312|376:312,1,200,8|0
168,192,81881,6,0,B|97:121,1,100,8|0
336,192,82200,2,0,B|406:121,1,100,8|0
256,264,82519,1,0
256,264,82838,1,0
352,88,83157,6,0,B|464:88,1,100,8|0
168,192,83476,2,0,B|64:192,1,100
352,296,83795,2,0,B|464:296,1,100,8|0
384,184,84114,1,0
88,56,84433,6,0,B|88:184|216:184,1,200,8|0
256,32,84912,1,0
424,56,85071,2,0,B|424:184|296:184,1,200,8|0
128,272,85709,1,8
192,352,85869,1,0
288,352,86028,1,0
392,352,86188,1,0
464,280,86347,1,8
104,64,86985,5,8
208,64,87145,1,0
208,160,87304,1,0
312,160,87464,1,0
312,256,87623,1,8
312,256,87942,1,0
160,128,88262,5,8
160,232,88422,1,0
256,232,88581,1,0
256,336,88741,1,0
160,336,88900,1,8
160,336,89219,1,0
160,176,89538,6,0,B|192:136|144:96|144:96|144:32|216:32,1,200,8|0
256,120,90016,1,0
352,176,90176,2,0,B|320:136|368:96|368:96|368:32|296:32,1,200,8|0
256,120,90654,1,0
208,208,90814,6,0,B|96:208,1,100,8|0
304,208,91133,2,0,B|416:208,1,100
344,288,91452,2,0,B|256:360|160:288,1,200,8|0
224,96,92090,2,0,B|96:96|352:256|224:256,1,200,8|0
260,245,92569,1,0
260,245,92728,6,0,B|162:288|66:248,1,200,8|0
260,246,93366,2,0,B|359:289|455:249,1,200,8|0
256,192,94004,1,8
256,192,94323,1,0
256,192,94642,1,8
472,184,95281,6,0,B|440:64|320:88,1,200,8|0
256,160,95759,1,0
40,184,95919,2,0,B|72:64|192:88,1,200,8|0
256,280,96557,1,8
256,184,96716,1,0
256,80,96876,1,0
256,80,97035,1,0
256,80,97195,2,0,B|368:80|224:208|368:208,1,200,8|0
168,280,97833,6,0,B|40:280|168:144|40:144,1,200,8|0
256,208,98471,1,8
256,208,98631,1,0
256,112,98790,1,0
256,112,98950,1,0
344,160,99109,1,8
344,160,99269,1,0
344,160,99428,2,0,B|344:360,1,200,0|0
256,192,117295,12,0,120166
72,296,121442,6,0,B|120:192|16:192|72:96,1,200
256,128,122719,6,0,B|352:128|352:128|392:176|360:240,1,200,8|0
264,224,123197,1,0
264,328,123357,2,0,B|168:328|168:328|128:280|160:216,1,200,8|0
120,32,123995,1,8
176,112,124155,1,0
232,32,124314,1,0
176,224,124633,1,8
176,224,124952,1,0
176,224,125111,5,0
184,48,125270,1,8
288,192,125430,1,0
120,128,125589,1,0
288,88,125749,1,0
208,144,125909,1,8
208,144,126227,1,0
48,192,126547,5,8
152,192,126707,1,0
248,192,126866,1,8
352,192,127026,1,0
448,192,127185,1,8
448,192,127504,1,0
256,256,127824,6,0,B|256:136|392:256|392:136,1,200,8|0
391,150,128302,1,0
391,150,128462,2,0,B|391:22|255:22,1,200,8|0
72,48,129100,1,8
72,144,129259,1,0
72,248,129419,1,0
168,248,129578,1,0
168,144,129738,2,0,B|296:144|296:280,1,200,8|0
480,192,130376,5,8
432,104,130535,1,0
384,192,130695,1,0
336,104,130855,1,0
296,192,131014,1,8
96,192,131333,1,0
296,192,131652,5,8
248,104,131812,1,0
200,192,131971,1,0
152,104,132131,1,0
96,192,132290,1,8
296,192,132609,1,0
456,312,132928,6,0,B|320:216|320:216|176:216,1,300,8|0
88,248,133566,2,0,B|240:128|240:128|352:128,1,300,8|0
256,240,134204,1,8
256,40,134523,5,0
152,40,134683,1,0
208,128,134842,1,8
312,128,135002,1,0
360,40,135161,1,0
256,40,135321,1,0
256,40,135480,2,0,B|256:240,1,200,8|0
440,160,136119,6,0,B|384:72|384:72|280:48,1,200,8|0
248,144,136597,1,0
72,160,136757,2,0,B|128:72|128:72|232:48,1,200,8|0
256,248,137395,1,8
448,312,137714,1,0
448,112,138033,1,8
120,344,138671,6,0,B|120:120,1,200,8|0
288,40,139309,1,8
288,40,139628,2,0,B|288:264,1,200,0|8
96,192,140266,1,0
96,192,140585,2,0,B|192:248|304:184,1,200,8|0
488,192,141223,6,0,B|392:248|280:184,1,200,8|0
144,64,141861,1,8
248,64,142021,1,0
336,112,142181,1,0
336,208,142340,1,0
248,256,142500,2,0,B|184:256|184:328,1,100,8|0
280,352,142819,2,0,B|344:352|344:280,1,100
344,192,143138,5,8
144,192,143457,1,0
256,24,143776,1,8
480,352,144414,5,8
392,304,144573,1,0
304,352,144733,1,0
104,352,145052,1,8
384,72,145690,5,8
480,72,145850,1,0
432,160,146009,1,0
312,320,146328,1,8
32,32,146966,6,0,B|160:112|160:112|224:112,1,200,8|0
256,40,147445,1,0
480,32,147604,2,0,B|352:112|352:112|288:112,1,200,8|0
256,200,148083,1,0
192,120,148242,6,0,B|128:88|88:144|128:200|192:240,1,200,8|0
180,232,148721,1,0
320,120,148880,2,0,B|384:88|424:144|384:200|320:240,1,200,8|0
331,232,149359,1,0
256,168,149519,5,0
256,264,149678,1,8
256,368,149838,1,0
256,168,150157,1,8
80,56,150476,6,0,B|80:112|120:152,1,100
115,147,150795,2,0,B|179:147|179:219,1,100,8|0
178,208,151114,2,0,B|178:296|242:296,1,100
218,292,151433,1,8
432,56,151752,6,0,B|432:112|392:152,1,100
396,147,152071,2,0,B|332:147|332:219,1,100,8|0
332,208,152390,2,0,B|332:296|268:296,1,100
291,292,152709,1,8
256,96,153028,5,0
256,96,153188,1,0
256,96,153347,2,0,B|256:296,1,200,8|0
80,192,153985,2,0,B|104:304|104:304|184:352,2,200,8|0|8
192,192,154783,1,0
288,192,154942,1,0
392,192,155102,1,0
392,96,155261,5,8
288,96,155421,1,0
192,96,155580,1,0
240,184,155740,1,0
240,280,155899,1,8
240,280,156219,1,0
64,312,156538,6,0,B|136:224,1,100,8|0
448,312,156857,2,0,B|376:224,1,100
256,48,157176,2,0,B|256:248,1,200,8|0
256,248,157814,1,8
256,248,158133,1,0
256,248,158452,1,8
64,192,158771,1,0
256,64,159090,6,0,B|464:64,1,200,8|0
304,192,159728,1,8
304,192,160047,1,0
304,192,160366,1,8
184,352,160685,1,0
104,288,160845,1,0
184,232,161004,2,0,B|104:144|184:48,1,200,8|0
328,192,161642,1,8
64,256,162281,5,8
256,312,162599,1,0
256,312,162759,1,0
256,312,162919,2,0,B|256:192,1,100,8|0
352,240,163238,1,0
448,216,163397,1,0
480,120,163557,2,0,B|480:34|384:130|384:34,1,149.999995529652,8|0
