osu file format v9

[General]
AudioFilename: Katy Perry - E.T. (Nightcore Mix).mp3
AudioLeadIn: 0
PreviewTime: 36030
Countdown: 0
SampleSet: Soft
StackLeniency: 0.7
Mode: 0
LetterboxInBreaks: 0
EpilepsyWarning: 1

[Editor]
Bookmarks: 10334,56510,122750
DistanceSpacing: 1
BeatDivisor: 4
GridSize: 8

[Metadata]
Title:E.T. (Nightcore Mix)
Artist:Katy Perry
Creator:Dark_Ai
Version:Hard
Source:
Tags:Magicphoenix Backfire

[Difficulty]
HPDrainRate:5
CircleSize:4
OverallDifficulty:5
ApproachRate:6
SliderMultiplier:1.2
SliderTickRate:1

[Events]
//Background and Video events
0,0,"BG.jpg"
//Break Periods
2,56557,57859
2,99947,116564
//Storyboard Layer 0 (Background)
//Storyboard Layer 1 (Fail)
//Storyboard Layer 2 (Pass)
//Storyboard Layer 3 (Foreground)
//Storyboard Sound Samples
//Background Colour Transformations
3,100,163,162,255

[TimingPoints]
205,319.047112623631,4,1,1,80,1,0
35938,-100,4,1,1,80,0,1
56357,-100,4,1,1,40,0,0
79328,-100,4,1,1,80,0,1
99747,-100,4,2,1,40,0,0
117614,-100,4,2,1,30,0,0
121443,-100,4,1,1,40,0,0
122719,-100,4,1,1,80,0,1
143138,-100,4,1,1,40,0,0
162281,-100,4,2,1,40,0,0
163876,-100,4,2,1,20,0,0

[Colours]
Combo1 : 238,218,155
Combo2 : 150,150,226
Combo3 : 61,123,226
Combo4 : 223,121,177

[HitObjects]
128,184,5309,1,0
328,320,5948,1,8
256,88,6586,1,0
352,160,6905,1,0
240,192,7224,1,8
480,224,7862,6,0,B|480:304|408:304,1,120
288,304,8500,1,8
48,280,9138,2,0,B|16:224|48:160,1,120
168,160,9776,1,8
168,160,10095,1,0
240,256,10414,6,0,B|240:184|312:152,1,120
384,72,11052,2,0,B|328:16|256:64,1,120,8|0
200,152,11690,1,0
80,152,12009,1,0
144,256,12329,1,8
256,296,12648,1,0
256,296,12967,6,0,B|320:304|376:256,2,120,0|0|8
256,176,13924,1,0
256,56,14243,2,0,B|184:56|136:120,2,120,0|0|8
256,176,15200,1,0
376,192,15519,6,0,B|336:256|272:272,1,120
248,152,16157,2,0,B|176:168|144:224,1,120,8|0
256,272,16795,1,0
256,272,17114,1,0
256,272,17433,2,0,B|256:144,1,120,8|0
360,88,18071,6,0,B|432:104|432:184,2,120,0|0|8
320,200,19029,1,0
208,248,19348,2,0,B|224:320|304:320,2,120,0|0|8
320,200,20305,1,0
256,96,20624,6,0,B|136:96,1,120
72,200,21262,2,0,B|200:200,1,120,8|0
256,288,21900,1,0
376,288,22219,1,0
312,184,22538,2,0,B|312:64,1,120,8|0
200,104,23176,5,0
112,192,23495,1,0
208,264,23814,1,8
304,192,24133,2,0,B|432:192,1,120
400,312,24771,5,0
400,312,24931,1,0
400,312,25090,1,8
280,312,25409,1,0
160,320,25729,6,0,B|80:224,1,120
144,120,26367,1,8
144,120,26686,2,0,B|56:40,2,120
240,200,27643,1,8
320,112,27962,5,0
320,112,28281,1,0
416,192,28600,1,0
328,272,28919,2,0,B|200:272,1,120,8|0
208,272,29398,1,0
208,272,29557,2,0,B|208:144,1,120
208,32,30195,1,8
320,80,30514,6,0,B|384:112,1,60
424,136,30833,2,0,B|351:247,1,120
256,304,31471,1,8
160,232,31790,1,0
256,160,32109,1,0
352,232,32429,1,0
400,120,32748,6,0,B|400:56,1,60,8|0
336,56,33067,2,0,B|192:56,1,120
160,160,33705,1,0
128,272,34024,1,8
248,296,34343,1,0
248,296,34502,1,0
248,296,34662,1,0
304,192,34981,1,0
304,192,35140,1,0
304,192,35300,2,0,B|440:192,1,120,8|0
416,72,35938,6,0,B|336:72|304:136,1,120,4|0
384,216,36576,2,0,B|336:256|256:232,1,120,8|0
256,120,37214,1,0
256,120,37374,1,0
256,120,37533,1,0
160,48,37852,2,0,B|160:176,1,120,8|0
80,256,38490,5,0
120,296,38650,1,0
176,320,38809,1,0
232,296,38969,1,0
272,248,39128,2,0,B|400:248,1,120,8|0
392,128,39766,5,0
368,72,39926,1,0
304,72,40086,1,0
288,128,40245,1,0
336,160,40404,2,0,B|336:288,1,120
256,192,41043,6,0,B|119:192,1,120
216,280,41681,2,0,B|96:280,1,120,8|0
192,352,42319,1,0
192,352,42478,1,0
192,352,42638,1,0
192,352,42957,2,0,B|312:352,1,120,8|0
424,176,43595,6,0,B|280:176,2,120,0|0|8
344,88,44552,1,0
344,88,44871,2,0,B|464:88,2,120,0|0|8
232,136,45828,1,0
144,72,46148,6,0,B|88:128|144:184,1,120,4|0
248,120,46786,2,0,B|304:176|248:232,1,120,8|0
136,280,47424,1,0
240,336,47743,1,0
256,216,48062,1,8
256,216,48221,1,0
256,216,48381,2,0,B|384:216,1,120
376,216,49019,1,0
304,120,49338,6,0,B|304:240,1,120,8|0
256,352,49976,1,0
256,232,50295,1,0
256,112,50614,2,0,B|128:112,2,120,8|0|0
136,112,51571,1,0
112,224,51890,6,0,B|192:312,1,120,8|0
248,208,52528,1,0
248,208,52848,1,0
248,208,53166,2,0,B|384:208,2,120,8|0|0
368,208,54123,1,0
408,96,54443,5,8
408,96,54762,1,0
288,96,55081,2,0,B|152:96,2,120,0|0|8
256,216,56038,1,0
256,336,56357,1,4
256,56,58909,6,0,B|256:184,1,120
192,280,59548,2,0,B|320:280,1,120,8|0
384,184,60186,1,0
360,128,60345,1,0
304,128,60505,2,0,B|176:128,2,120,0|8|0
256,240,61462,6,0,B|256:376,2,120,0|0|8
256,240,62419,1,0
256,120,62738,2,0,B|256:0,2,120,0|0|8
256,120,63695,1,0
352,192,64014,6,0,B|488:192,1,120
472,312,64652,2,0,B|224:312,1,240
232,192,65609,2,0,B|104:192,1,120,0|8
32,104,66247,1,0
152,104,66567,6,0,B|288:104,2,120,0|0|8
152,224,67524,1,0
152,224,67843,2,0,B|16:224,2,120,0|0|8
152,104,68800,1,0
256,160,69119,6,0,B|256:40,1,120
256,160,69757,2,0,B|400:160,1,120,8|0
256,160,70395,2,0,B|256:296,1,120
256,160,71033,2,0,B|128:160,1,120,8|0
168,272,71671,6,0,B|288:272,1,120
400,224,72309,1,8
400,104,72628,1,0
400,104,72788,1,0
400,104,72947,1,0
296,168,73267,1,0
296,168,73586,1,8
256,64,73905,6,0,B|136:64,1,120
64,160,74543,2,0,B|184:160,1,120,0|8
112,256,75181,1,0
208,328,75500,1,0
312,264,75819,1,0
312,264,76138,1,8
408,200,76457,6,0,B|408:72,1,120
304,144,77095,2,0,B|168:144,1,120,0|8
96,64,77733,2,0,B|96:200,1,120,0|8
184,272,78371,1,0
184,272,78531,1,0
184,272,78690,2,0,B|320:272,1,120,8|0
408,328,79328,6,0,B|328:328|328:256,1,120,4|0
440,208,79966,2,0,B|440:128|368:128,1,120,8|0
256,80,80605,1,0
256,80,80764,1,0
256,80,80924,1,0
256,200,81243,2,0,B|256:320,1,120,8|0
376,320,81881,5,0
376,200,82200,1,0
376,200,82359,1,0
376,200,82519,1,8
376,80,82838,2,0,B|248:80,1,120
256,80,83317,1,0
256,80,83476,1,0
136,80,83795,2,0,B|136:152|216:152,1,120,8|0
272,256,84433,6,0,B|320:200|272:144,1,120
176,216,85071,2,0,B|128:160|176:104,1,120,8|0
288,88,85709,2,0,B|360:88,2,60
168,88,86347,2,0,B|48:88,1,120,8|0
80,200,86986,6,0,B|224:200,2,120,0|0|8
176,280,87942,1,0
176,280,88262,2,0,B|280:352,1,120
272,224,88900,1,8
272,224,89219,1,0
376,320,89538,6,0,B|432:264|376:208,1,120,4|0
272,264,90176,2,0,B|216:208|272:152,1,120,8|0
376,104,90814,1,0
272,48,91133,1,0
272,168,91452,2,0,B|144:168,1,120,8|0
152,168,92090,1,0
152,168,92409,1,0
208,264,92728,6,0,B|208:144,1,120,8|0
256,32,93367,1,0
256,152,93686,1,0
312,272,94004,2,0,B|176:272,2,120,8|0|0
432,256,94961,1,0
400,144,95281,6,0,B|320:56,1,120,8|0
200,56,95919,2,0,B|119:144,1,120,0|0
232,192,96557,1,8
232,192,96876,1,0
232,192,97195,2,0,B|96:192,1,120,0|0
104,312,97833,5,8
224,312,98152,1,0
224,312,98471,2,0,B|360:312,2,120,0|0|8
256,200,99428,1,0
256,80,99747,1,0
256,192,117614,12,2,120804
96,96,121442,6,0,B|72:152|96:224|176:224|200:152|176:96,1,240
416,72,122719,6,0,B|336:72|304:136,1,120,4|0
384,216,123357,2,0,B|336:256|256:232,1,120,8|0
256,120,123995,1,0
256,120,124155,1,0
256,120,124314,1,0
160,48,124633,2,0,B|160:176,1,120,8|0
80,256,125271,5,0
176,328,125590,2,0,B|104:328,2,60,0|0|8
272,256,126228,2,0,B|400:256,1,120
392,256,126866,1,0
392,136,127185,2,0,B|392:64|312:64,1,120,8|0
200,80,127824,6,0,B|80:80,1,120
176,152,128462,2,0,B|96:264,1,120,8|0
240,296,129100,1,0
240,296,129259,1,0
240,296,129419,1,0
360,296,129738,2,0,B|480:296,1,120,8|0
416,192,130376,5,0
416,192,130695,1,0
416,192,131014,2,0,B|416:72,1,120,8|0
296,48,131652,1,0
352,152,131971,1,0
240,120,132290,1,8
240,120,132609,1,0
136,64,132928,6,0,B|80:120|136:176,1,120,4|0
240,120,133566,2,0,B|296:176|240:232,1,120,8|0
136,280,134205,1,0
240,336,134524,1,0
240,216,134842,2,0,B|368:216,1,120,8|0
360,216,135480,1,0
120,208,136119,6,0,B|120:328,1,120,8|0
240,328,136757,1,0
240,208,137076,1,0
240,88,137395,2,0,B|112:88,1,120,8|0
120,88,138033,1,0
112,224,138671,6,0,B|192:312,1,120,8|0
312,312,139309,2,0,B|440:312,1,120
432,192,139947,1,8
432,192,140266,1,0
432,192,140585,2,0,B|432:64,1,120
312,72,141224,5,8
312,72,141543,1,0
192,72,141862,2,0,B|56:72,2,120,0|0|8
240,184,142819,1,0
240,304,143138,1,4
120,304,143457,6,0,B|80:176,1,120,0|8
320,224,144414,1,0
384,328,144733,1,0
424,216,145052,1,8
256,32,145690,5,0
176,120,146009,1,0
200,240,146328,1,8
432,192,146966,6,0,B|296:192,1,120
192,192,147605,1,8
384,336,148243,2,0,B|384:208,1,120
384,96,148881,1,8
168,192,149519,6,0,B|48:192,2,120,0|0|8
408,192,150795,2,0,B|272:192,2,120,0|0|8
192,80,152071,5,0
192,80,152390,1,0
192,200,152709,2,0,B|192:336,2,120,8|0|0
192,200,153666,1,0
192,200,153985,1,8
416,112,154624,6,0,B|288:112,1,120
256,224,155262,1,8
256,168,155421,1,0
256,112,155581,1,0
136,112,155900,2,0,B|16:112,1,120
88,208,156538,1,8
256,376,157176,5,0
256,256,157495,1,0
256,256,157654,1,0
256,256,157814,2,0,B|256:120,2,120,8|0|0
424,88,159090,6,8,B|280:88,1,120,8|0
256,200,159728,1,0
256,320,160047,1,0
144,264,160366,1,8
144,264,160685,1,0
144,264,161004,2,0,B|144:120,1,120
256,96,161643,6,0,B|256:224,1,120,8|0
256,336,162281,1,0
256,336,162600,1,2
256,192,162919,12,0,163876
