osu file format v14

[General]
AudioFilename: Katy Perry - E.T. (KATFYR Dubstep Remix).mp3
AudioLeadIn: 0
PreviewTime: 208411
Countdown: 0
SampleSet: Normal
StackLeniency: 0.7
Mode: 0
LetterboxInBreaks: 1
WidescreenStoryboard: 1

[Editor]
Bookmarks: 14200
DistanceSpacing: 1.5
BeatDivisor: 4
GridSize: 4
TimelineZoom: 1

[Metadata]
Title:E.T. (KATFYR Dubstep Remix)
TitleUnicode:E.T. (KATFYR Dubstep Remix)
Artist:Katy Perry
ArtistUnicode:Katy Perry
Creator:Hullahopp
Version:Insane -New-
Source:
Tags:
BeatmapID:677530
BeatmapSetID:302229

[Difficulty]
HPDrainRate:7
CircleSize:4
OverallDifficulty:8
ApproachRate:9
SliderMultiplier:1.6
SliderTickRate:1

[Events]
//Background and Video events
0,0,"Best-Black-and-White-Abstract-Photo1.jpg",0,0
//Break Periods
2,52299,64130
//Storyboard Layer 0 (Background)
//Storyboard Layer 1 (Fail)
//Storyboard Layer 2 (Pass)
//Storyboard Layer 3 (Foreground)
//Storyboard Sound Samples

[TimingPoints]
-6,394.736842105263,4,1,0,100,1,0
14200,-133.333333333333,4,2,0,100,0,0
26832,-100,4,2,0,100,0,0
67884,-80,4,1,0,100,0,1
93147,-100,4,2,0,100,0,0
117621,-100,4,1,0,100,0,0
121568,-80,4,1,0,100,0,1
146832,-80,4,1,0,100,0,0
149989,-133.333333333333,4,2,0,100,0,0
181568,-66.6666666666667,4,1,0,100,0,0
208411,-80,4,1,0,100,0,0
211568,-80,4,1,0,100,0,1
258937,-80,4,1,0,100,0,0

[Colours]
Combo1 : 255,255,128
Combo2 : 255,128,128
Combo3 : 170,85,255
Combo4 : 128,255,128
Combo5 : 128,255,255

[HitObjects]
204,96,14204,6,0,P|168:152|184:200,1,120.000004577637
256,268,14796,1,0,0:0:0:0:
292,72,14993,2,0,P|260:20|188:8,1,120.000004577637
104,28,15586,1,0,0:0:0:0:
264,160,15783,6,0,L|356:128,2,90.0000034332277
224,180,16474,1,0,0:0:0:0:
184,196,16572,2,0,P|224:244|216:300,1,120.000004577637
88,168,17165,2,0,P|116:120|140:108,1,60.0000022888184
140,268,17559,6,0,P|108:280|72:280,1,60.0000022888184
88,168,17954,1,0,0:0:0:0:
144,76,18151,2,0,P|196:104|300:60,1,180.000006866455
392,140,18941,6,0,L|428:36,2,90.0000034332277
396,184,19632,1,0,0:0:0:0:
420,224,19730,2,0,B|376:224|376:224|320:248,2,90.0000034332277
332,324,20520,6,0,P|284:312|252:244,1,120.000004577637
248,152,21112,1,0,0:0:0:0:
332,244,21309,2,0,P|388:268|412:320,1,120.000004577637
496,380,21901,1,0,0:0:0:0:
248,308,22099,6,0,B|296:332|296:332|332:324,2,90.0000034332277
208,284,22790,1,0,0:0:0:0:
168,264,22888,2,0,B|164:216|164:216|104:168,1,120.000004577637
68,268,23480,1,0,0:0:0:0:
128,84,23678,6,0,P|84:84|52:104,1,60.0000022888184
224,160,24072,2,0,P|268:160|300:140,1,60.0000022888184
340,52,24467,2,0,B|344:84|344:84|372:120|372:120|380:168,1,120.000004577637
384,272,25059,1,0,0:0:0:0:
240,312,25257,1,0,0:0:0:0:
256,192,25355,12,0,26441,0:0:0:0:
112,92,26836,6,0,P|132:144|228:168,1,160
72,236,27428,1,0,0:0:0:0:
200,84,27625,2,0,P|284:100|312:188,1,160
360,0,28217,1,0,0:0:0:0:
308,224,28415,5,0,0:0:0:0:
272,272,28513,1,0,0:0:0:0:
212,288,28612,1,0,0:0:0:0:
152,272,28711,1,0,0:0:0:0:
112,228,28809,1,0,0:0:0:0:
108,168,28908,1,0,0:0:0:0:
132,112,29007,1,0,0:0:0:0:
184,80,29105,1,0,0:0:0:0:
244,88,29204,1,0,0:0:0:0:
296,120,29993,6,0,B|324:104|324:104|384:92,1,80
212,268,30388,2,0,B|184:284|184:284|124:296,1,80
204,168,30783,2,0,L|312:228,2,120
336,312,31572,6,0,P|372:292|392:256,1,80
172,80,31967,2,0,P|136:100|116:136,1,80
192,280,32362,2,0,P|216:220|204:168,2,120
288,144,33151,6,0,L|324:304,1,160
120,216,33743,1,0,0:0:0:0:
352,48,33941,2,0,L|388:208,1,160
48,268,34533,1,0,0:0:0:0:
132,112,34730,5,0,0:0:0:0:
184,144,34829,1,0,0:0:0:0:
212,196,34928,1,0,0:0:0:0:
212,256,35026,1,0,0:0:0:0:
236,312,35125,1,0,0:0:0:0:
292,336,35224,1,0,0:0:0:0:
352,328,35322,1,0,0:0:0:0:
396,288,35421,1,0,0:0:0:0:
424,236,35520,2,0,L|336:208,1,80
264,56,35915,2,0,L|308:64,1,40
184,144,36112,2,0,L|144:148,1,40
104,324,36309,6,0,B|132:320|132:320|188:320,1,80
340,248,36704,2,0,P|296:228|276:196,1,80
440,212,37099,2,0,P|440:296|384:344,1,160
360,156,37691,1,0,0:0:0:0:
272,80,37888,6,0,L|188:72,1,80
44,196,38283,2,0,L|136:184,1,80
324,292,38678,2,0,B|256:284|256:284|196:292,2,120
160,352,39467,6,0,B|148:264|148:264|104:204,1,160
56,332,40059,1,0,0:0:0:0:
144,120,40257,2,0,B|184:176|184:176|224:144|280:164,1,160
304,300,40849,2,0,P|264:280|244:244,1,80
400,192,41243,2,0,P|360:194|328:217,1,80
396,288,41638,5,0,0:0:0:0:
392,96,41836,1,0,0:0:0:0:
120,92,42033,1,0,0:0:0:0:
120,92,42132,1,0,0:0:0:0:
120,92,42230,2,0,P|152:128|160:168,1,80
92,280,42625,6,0,L|192:296,1,80
372,192,43020,2,0,L|292:204,1,80
172,32,43415,2,0,P|200:84|184:140,2,120
312,32,44204,6,0,L|400:64,1,80
112,96,44599,2,0,L|24:64,1,80
232,192,44993,2,0,B|212:224|212:224|172:252|172:252|144:288,2,120
64,240,45783,6,0,P|64:320|124:368,1,160
312,280,46375,1,0,0:0:0:0:
144,280,46572,2,0,P|144:200|84:152,1,160
236,124,47165,1,0,0:0:0:0:
424,168,47362,6,0,L|440:120,1,40
320,128,47559,2,0,L|328:80,1,40
216,124,47757,2,0,L|216:176,1,40
108,188,47954,2,0,L|120:228,1,40
76,336,48151,2,0,B|144:372|156:312|236:356,1,160
380,356,48743,1,0,0:0:0:0:
200,260,48941,6,0,P|156:256|112:276,1,80
320,192,49336,2,0,P|364:196|408:176,1,80
80,232,49730,2,0,P|152:204|240:216,1,160
56,128,50322,1,0,0:0:0:0:
232,116,50520,6,0,P|192:92|176:64,1,80
320,96,50915,2,0,P|319:142|302:170,1,80
258,33,51309,2,0,P|311:8|368:24,2,120
420,192,52099,1,0,0:0:0:0:
256,192,64730,12,0,67099,0:0:0:0:
152,104,67888,6,0,B|148:128|168:144|168:144|196:164|244:156|244:156|248:192|216:240,1,200
88,224,68480,1,0,0:0:0:0:
304,280,68678,2,0,B|336:228|340:180|340:180|392:216|452:184,1,200
480,304,69270,1,0,0:0:0:0:
396,112,69467,2,0,P|416:60|456:40,1,100
429,194,69862,2,0,P|373:202|336:178,1,100
276,48,70257,2,0,L|208:240,1,200
112,164,70849,1,0,0:0:0:0:
280,276,71046,2,0,P|336:304|356:344,1,100
