osu file format v12

[General]
AudioFilename: Hayate-no-Gotoku-Cuties-OP(TV-Ver.).mp3
AudioLeadIn: 1996
PreviewTime: 64993
Countdown: 0
SampleSet: Soft
StackLeniency: 0.3
Mode: 0
LetterboxInBreaks: 0
WidescreenStoryboard: 0

[Editor]
Bookmarks: 20466,21323,21666,49179,54151,84151,85522,88779
DistanceSpacing: 1.2
BeatDivisor: 4
GridSize: 4

[Metadata]
Title:Haru ULALA LOVE yo Koi!!! (TV EDIT)
TitleUnicode:春ULALA♥LOVEよ来い!!! (TV EDIT)
Artist:Katsura Hinagiku starring Itou Shizuka
ArtistUnicode:桂ヒナギク starring 伊藤静
Creator:Momochikun
Version:Normal
Source:Hayate no Gotoku! Cuties
Tags:opening katsura hinagiku
BeatmapID:277858
BeatmapSetID:105849

[Difficulty]
HPDrainRate:3
CircleSize:3
OverallDifficulty:3
ApproachRate:4
SliderMultiplier:1.00000000596046
SliderTickRate:1

[Events]
//Background and Video events
0,0,"Hinagiku BG.jpg",0,0
Video,0,"blah.avi"
//Break Periods
//Storyboard Layer 0 (Background)
//Storyboard Layer 1 (Fail)
//Storyboard Layer 2 (Pass)
//Storyboard Layer 3 (Foreground)
//Storyboard Sound Samples
//Background Colour Transformations
3,100,255,128,128

[TimingPoints]
550,342.857142857143,4,2,2,60,1,0
2607,-100,4,2,2,30,0,0
3292,-100,4,2,2,70,0,0
9978,-100,4,2,2,60,0,0
11521,-100,4,2,2,70,0,1
11864,-100,4,2,2,70,0,0
20950,-100,4,2,2,55,0,0
22492,-100,4,2,2,70,0,0
44435,-133.333333333333,4,2,2,60,0,0
49921,-100,4,2,2,70,0,0
54721,-100,4,2,2,50,0,0
55407,-100,4,2,2,70,0,0
63464,-100,4,2,2,30,0,0
65007,-100,4,2,2,70,0,0
66378,-100,4,2,2,80,0,1
76664,-100,4,2,2,50,0,1
77178,-100,4,2,2,60,0,0
77350,-100,4,2,2,80,0,1
84207,-100,4,2,2,50,0,1
84550,-100,4,2,2,60,0,1
84892,-100,4,2,2,70,0,1
85235,-100,4,2,2,80,0,1
85578,-100,4,2,2,80,0,1
87978,-100,4,2,2,80,0,0

[Colours]
Combo1 : 213,252,131
Combo2 : 255,128,192
Combo3 : 177,181,207

[HitObjects]
256,192,550,12,4,2264,0:1:0:0:
140,340,2607,5,2,0:0:0:0:
36,288,2950,1,2,0:0:0:0:
40,168,3292,6,0,B|120:144|144:192|248:168,1,200.000001192092,4|2,0:0|0:0,0:0:0:0:
344,120,4321,1,2,0:0:0:0:
460,152,4664,2,0,P|476:248|396:320,1,200.000001192092,4|2,0:0|0:0,0:0:0:0:
348,212,5692,1,2,0:0:0:0:
240,268,6035,6,4,P|224:172|290:103,2,200.000001192092
472,336,8092,1,4,0:0:0:0:
472,336,8778,6,0,P|408:320|360:320,1,100.000000596046,4|0,0:0|0:0,0:0:0:0:
256,352,9464,2,0,P|222:350|158:334,1,100.000000596046,2|2,0:0|0:0,0:0:0:0:
100,312,9978,6,0,L|132:160,1,150.000000894069,4|2,0:0|0:0,0:0:0:0:
236,104,10835,2,0,P|284:104|336:132,1,100.000000596046,2|2,0:0|0:0,0:0:0:0:
368,240,11521,6,0,P|464:216|496:120,1,200.000001192092,4|2,0:0|1:2,0:0:0:0:
384,80,12550,1,0,0:0:0:0:
384,80,12892,6,0,P|304:56|176:56,2,200.000001192092,0|2|0,0:0|1:2|0:0,0:0:0:0:
484,148,14607,1,2,0:0:0:0:
464,268,14950,1,2,1:2:0:0:
224,240,15635,6,0,L|112:264,1,100.000000596046,2|2,0:0|0:0,0:0:0:0:
112,152,16321,2,0,L|0:176,2,100.000000596046,2|0|4,1:2|0:0|0:0,0:0:0:0:
208,80,17350,5,2,0:0:0:0:
208,80,17692,2,0,P|304:80|368:160,1,200.000001192092,2|0,0:0|1:0,0:0:0:0:
256,192,18721,5,2,0:0:0:0:
296,304,19064,2,0,P|200:304|136:224,1,200.000001192092,2|0,0:0|1:0,0:0:0:0:
256,192,20092,5,2,0:0:0:0:
256,192,20435,2,0,P|314:156|393:154,1,150.000000894069,2|0,0:0|1:0,0:0:0:0:
436,268,21292,2,0,L|352:304,1,75.0000004470345,0|0,1:0|1:0,1:0:0:0:
108,92,22492,6,0,P|152:116|220:112,1,100.000000596046,4|0,0:1|1:0,0:0:0:0:
440,88,23521,2,0,P|360:32|240:40,2,200.000001192092,0|0|0,1:0|1:0|1:0,0:0:0:0:
368,184,25235,6,0,L|312:280,1,100.000000596046,0|0,0:0|1:0,0:0:0:0:
200,248,25921,2,0,L|144:344,2,100.000000596046,0|0|0,0:0|1:0|0:0,0:0:0:0:
264,120,26950,1,0,1:0:0:0:
264,120,27292,2,0,P|192:64|80:72,1,200.000001192092,0|4,0:0|0:0,0:0:0:0:
48,184,28321,6,0,L|88:280,1,100.000000596046,0|0,1:0|0:0,0:0:0:0:
208,304,29007,2,0,P|312:312|392:368,2,200.000001192092,0|0|0,1:0|1:0|1:0,0:0:0:0:
88,320,30721,1,0,0:0:0:0:
64,204,31064,2,0,L|25:111,2,100.000000596046,0|0|0,1:0|0:0|1:0,0:0:0:0:
124,216,31921,2,4,B|168:196|196:156|196:156|272:216|352:176,1,250.000001490115
456,216,33121,1,2,0:0:0:0:
496,104,33464,6,0,P|440:40|304:64,1,200.000001192092,4|0,0:0|1:0,0:0:0:0:
348,160,34492,1,0,0:0:0:0:
456,216,34835,2,0,P|456:268|432:328,1,100.000000596046,0|0,1:0|0:0,0:0:0:0:
352,300,35521,1,0,1:0:0:0:
300,64,36207,6,0,P|204:40|92:64,1,200.000001192092,2|0,0:0|1:0,0:0:0:0:
104,296,37578,2,0,P|200:320|312:296,1,200.000001192092,2|0,0:0|1:0,0:0:0:0:
464,128,38950,6,0,P|408:64|304:88,2,200.000001192092,4|0|0,0:0|1:0|1:0,0:0:0:0:
424,240,40664,2,0,L|320:280,1,100.000000596046,0|0,0:0|1:0,0:0:0:0:
232,200,41350,1,2,0:0:0:0:
232,200,41521,6,2,P|180:248|93:273,1,150.000000894069,4|2,0:0|0:0,0:0:0:0:
8,204,42378,2,2,P|11:149|45:101,1,100.000000596046,4|2,0:0|0:0,0:0:0:0:
140,56,43064,2,2,P|195:59|243:93,1,100.000000596046,4|2,0:0|0:0,0:0:0:0:
232,200,43750,1,2,0:0:0:0:
392,280,44435,6,0,P|296:336|184:320,1,225.000009924173,4|0,0:0|1:0,0:0:0:0:
240,248,45807,2,0,P|131:233|35:289,1,225.000009924173,4|0,0:0|1:0,0:0:0:0:
104,344,47178,2,0,P|89:235|145:139,1,225.000009924173,4|0,0:0|1:0,0:0:0:0:
232,112,48550,2,0,P|296:136|344:184,2,112.500004962086,2|0|0,0:0|0:0|1:0,0:0:0:0:
192,224,49921,6,0,P|158:252|104:272,1,100.000000596046,4|0,0:0|1:0,0:0:0:0:
24,184,50607,2,0,P|43:131|71:98,1,100.000000596046,0|0,0:0|1:0,0:0:0:0:
184,56,51292,2,0,P|264:40|344:56,2,150.000000894069,0|2|0,0:0|0:0|1:0,0:0:0:0:
166,175,52664,6,0,P|94:199|24:184,2,150.000000894069,0|2|0,0:0|0:0|1:0,0:0:0:0:
192,120,53864,2,0,P|272:104|344:120,1,150.000000894069,4|2,0:0|0:0,0:0:0:0:
432,192,54721,2,0,L|392:312,1,100.000000596046,0|0,1:0|1:0,0:0:0:0:
296,344,55407,6,0,P|200:344|128:272,1,200.000001192092,4|2,0:0|0:0,0:0:0:0:
208,184,56435,1,0,0:0:0:0:
136,88,56778,2,0,P|206:18|302:18,2,200.000001192092,4|2|4,0:0|0:0|0:0,0:0:0:0:
64,184,58492,2,0,P|48:240|56:288,2,100.000000596046,2|0|2,0:0|0:0|0:0,0:0:0:0:
176,216,59521,6,0,L|368:296,1,200.000001192092,4|2,0:0|0:0,0:0:0:0:
464,352,60550,1,0,0:0:0:0:
456,232,60892,5,2,0:0:0:0:
456,232,61064,2,0,P|408:192|344:184,1,100.000000596046,4|0,0:0|0:0,0:0:0:0:
312,192,61578,2,0,P|250:199|186:173,1,100.000000596046,4|2,0:0|0:0,0:0:0:0:
184,136,62092,6,0,P|122:128|58:154,1,100.000000596046,4|2,0:0|0:0,0:0:0:0:
40,184,62607,2,0,P|32:256|56:312,1,100.000000596046,2|2,0:0|0:0,0:0:0:0:
148,336,63292,1,2,0:0:0:0:
256,192,63464,12,2,65007,0:0:0:0:
96,304,65692,5,0,1:0:0:0:
160,208,66035,1,0,1:0:0:0:
216,104,66378,6,0,P|320:96|384:160,1,200.000001192092,4|0,0:0|1:0,0:0:0:0:
416,272,67407,1,0,0:0:0:0:
416,272,67750,6,0,B|336:328|280:232|216:288,2,200.000001192092,2|0|4,0:2|1:0|0:0,0:0:0:0:
256,96,69807,1,2,0:0:0:0:
24,144,70492,6,0,P|104:208|200:208,1,200.000001192092,4|2,0:0|0:0,0:0:0:0:
256,312,71521,1,0,1:0:0:0:
344,224,71864,6,0,L|400:136,1,100.000000596046,4|0,0:0|1:0,0:0:0:0:
280,144,72550,2,0,L|336:56,1,100.000000596046,0|0,0:0|1:0,0:0:0:0:
212,52,73235,1,0,0:0:0:0:
100,96,73578,2,0,P|96:192|192:252,1,200.000001192092,0|0,1:0|1:0,0:0:0:0:
288,216,74607,6,0,P|336:224|384:256,1,100.000000596046,4|0,0:0|1:0,0:0:0:0:
404,368,75292,2,0,P|452:360|500:328,1,100.000000596046,0|0,1:0|1:0,0:0:0:0:
488,272,75807,1,4,0:0:0:0:
256,72,76664,5,0,1:0:0:0:
192,176,77007,1,0,1:0:0:0:
120,272,77350,6,0,P|168:336|280:320,1,200.000001192092,4|2,0:0|0:0,0:0:0:0:
364,240,78378,1,0,1:0:0:0:
436,144,78721,2,0,P|388:80|279:94,1,200.000001192092,4|2,0:0|0:0,0:0:0:0:
192,176,79750,1,0,1:0:0:0:
112,264,80092,6,4,P|64:176|96:80,2,200.000001192092
352,264,82150,1,4,0:0:0:0:
480,64,82835,6,0,P|368:64|320:128,1,200.000001192092,4|0,0:0|1:0,0:0:0:0:
432,176,83864,1,0,0:0:0:0:
432,176,84207,2,2,L|392:272,1,100.000000596046
280,224,84892,2,2,L|240:320,1,100.000000596046
128,356,85578,6,0,P|72:316|56:228,1,150.000000894069,4|0,0:0|0:0,0:0:0:0:
136,152,86435,1,2,0:0:0:0:
108,36,86778,2,0,P|163:38|256:100,1,150.000000894069,2|2,0:0|0:0,0:0:0:0:
276,200,87635,1,0,0:0:0:0:
348,296,87978,1,4,0:1:0:0:
348,296,88321,6,0,B|384:256|384:256|380:208|416:160,1,150.000000894069,2|4,0:0|0:0,0:0:0:0:
