osu file format v5

[General]
AudioFilename: 100percentNaINaINaI.mp3
AudioLeadIn: 0
PreviewTime: -1
Countdown: 1
SampleSet: Normal
StackLeniency: 0.7
Mode: 0
LetterboxInBreaks: 1

[Metadata]
Title:100 Percent NaINaINaI
Artist:Katou Emiri(Hiiragi Kagami)
Creator:kioukiou
Version:Easy
Source:
Tags:

[Difficulty]
HPDrainRate:4
CircleSize:2
OverallDifficulty:4
SliderMultiplier:1.4
SliderTickRate:2

[Events]
//Background and Video events
0,0,"2.jpg"
//Break Periods
2,82939,99705
//Storyboard Layer 0 (Background)
//Storyboard Layer 1 (Failing)
//Storyboard Layer 2 (Passing)
//Storyboard Layer 3 (Foreground)
//Storyboard Sound Samples
//Background Colour Transformations
3,100,163,162,255

[TimingPoints]
727,571.428571428571,4,1,0,80,1

[HitObjects]
88,80,19012,1,0
88,216,19584,1,0
208,288,20155,1,2
264,248,20441,1,2
320,200,20726,1,2
248,80,21298,1,0
384,80,21869,1,0
384,216,22441,2,0,C|384:304,2,70
272,296,23584,5,0
128,296,24155,1,0
136,152,24726,1,0
264,152,25298,1,0
440,256,26155,1,0
392,200,26441,1,0
320,128,26869,2,2,C|248:56,3,70
376,64,28155,5,0
376,200,28726,1,0
288,304,29298,1,0
240,248,29584,1,0
200,192,29869,1,0
88,280,30441,1,0
88,136,31012,1,0
200,56,31584,2,0,C|296:56,1,70
336,56,32155,1,0
408,168,32726,5,0
408,304,33298,1,2
264,304,33869,1,0
264,160,34441,1,2
72,72,35298,2,0,C|72:136,2,35
72,208,36155,1,0
72,280,36441,1,0
144,280,36726,1,0
216,280,37012,1,0
272,320,37298,6,2,B|360:336|466:235|462:92|288:16,1,420
152,136,39584,2,0,B|192:72|256:40|328:160,1,210
280,256,41012,2,0,B|256:312|192:312|144:240,1,140
432,64,42441,5,0
288,64,43012,1,0
144,64,43584,1,2
144,136,43869,1,2
144,208,44155,1,2
408,320,45298,1,0
408,320,45869,1,0
408,320,46441,2,2,B|448:232|448:96|248:32|168:32,1,420
120,152,48727,2,0,B|40:184|37:286|160:320,1,210
264,296,50155,2,0,B|304:272|304:208|240:168,1,140
432,64,51584,5,0
288,64,52155,1,0
144,64,52727,1,0
144,344,53869,1,0
280,344,54441,1,0
416,344,55012,1,0
248,216,55869,1,2
200,160,56155,1,2
152,216,56441,1,2
104,160,56727,1,2
88,16,57298,2,0,B|256:16,3,140
480,128,60155,5,0
368,208,60727,1,0
256,120,61298,1,0
184,120,61584,1,0
112,120,61869,1,0
112,192,62155,1,0
112,264,62441,2,2,C|264:264,3,140
360,176,64727,6,0,B|441:166|445:73|352:24,1,210,0|0
288,32,65869,2,0,B|204:91|200:149|296:192,1,210
152,160,67298,1,0
152,232,67584,1,0
152,296,67869,1,0
224,296,68155,1,0
296,296,68441,1,0
368,296,68727,1,0
416,104,69298,5,0
296,32,69869,1,0
160,32,70441,1,0
96,64,70727,1,0
40,104,71012,1,0
40,176,71298,1,0
72,240,71584,2,0,B|112:320|272:336|360:280|440:160,1,420
312,96,73869,6,0,B|350:53|385:32|446:66|456:152,1,210
448,216,75012,2,0,B|408:272|360:288|304:264|280:184,1,210
184,72,76441,1,0
40,72,77012,1,0
40,208,77584,1,0
88,256,77869,1,0
144,216,78155,1,0
280,192,78727,1,0
280,48,79298,1,0
416,48,79869,1,0
416,120,80155,1,0
416,192,80441,1,0
368,240,80727,6,2,B|312:320|216:296,1,140
208,168,81869,1,4
160,120,82155,1,4
104,72,82441,1,4
48,24,82727,1,4
432,104,101298,5,0
416,240,101869,1,0
272,240,102441,1,0
232,184,102727,1,0
184,128,103012,1,0
72,48,103584,1,0
64,184,104155,1,0
64,320,104727,2,2,B|168:320,2,70,2|2|2
200,320,105869,5,0
336,320,106441,1,2
336,176,107012,1,0
192,176,107584,1,2
48,40,108441,2,0,B|48:136,1,70
40,248,109298,1,2
112,248,109584,1,2
112,320,109869,1,2
248,320,110441,5,0
384,320,111012,1,0
384,176,111584,1,0
312,176,111869,2,0,B|216:176,1,70
136,80,112727,1,0
136,216,113298,1,0
272,232,113869,2,0,B|376:232,1,70
408,232,114441,1,0
408,88,115012,5,0
264,88,115584,1,0
120,88,116155,1,0
120,224,116727,1,0
328,256,117584,5,0
328,256,117869,1,0
464,264,118441,2,0,B|464:192,1,70
464,120,119012,1,0
464,48,119298,1,0
392,40,119584,2,0,B|224:48|120:136|136:272|176:328,1,420
256,256,121869,2,2,B|296:208|248:136,2,105
160,152,123298,2,2,B|131:196|168:240,2,70
320,272,124727,5,0
432,184,125298,1,0
328,96,125869,1,0
272,136,126155,1,0
216,184,126441,1,0
448,336,127584,5,0
448,192,128155,1,0
440,48,128727,2,0,B|344:40|352:184|216:32|136:32|56:184,1,420
128,288,131012,2,2,B|179:340|207:339|240:288,2,105
240,208,132441,2,2,B|200:176|144:208,2,70
416,320,133869,1,0
408,176,134441,1,0
408,32,135012,1,0
128,40,136155,5,0
128,176,136727,1,0
128,312,137298,1,0
328,248,138155,2,2,B|368:208|328:112,1,140
192,128,139298,2,2,B|112:184|176:280,1,140
280,320,140441,1,4
352,320,140727,1,4
424,320,141012,1,4
496,320,141298,1,4
368,64,142441,5,0
224,64,143012,1,0
80,56,143584,1,0
80,128,143869,1,0
80,200,144155,1,0
80,272,144441,1,0
152,272,144727,2,2,B|184:312|232:256,6,70
224,152,147012,6,0,B|360:72,1,140
440,224,148155,2,0,B|296:304,1,140
264,160,149298,1,0
160,64,149869,1,0
56,160,150441,1,0
56,232,150726,1,0
56,304,151012,1,0
192,328,151584,6,2,B|288:336|360:296|368:216,2,210
248,200,153869,2,2,B|144:168|72:208|88:296,2,210
384,160,156155,2,0,B|280:40,1,140
168,112,157298,1,0
176,184,157584,1,0
248,184,157869,1,0
80,312,158726,1,0
216,312,159298,1,0
344,248,159869,1,0
384,192,160155,1,0
432,144,160441,1,0
320,56,161012,6,0,B|235:33|160:80,2,140
296,120,162441,2,0,B|272:160|224:112,2,70
184,208,163584,1,0
288,304,164155,1,4
360,304,164441,1,4
432,304,164726,1,4
432,232,165012,1,4
