osu file format v10

[General]
AudioFilename: Kaerimichi.mp3
AudioLeadIn: 2000
PreviewTime: 55139
Countdown: 0
SampleSet: Normal
StackLeniency: 0.7
Mode: 0
LetterboxInBreaks: 0

[Editor]
DistanceSpacing: 1
BeatDivisor: 4
GridSize: 4

[Metadata]
Title:Kaerimichi (TV Size)
TitleUnicode:Kaerimichi (TV Size)
Artist:Katou Emiri
ArtistUnicode:Katou Emiri
Creator:Hinacle
Version:Normal
Source:Bakemonogatari
Tags:fumis Hachikuji Mayoi KanaRin opening
BeatmapID:187892
BeatmapSetID:43516

[Difficulty]
HPDrainRate:3
CircleSize:4
OverallDifficulty:3
ApproachRate:4
SliderMultiplier:0.6
SliderTickRate:1

[Events]
//Background and Video events
0,0,"BG.jpg"
Video,500,"op.avi"
//Break Periods
//Storyboard Layer 0 (Background)
//Storyboard Layer 1 (Fail)
//Storyboard Layer 2 (Pass)
//Storyboard Layer 3 (Foreground)
//Storyboard Sound Samples
//Background Colour Transformations
3,100,163,162,255

[TimingPoints]
625,342.857142857143,4,1,1,70,1,0
625,-50,4,2,1,40,0,0
5767,-50,4,1,2,70,0,0
5939,-50,4,1,1,70,0,0
55139,-50,4,1,2,70,0,0
55482,-50,4,1,1,80,0,1
82225,-50,4,1,2,80,0,1
82567,342.857142857143,4,1,1,70,1,0
82567,-50,4,1,1,70,0,0

[Colours]
Combo1 : 194,182,254
Combo2 : 239,163,197
Combo3 : 189,247,198
Combo4 : 250,255,142

[HitObjects]
360,96,625,2,0,B|416:72|480:72,2,120
360,160,1482,2,0,B|360:296,1,120
256,336,2167,2,0,B|256:200,1,120
152,160,2853,2,0,B|152:296,1,120
64,360,3539,5,0,0:0:0
32,312,3710,2,0,B|24:264|32:192,1,120
64,144,4225,1,0,0:0:0
160,64,4567,2,0,B|288:80|384:192|288:304|160:320,1,420,0|2,0:0|0:0,0:0:0
160,192,6110,6,0,B|16:192,2,120,4|8|0,0:0|0:0|0:0,0:0:0
256,120,7139,1,8,0:0:0
352,192,7482,2,0,B|496:192,2,120,0|8|0,0:0|0:0|0:0,0:0:0
256,264,8510,1,8,0:0:0
160,192,8853,6,0,B|96:200|40:240,1,120,0|8,0:0|0:0,0:0:0
32,352,9539,2,0,B|96:344|152:304,1,120,0|8,0:0|0:0,0:0:0
264,308,10224,2,0,B|312:342|376:350,1,120,0|8,0:0|0:0,0:0:0
359,233,10910,2,0,B|312:200|248:192,1,120,0|8,0:0|0:0,0:0:0
152,120,11596,5,4,0:0:0
240,40,11939,2,0,B|368:32,1,120,8|0,0:0|0:0,0:0:0
432,128,12625,2,0,B|304:120,2,120,8|0|8,0:0|0:0|0:0,0:0:0
488,232,13653,1,0,0:0:0
408,320,13996,1,8,0:0:0
296,280,14339,6,0,B|200:248|112:280,2,180,4|4|4,0:0|0:0|0:0,0:0:0
328,168,15710,1,0,0:0:0
272,152,15882,2,0,B|212:136|152:152,2,120,4|4|4,0:0|0:0|0:0,0:0:0
392,152,16910,5,0,0:0:0
440,192,17082,2,0,B|456:248|448:320,1,120,4|8,0:0|0:0,0:0:0
336,344,17767,2,0,B|280:328|208:336,1,120,0|8,0:0|0:0,0:0:0
224,216,18453,2,0,B|280:232|352:224,1,120,0|8,0:0|0:0,0:0:0
280,120,19139,2,0,B|160:112,1,120,0|8,0:0|0:0,0:0:0
48,152,19825,5,0,0:0:0
24,272,20167,1,8,0:0:0
120,344,20510,1,0,0:0:0
232,304,20853,1,8,0:0:0
288,296,21025,2,0,B|344:272|408:288,1,120,0|6,0:0|0:0,0:0:0
448,176,21710,1,6,0:0:0
392,184,21882,2,0,B|336:208|272:192,1,120,6|8,0:0|0:0,0:0:0
176,120,22567,5,4,0:0:0
64,168,22910,2,0,B|40:232|16:304,2,120,8|0|8,0:0|0:0|0:0,0:0:0
160,248,23939,1,0,0:0:0
264,192,24282,2,0,B|328:168|400:144,2,120,8|0|8,0:0|0:0|0:0,0:0:0
256,312,25310,5,0,0:0:0
360,368,25653,1,8,0:0:0
472,328,25996,1,0,0:0:0
488,208,26339,1,8,0:0:0
464,152,26510,2,0,B|344:128,1,120,0|6,0:0|0:0,0:0:0
224,112,27196,1,2,0:0:0
200,168,27367,2,0,B|80:192,1,120,6|8,0:0|0:0,0:0:0
32,304,28053,6,0,B|88:288|152:296,1,120,4|8,0:0|0:0,0:0:0
264,264,28739,2,0,B|312:304,1,60
432,288,29253,2,0,B|472:176,1,120
352,192,29939,2,0,B|312:56,1,120
193,76,30625,2,0,B|160:192,1,120
152,252,31139,6,0,B|176:316|232:348,1,120
284,348,31653,1,0,0:0:0
400,304,31996,2,0,B|495:217|510:70|367:33|253:94,1,420,0|8,0:0|0:0,0:0:0
144,128,33539,6,0,B|88:152|24:144,1,120,4|8,0:0|0:0,0:0:0
40,264,34225,2,0,B|96:240|160:248,1,120,0|8,0:0|0:0,0:0:0
280,232,34910,2,0,B|336:208|400:216,1,120,0|8,0:0|0:0,0:0:0
384,96,35596,2,0,B|328:120|264:112,1,120,0|8,0:0|0:0,0:0:0
168,184,36282,6,0,B|136:304,1,120,0|8,0:0|0:0,0:0:0
16,272,36967,2,0,B|48:152,1,120,0|8,0:0|0:0,0:0:0
64,96,37482,2,0,B|112:56|192:64,1,120,0|4,0:0|0:0,0:0:0
296,64,38167,1,0,0:0:0
356,64,38339,2,0,B|420:57|468:97,1,120,4|8,0:0|0:0,0:0:0
496,216,39024,5,4,0:0:0
448,328,39367,2,0,B|392:344|328:328,1,120,8|0,0:0|0:0,0:0:0
264,224,40053,2,0,B|320:208|384:224,2,120,8|0|8,0:0|0:0|0:0,0:0:0
200,328,41082,2,0,B|144:344|80:328,1,120,0|8,0:0|0:0,0:0:0
24,224,41767,5,0,0:0:0
72,112,42110,2,0,B|136:104|216:104,1,120,8|0,0:0|0:0,0:0:0
312,128,42796,1,8,0:0:0
368,152,42967,2,0,B|376:224|368:288,1,120,0|6,0:0|0:0,0:0:0
248,296,43653,1,6,0:0:0
192,272,43824,2,0,B|184:200|192:136,1,120,6|8,0:0|0:0,0:0:0
256,48,44510,6,0,B|376:24|496:48,2,240,0|8|0,0:0|0:0|0:0,0:0:0
448,192,46567,1,8,0:0:0
256,336,47253,6,0,B|136:360|16:336,2,240,0|8|0,0:0|0:0|0:0,0:0:0
360,272,48967,1,0,0:0:0
256,208,49310,2,0,B|200:200|128:208,1,120,8|0,0:0|0:0,0:0:0
76,104,49996,6,0,B|256:128|440:104,1,360,4|8,0:0|0:0,0:0:0
436,224,51367,2,0,B|256:200|72:224,1,360,4|8,0:0|0:0,0:0:0
80,344,52739,6,0,B|144:344,1,60,4|0,0:0|0:0,0:0:0
264,344,53253,2,0,B|264:280,1,60,4|0,0:0|0:0,0:0:0
264,160,53767,2,0,B|200:160,1,60,4|0,0:0|0:0,0:0:0
80,160,54282,2,0,B|80:224,2,60,4|0|0,0:0|0:0|0:0,0:0:0
80,96,54796,2,0,B|144:80|208:64,1,120,4|2,0:0|0:0,0:0:0
315,66,55482,6,0,B|368:80|432:96,1,120,4|8,0:0|0:0,0:0:0
464,208,56167,1,0,0:0:0
408,312,56510,1,8,0:0:0
296,296,56853,2,0,B|232:288|168:296,1,120,0|8,0:0|0:0,0:0:0
56,272,57539,2,0,B|90:227|141:188,1,120,0|8,0:0|0:0,0:0:0
192,152,58053,6,0,B|272:104|384:128,1,180,0|8,0:0|0:0,0:0:0
472,64,58910,2,0,B|496:120|472:192,1,120,0|8,0:0|0:0,0:0:0
416,288,59596,1,0,0:0:0
304,328,59939,2,0,B|248:352|176:336,2,120,8|0|8,0:0|0:0|0:0,0:0:0
240,224,60967,5,4,0:0:0
176,120,61310,2,0,B|232:96|304:112,2,120,8|0|8,0:0|0:0|0:0,0:0:0
116,128,62167,2,0,B|88:208|60:304,1,180,0|8,0:0|0:0,0:0:0
168,352,63024,2,0,B|216:328|288:320,1,120,0|8,0:0|0:0,0:0:0
400,328,63710,5,0,0:0:0
480,240,64053,1,8,0:0:0
360,224,64396,1,0,0:0:0
432,128,64739,1,8,0:0:0
376,112,64910,6,0,B|320:104|256:104,1,120
200,112,65424,2,0,B|120:136,1,60,8|0,0:0|0:0,0:0:0
88,144,65767,2,0,B|60:196|48:264,1,120,0|2,0:0|0:0,0:0:0
132,344,66453,6,0,B|256:336,1,120,4|8,0:0|0:0,0:0:0
368,304,67139,1,0,0:0:0
272,232,67482,2,0,B|148:240,1,120,8|0,0:0|0:0,0:0:0
56,168,68167,1,8,0:0:0
168,128,68510,2,0,B|292:120,1,120,0|8,0:0|0:0,0:0:0
348,120,69024,6,0,B|396:200|428:296,1,180,0|8,0:0|0:0,0:0:0
328,360,69882,1,0,0:0:0
216,328,70224,2,0,B|160:320|88:328,1,120,8|0,0:0|0:0,0:0:0
40,224,70910,2,0,B|74:179|104:113,1,120,8|0,0:0|0:0,0:0:0
224,128,71596,2,0,B|245:180|288:238,1,120,8|4,0:0|0:0,0:0:0
360,328,72282,5,8,0:0:0
480,304,72624,2,0,B|488:248|488:176,1,120,0|8,0:0|0:0,0:0:0
488,124,73139,2,0,B|440:92|368:76,1,120
316,76,73653,2,0,B|260:116,1,60,8|0,0:0|0:0,0:0:0
216,140,73996,2,0,B|160:152|96:136,1,120,0|8,0:0|0:0,0:0:0
96,256,74682,6,0,B|152:244|216:260,1,120,4|8,0:0|0:0,0:0:0
276,268,75196,2,0,B|368:304|456:264,1,180,0|8,0:0|0:0,0:0:0
464,208,75882,2,0,B|488:72,1,120
448,40,76396,2,0,B|384:48,1,60,8|0,0:0|0:0,0:0:0
328,56,76739,2,0,B|272:72|200:56,1,120,0|8,0:0|0:0,0:0:0
96,88,77424,6,0,B|48:264,1,180,4|0,0:0|0:0,0:0:0
144,336,78282,1,0,0:0:0
256,296,78624,2,0,B|432:248,1,180,4|0,0:0|0:0,0:0:0
464,136,79482,1,4,0:0:0
384,48,79824,6,0,B|208:96,1,180,4|0,0:0|0:0,0:0:0
88,96,80682,1,0,0:0:0
8,184,81024,2,0,B|0:288|64:352,1,180,4|0,0:0|0:0,0:0:0
176,312,81882,1,4,0:0:0
296,336,82224,1,2,0:0:0
416,312,82567,6,0,B|440:184,1,120,4|8,0:0|0:0,0:0:0
336,128,83252,2,0,B|312:256,1,120,0|8,0:0|0:0,0:0:0
198,245,83938,2,0,B|176:128,1,120,0|8,0:0|0:0,0:0:0
73,194,84624,2,0,B|96:312,1,120,0|8,0:0|0:0,0:0:0
216,344,85309,6,0,B|416:344,2,180,4|4|4,0:0|0:0|0:0,0:0:0
216,216,86681,1,0,0:0:0
156,216,86852,2,0,B|28:216,2,120,4|4|4,0:0|0:0|0:0,0:0:0
156,96,87881,1,0,0:0:0
216,96,88052,2,2,B|464:96,1,240,2|2,0:0|0:0,0:0:0
