osu file format v10

[General]
AudioFilename: Kaerimichi.mp3
AudioLeadIn: 2000
PreviewTime: 55139
Countdown: 0
SampleSet: Normal
StackLeniency: 0.7
Mode: 0
LetterboxInBreaks: 0

[Editor]
DistanceSpacing: 1.1
BeatDivisor: 4
GridSize: 4

[Metadata]
Title:Kaerimichi (TV Size)
TitleUnicode:Kaerimichi (TV Size)
Artist:Katou Emiri
ArtistUnicode:Katou Emiri
Creator:Hinacle
Version:Insane
Source:Bakemonogatari
Tags:fumis Hachikuji Mayoi KanaRin opening
BeatmapID:136535
BeatmapSetID:43516

[Difficulty]
HPDrainRate:7
CircleSize:4
OverallDifficulty:7
ApproachRate:8
SliderMultiplier:1.8
SliderTickRate:1

[Events]
//Background and Video events
0,0,"BG.jpg"
Video,500,"op.avi"
//Break Periods
//Storyboard Layer 0 (Background)
//Storyboard Layer 1 (Fail)
//Storyboard Layer 2 (Pass)
//Storyboard Layer 3 (Foreground)
//Storyboard Sound Samples
//Background Colour Transformations
3,100,163,162,255

[TimingPoints]
625,342.857142857143,4,2,0,50,1,0
4825,-100,4,2,0,30,0,0
5767,-100,4,1,2,70,0,0
5853,-100,4,1,0,55,0,0
28139,-100,4,2,0,65,0,0
32253,-100,4,2,0,30,0,0
33539,-100,4,1,0,55,0,0
44510,-133.333333333333,4,1,0,45,0,0
49996,-100,4,1,0,60,0,0
55139,-100,4,1,2,70,0,0
55310,-100,4,1,1,70,0,0
55482,-100,4,1,1,80,0,1
66110,-100,4,1,2,80,0,1
66196,-100,4,1,1,80,0,1
77425,-100,4,1,1,70,0,1
77682,-100,4,2,0,70,0,1
77853,-100,4,1,1,70,0,1
78367,-100,4,2,0,70,0,1
78539,-100,4,1,1,70,0,1
80082,-100,4,2,0,70,0,1
80253,-100,4,1,1,70,0,1
80767,-100,4,2,0,70,0,1
80939,-100,4,1,1,70,0,1
82225,-100,4,1,2,80,0,1
82567,342.857142857143,4,1,1,70,1,0
82567,-100,4,1,1,70,0,0
88052,-200,4,1,1,50,0,0
88738,-200,4,1,1,30,0,0

[Colours]
Combo1 : 194,182,254
Combo2 : 239,163,197
Combo3 : 189,247,198
Combo4 : 250,255,142

[HitObjects]
272,136,625,2,0,B|312:128|368:128,1,90,0|2,0:0|0:0,0:0:0
448,152,967,1,0,0:0:0
488,232,1139,1,0,0:0:0
448,312,1310,1,2,0:0:0
360,328,1482,2,0,B|264:328|176:336,1,180,0|2,0:0|0:0,0:0:0
24,120,2167,5,0,0:0:0
176,240,2510,2,0,B|268:272|352:232,2,180,2|0|2,0:0|0:0|0:0,0:0:0
256,56,3539,5,2,0:0:0
344,32,3710,1,0,0:0:0
432,56,3882,2,0,B|464:88|480:136,1,90,0|2,0:0|0:0,0:0:0
416,264,4225,2,0,B|384:232|368:184,1,90,0|0,0:0|0:0,0:0:0
288,144,4567,6,0,B|196:112|112:160,1,180,2|2,0:0|0:0,0:0:0
94,169,4996,1,2,0:0:0
76,183,5082,1,2,0:0:0
62,201,5167,1,2,0:0:0
52,221,5253,1,2,0:0:0
46,242,5339,1,2,0:0:0
42,264,5424,1,2,0:0:0
44,286,5510,1,2,0:0:0
47,308,5596,1,2,0:0:0
55,328,5682,1,2,0:0:0
65,347,5767,6,0,B|150:335|246:343,1,180,2|6,0:0|0:0,0:0:0
328,304,6282,1,0,0:0:0
200,256,6453,1,10,0:0:0
272,200,6624,2,0,B|320:192|384:192,1,90,2|0,0:0|0:0,0:0:0
472,136,6967,2,0,B|424:120|376:112,1,90,2|8,0:0|0:0,0:0:0
200,256,7310,6,0,B|288:244|384:240,1,180,2|2,0:0|0:0,0:0:0
464,280,7824,1,10,0:0:0
384,328,7996,2,0,B|304:368|208:344,1,180,2|2,0:0|0:0,0:0:0
124,308,8510,1,10,0:0:0
200,256,8682,1,2,0:0:0
200,256,9024,5,2,0:0:0
204,132,9196,1,10,0:0:0
312,196,9367,1,2,0:0:0
312,196,9710,5,2,0:0:0
440,112,9882,1,10,0:0:0
448,264,10053,1,0,0:0:0
352,112,10224,5,2,0:0:0
496,184,10396,1,2,0:0:0
360,272,10567,1,10,0:0:0
272,280,10739,2,2,B|184:272|88:288,1,180,2|0,0:0|0:0,0:0:0
24,216,11253,2,0,B|64:200|112:192,1,90,8|0,0:0|0:0,0:0:0
280,176,11596,6,0,B|240:192|192:200,1,90,6|0,0:0|0:0,0:0:0
40,128,11939,1,10,0:0:0
128,96,12110,2,0,B|208:72|312:48,1,180,2|2,0:0|0:0,0:0:0
392,72,12625,1,8,0:0:0
440,152,12796,2,0,B|440:224|360:256|296:224,1,180,2|2,0:0|0:0,0:0:0
208,160,13310,6,0,B|256:144|312:136,1,90,10|2,0:0|0:0,0:0:0
296,320,13653,2,0,B|248:312|192:296,1,90,0|2,0:0|0:0,0:0:0
120,280,13996,1,10,0:0:0
268,228,14167,1,0,0:0:0
360,248,14339,6,0,B|448:240,2,90,6|0|0,0:0|0:0|0:0,0:0:0
268,228,14853,2,0,B|230:308,2,90,6|0|0,0:0|0:0|0:0,0:0:0
328,156,15367,2,0,B|277:83,1,90,6|4,0:0|0:0,0:0:0
200,32,15710,1,0,0:0:0
112,56,15882,5,6,0:0:0
48,312,16225,1,6,0:0:0
316,332,16567,2,0,B|404:324|516:332,1,180,6|0,0:0|0:0,0:0:0
496,232,17082,6,0,B|404:256|328:192,1,180,4|8,0:0|0:0,0:0:0
256,136,17596,1,0,0:0:0
176,184,17767,2,0,B|104:248|0:216,1,180,2|8,0:0|0:0,0:0:0
8,328,18282,5,0,0:0:0
8,328,18367,1,0,0:0:0
8,328,18453,2,0,B|120:328,1,90
264,272,18796,2,0,B|216:272|152:280,1,90,8|0,0:0|0:0,0:0:0
176,368,19139,2,0,B|264:360|360:360,1,180,2|8,0:0|0:0,0:0:0
448,344,19653,6,0,B|456:304|464:256,1,90
440,160,19996,1,0,0:0:0
440,160,20082,1,0,0:0:0
440,160,20167,1,8,0:0:0
352,112,20339,1,0,0:0:0
352,112,20425,1,0,0:0:0
352,112,20510,1,0,0:0:0
256,144,20682,1,0,0:0:0
256,144,20767,1,0,0:0:0
256,144,20853,1,8,0:0:0
224,240,21025,6,0,B|200:296|120:312|64:272,1,180,0|6,0:0|0:0,0:0:0
96,80,21710,1,6,0:0:0
184,56,21882,2,0,B|264:16|368:40,1,180,6|8,0:0|0:0,0:0:0
448,64,22396,5,0,0:0:0
448,64,22482,1,0,0:0:0
448,64,22567,1,4,0:0:0
480,152,22739,1,0,0:0:0
432,232,22910,2,0,B|336:184|256:256,1,180,8|2,0:0|0:0,0:0:0
112,152,23425,2,0,B|160:160|216:184,1,90,0|8,0:0|0:0,0:0:0
336,320,23767,5,0,0:0:0
336,320,23853,1,0,0:0:0
336,320,23939,2,0,B|296:352|232:344,1,90,0|0,0:0|0:0,0:0:0
156,368,24282,1,8,0:0:0
104,284,24453,1,0,0:0:0
164,204,24625,2,0,B|228:132|332:156,1,180,2|8,0:0|0:0,0:0:0
400,72,25139,6,0,B|312:56,1,90
216,32,25482,1,0,0:0:0
216,32,25567,1,0,0:0:0
216,32,25653,1,8,0:0:0
116,32,25825,1,0,0:0:0
116,32,25910,1,0,0:0:0
116,32,25996,1,0,0:0:0
48,104,26167,1,0,0:0:0
48,104,26253,1,0,0:0:0
48,104,26339,1,8,0:0:0
64,200,26510,1,0,0:0:0
296,152,26853,6,0,B|248:184|168:176|128:136,1,180,6|6,0:0|0:0,0:0:0
112,280,27367,2,0,B|160:248|240:256|280:296,1,180,6|0,0:0|0:0,0:0:0
360,344,27882,5,0,0:0:0
360,344,27967,1,0,0:0:0
360,344,28053,2,0,B|456:336,1,90,4|2,0:0|0:0,0:0:0
512,232,28396,2,0,B|416:240,1,90,0|0,0:0|0:0,0:0:0
328,248,28739,1,2,0:0:0
208,184,28910,1,0,0:0:0
272,64,29082,1,0,0:0:0
392,128,29253,5,2,0:0:0
264,368,29596,1,2,0:0:0
8,280,29939,1,2,0:0:0
136,40,30282,1,2,0:0:0
392,128,30625,2,0,B|456:200|416:304,1,180,2|2,0:0|0:0,0:0:0
264,368,31139,5,0,0:0:0
328,296,31310,2,0,B|288:264|232:272,1,90,2|0,0:0|0:0,0:0:0
88,304,31653,2,0,B|128:336|184:328,1,90,2|0,0:0|0:0,0:0:0
280,168,31996,6,0,B|200:216|104:176,1,180,2|2,0:0|0:0,0:0:0
88,168,32425,1,2,0:0:0
68,156,32510,1,2,0:0:0
56,136,32596,1,2,0:0:0
48,116,32682,1,2,0:0:0
48,92,32767,1,2,0:0:0
56,72,32853,1,2,0:0:0
68,52,32939,1,2,0:0:0
88,40,33025,1,2,0:0:0
108,32,33110,1,2,0:0:0
128,28,33196,1,2,0:0:0
152,28,33282,1,2,0:0:0
176,28,33367,1,2,0:0:0
198,29,33453,1,2,0:0:0
220,30,33539,6,0,B|320:30,1,90,4|0,0:0|0:0,0:0:0
440,112,33882,2,0,B|344:88|264:136,1,180,8|2,0:0|0:0,0:0:0
176,128,34396,1,0,0:0:0
104,240,34567,2,0,B|144:224|192:216,1,90,8|0,0:0|0:0,0:0:0
280,224,34910,5,4,0:0:0
328,304,35082,1,0,0:0:0
256,360,35253,2,0,B|168:344|72:352,1,180,8|2,0:0|0:0,0:0:0
24,264,35767,1,0,0:0:0
24,264,35853,1,0,0:0:0
24,264,35939,2,0,B|72:256|144:256,1,90,8|0,0:0|0:0,0:0:0
200,232,36282,5,0,0:0:0
144,152,36453,1,0,0:0:0
144,152,36539,1,0,0:0:0
144,152,36624,1,8,0:0:0
176,56,36796,1,0,0:0:0
176,56,36882,1,0,0:0:0
176,56,36967,1,0,0:0:0
272,32,37139,1,0,0:0:0
272,32,37224,1,0,0:0:0
272,32,37310,1,8,0:0:0
360,72,37482,6,0,B|408:104|424:184|392:240,1,180,0|6,0:0|0:0,0:0:0
304,264,37996,2,0,B|312:160,1,90,0|6,0:0|0:0,0:0:0
480,56,38339,2,0,B|496:256,1,180,6|8,0:0|0:0,0:0:0
432,304,38853,6,0,B|384:320|336:344,1,90,0|4,0:0|0:0,0:0:0
260,364,39196,1,0,0:0:0
368,232,39367,1,8,0:0:0
504,352,39539,1,0,0:0:0
280,272,39710,2,0,B|232:280|168:296,1,90,2|0,0:0|0:0,0:0:0
108,324,40053,1,8,0:0:0
20,296,40224,5,0,0:0:0
20,296,40310,1,0,0:0:0
20,296,40396,2,0,B|8:256|16:208,1,90,4|0,0:0|0:0,0:0:0
104,144,40739,2,0,B|116:184|108:232,1,90,8|0,0:0|0:0,0:0:0
16,100,41082,2,0,B|48:52|128:36|176:76,1,180,2|8,0:0|0:0,0:0:0
240,152,41596,6,0,B|336:128,1,90
424,104,41939,1,0,0:0:0
424,104,42024,1,0,0:0:0
424,104,42110,1,8,0:0:0
496,176,42282,1,0,0:0:0
496,176,42367,1,0,0:0:0
496,176,42453,1,0,0:0:0
480,272,42624,1,0,0:0:0
480,272,42710,1,0,0:0:0
480,272,42796,1,8,0:0:0
392,312,42967,6,0,B|328:336|272:288|208:312,1,180,0|6,0:0|0:0,0:0:0
16,96,43653,2,0,B|144:80,1,90,6|6,0:0|0:0,0:0:0
216,48,43996,1,0,0:0:0
192,160,44167,2,0,B|64:176,1,90,8|0,0:0|0:0,0:0:0
40,264,44510,6,0,B|104:248|176:248,1,134.999995976687,4|8,0:0|0:0,0:0:0
264,256,45024,2,0,B|300:272|328:296,1,67.4999979883433
280,368,45367,2,0,B|244:352|216:328,1,67.4999979883433,0|8,0:0|0:0,0:0:0
224,176,45710,6,0,B|288:152|360:168,1,134.999995976687
440,200,46224,1,8,0:0:0
480,280,46396,1,0,0:0:0
416,344,46567,2,0,B|384:336|336:336,1,67.4999979883433
296,264,46910,2,0,B|240:280|216:288,1,67.4999979883433,8|0,0:0|0:0,0:0:0
144,304,47253,6,0,B|72:320|0:288,1,134.999995976687,0|8,0:0|0:0,0:0:0
88,224,47767,2,0,B|160:224|232:184,1,134.999995976687
272,120,48282,1,8,0:0:0
360,144,48453,2,0,B|384:184|392:216,2,67.4999979883433
288,32,48967,2,0,B|216:16|152:48,1,134.999995976687,8|0,0:0|0:0,0:0:0
40,160,49482,2,0,B|104:128|120:136,1,67.4999979883433,0|8,0:0|0:0,0:0:0
200,168,49824,5,0,0:0:0
200,168,49910,1,0,0:0:0
200,168,49996,2,0,B|216:216|208:264,1,90,6|0,0:0|0:0,0:0:0
120,224,50339,1,8,0:0:0
280,112,50510,2,0,B|320:200|296:304,1,180,2|2,0:0|0:0,0:0:0
176,344,51024,1,10,0:0:0
120,224,51196,5,0,0:0:0
120,224,51282,1,0,0:0:0
120,224,51367,2,0,B|104:176|112:128,1,90,6|0,0:0|0:0,0:0:0
200,168,51710,1,8,0:0:0
40,272,51882,2,0,B|0:184|24:80,1,180,2|2,0:0|0:0,0:0:0
280,112,52396,2,0,B|296:160|288:208,1,90,10|0,0:0|0:0,0:0:0
256,304,52739,5,6,0:0:0
256,304,52910,1,6,0:0:0
136,96,53253,5,6,0:0:0
136,96,53424,1,6,0:0:0
376,96,53767,5,6,0:0:0
376,96,53939,1,6,0:0:0
144,232,54282,6,0,B|224:208|320:192,1,180,6|6,0:0|0:0,0:0:0
488,296,54796,2,0,B|400:264|304:296,1,180,6|2,0:0|0:0,0:0:0
216,320,55310,5,2,0:0:0
216,320,55396,1,0,0:0:0
216,320,55482,2,0,B|112:352,1,90,0|2,0:0|0:0,0:0:0
32,320,55824,1,10,0:0:0
96,216,55996,2,0,B|200:184,1,90,2|0,0:0|0:0,0:0:0
272,216,56339,1,2,0:0:0
168,104,56510,2,0,B|272:72,1,90,10|0,0:0|0:0,0:0:0
344,56,56853,5,2,0:0:0
432,88,57024,2,0,B|456:144|456:184,1,90,2|8,0:0|0:0,0:0:0
448,264,57367,2,0,B|424:320|344:336|288:288,1,180,2|0,0:0|0:0,0:0:0
248,208,57882,1,8,0:0:0
184,304,58053,6,0,B|96:312|0:328,1,180,2|0,0:0|0:0,0:0:0
32,232,58567,2,0,B|80:224|136:216,1,90,10|0,0:0|0:0,0:0:0
208,48,58910,2,0,B|200:104|192:144,1,90,2|0,0:0|0:0,0:0:0
304,288,59253,2,0,B|264:256|224:232,1,90,10|0,0:0|0:0,0:0:0
88,120,59596,5,2,0:0:0
288,64,59767,2,0,B|336:56|392:56,1,90,2|8,0:0|0:0,0:0:0
496,144,60110,2,0,B|400:120|320:168,1,180,2|2,0:0|0:0,0:0:0
224,136,60624,1,8,0:0:0
368,256,60796,5,2,0:0:0
368,256,60882,1,0,0:0:0
368,256,60967,2,0,B|416:240|464:240,2,90,4|2|10,0:0|0:0|0:0,0:0:0
280,280,61482,1,2,0:0:0
192,256,61653,2,0,B|96:224|16:280,1,180,2|10,0:0|0:0,0:0:0
20,106,62167,2,0,B|96:160|192:128,1,180,2|0,0:0|0:0,0:0:0
280,104,62682,2,0,B|328:88|368:88,1,90,10|0,0:0|0:0,0:0:0
488,200,63024,2,0,B|440:216|400:216,1,90,2|0,0:0|0:0,0:0:0
312,248,63367,2,0,B|264:232|224:232,1,90,10|0,0:0|0:0,0:0:0
64,160,63710,6,2,B|176:176,1,90,0|2,0:0|0:0,0:0:0
264,72,64053,2,0,B|152:88,1,90,10|0,0:0|0:0,0:0:0
24,288,64396,2,0,B|104:264|208:256,1,180,2|8,0:0|0:0,0:0:0
168,352,64910,2,0,B|256:328|352:336,1,180,2|6,0:0|0:0,0:0:0
432,280,65424,1,10,0:0:0
296,160,65596,1,0,0:0:0
160,272,65767,2,0,B|248:248|344:256,1,180,6|2,0:0|0:0,0:0:0
400,184,66282,5,2,0:0:0
400,184,66367,1,0,0:0:0
400,184,66453,1,4,0:0:0
368,96,66624,2,0,B|328:80|280:72,1,90,2|10,0:0|0:0,0:0:0
200,112,66967,1,0,0:0:0
112,88,67139,2,0,B|64:80|16:104,1,90,2|2,0:0|0:0,0:0:0
48,264,67482,2,0,B|96:272|144:248,1,90,8|2,0:0|0:0,0:0:0
80,176,67824,5,2,0:0:0
24,352,67996,1,2,0:0:0
0,168,68167,1,8,0:0:0
104,336,68339,2,0,B|192:320|288:320,1,180,2|0,0:0|0:0,0:0:0
476,244,68853,5,8,0:0:0
400,188,69025,1,2,0:0:0
312,224,69196,2,0,B|232:256|128:232,1,180,6|10,0:0|0:0,0:0:0
48,200,69710,1,0,0:0:0
72,112,69882,2,0,B|104:80|144:48,1,90,2|0,0:0|0:0,0:0:0
168,144,70224,2,0,B|208:128|256:120,1,90,10|0,0:0|0:0,0:0:0
336,72,70567,5,2,0:0:0
408,200,70739,1,2,0:0:0
264,200,70910,1,8,0:0:0
416,120,71082,2,0,B|462:127|502:143,2,90,2|0|2,0:0|0:0|0:0,0:0:0
336,168,71596,1,8,0:0:0
254,120,71767,5,2,0:0:0
254,120,71853,1,0,0:0:0
254,120,71939,2,0,B|160:104,1,90,4|2,0:0|0:0,0:0:0
32,200,72282,2,0,B|152:184,1,90,8|2,0:0|0:0,0:0:0
256,280,72624,2,0,B|168:256|72:296,1,180,2|10,0:0|0:0,0:0:0
64,48,73139,2,0,B|152:72|248:32,1,180,2|2,0:0|0:0,0:0:0
416,64,73653,2,0,B|368:56|320:72,1,90,10|0,0:0|0:0,0:0:0
240,176,73996,2,0,B|320:144|424:144,1,180,2|10,0:0|0:0,0:0:0
480,208,74510,1,0,0:0:0
440,288,74682,6,0,B|240:320,1,180,6|8,0:0|0:0,0:0:0
32,216,75196,2,0,B|232:256,1,180,2|0,0:0|0:0,0:0:0
328,152,75710,2,0,B|240:176,1,90,8|6,0:0|0:0,0:0:0
168,120,76053,5,0,0:0:0
76,136,76224,1,2,0:0:0
32,216,76396,1,8,0:0:0
68,300,76567,1,2,0:0:0
156,328,76739,2,0,B|252:304|332:336,1,180,2|10,0:0|0:0,0:0:0
392,256,77253,5,0,0:0:0
392,256,77339,1,0,0:0:0
392,256,77424,2,0,B|323:184|310:99,1,180,6|2,0:0|0:0,0:0:0
224,64,77939,2,0,B|144:112|48:80,1,180,4|0,0:0|0:0,0:0:0
16,168,78453,1,2,0:0:0
64,248,78624,2,0,B|144:200|240:232,1,180,4|0,0:0|0:0,0:0:0
328,256,79139,5,4,0:0:0
456,136,79310,1,0,0:0:0
312,40,79482,1,6,0:0:0
224,64,79653,5,0,0:0:0
224,64,79739,1,0,0:0:0
224,64,79824,2,0,B|192:112|112:120|64:80,1,180,6|2,0:0|0:0,0:0:0
32,184,80339,2,0,B|96:176|160:232|160:288,1,180,4|0,0:0|0:0,0:0:0
52,296,80853,1,2,0:0:0
208,160,81024,2,0,B|256:232|264:336,1,180,4|4,0:0|0:0,0:0:0
176,360,81539,5,6,0:0:0
424,272,81882,1,6,0:0:0
72,136,82224,1,2,0:0:0
152,88,82396,5,0,0:0:0
152,88,82482,1,0,0:0:0
152,88,82567,2,0,B|232:56|336:72,1,180,6|10,0:0|0:0,0:0:0
420,84,83081,1,2,0:0:0
408,172,83252,1,0,0:0:0
320,160,83424,2,0,B|272:152|224:164,1,90,2|8,0:0|0:0,0:0:0
48,264,83767,2,0,B|96:272|144:260,1,90,2|0,0:0|0:0,0:0:0
264,344,84109,2,0,B|255:296|227:255,1,90,2|10,0:0|0:0,0:0:0
104,80,84452,2,0,B|112:127|140:168,1,90,2|0,0:0|0:0,0:0:0
216,112,84795,5,2,0:0:0
304,80,84967,1,10,0:0:0
392,96,85138,1,0,0:0:0
464,152,85309,6,0,B|472:208|472:256,1,90,6|0,0:0|0:0,0:0:0
408,312,85652,1,0,0:0:0
336,240,85824,5,6,0:0:0
256,296,85995,1,0,0:0:0
176,240,86167,1,0,0:0:0
104,312,86338,5,6,0:0:0
40,241,86509,2,0,B|40:208|48:152,1,90,0|0,0:0|0:0,0:0:0
96,72,86852,5,6,0:0:0
384,128,87195,1,6,0:0:0
152,240,87538,1,6,0:0:0
344,288,87881,5,0,0:0:0
344,288,87967,1,0,0:0:0
344,288,88052,2,2,B|368:232|432:232|472:272|456:328,1,180,2|2,0:0|0:0,0:0:0
