osu file format v13

[General]
AudioFilename: ED.mp3
AudioLeadIn: 0
PreviewTime: 56975
Countdown: 0
SampleSet: None
StackLeniency: 0.7
Mode: 0
LetterboxInBreaks: 1
WidescreenStoryboard: 1

[Editor]
DistanceSpacing: 1.3
BeatDivisor: 4
GridSize: 32
TimelineZoom: 2.2

[Metadata]
Title:You Gotta Love Me!
TitleUnicode:You Gotta Love Me!
Artist:Kato*Fuku
ArtistUnicode:かと*ふく
Creator:Hyasalia
Version:I2
Source:Inou Battle wa Nichijoukei no Naka de
Tags:ending tv size 異能バトルは日常系のなかで Fukuhara Kaori Kato Emiri
BeatmapID:570396
BeatmapSetID:222983

[Difficulty]
HPDrainRate:7
CircleSize:4
OverallDifficulty:7
ApproachRate:9
SliderMultiplier:1.8
SliderTickRate:1

[Events]
//Background and Video events
Video,0,"ED.flv"
0,0,"ED BG.jpg",0,0
//Break Periods
2,39039,49256
//Storyboard Layer 0 (Background)
//Storyboard Layer 1 (Fail)
//Storyboard Layer 2 (Pass)
//Storyboard Layer 3 (Foreground)
//Storyboard Sound Samples

[TimingPoints]
2399,338.983050847458,4,2,1,60,1,0
8839,-100,4,2,1,65,0,0
9178,-100,4,2,1,65,0,0
9941,-100,4,2,1,5,0,0
10026,-100,4,2,1,65,0,0
13754,-166.666666666667,4,2,1,65,0,0
14602,-117.647058823529,4,2,1,55,0,0
25110,-76.9230769230769,4,2,1,55,0,0
25449,-117.647058823529,4,2,1,55,0,0
30026,-100,4,2,1,55,0,0
30365,-76.9230769230769,4,2,1,55,0,0
30873,-100,4,2,1,55,0,0
35280,-95.2380952380952,4,2,1,60,0,0
36297,-100,4,2,1,60,0,0
38839,-100,4,2,1,65,0,0
41212,-76.9230769230769,4,2,1,65,0,0
41721,-100,4,2,1,65,0,0
52907,-76.9230769230769,4,2,1,65,0,0
57992,-100,4,2,1,65,0,1
66975,-95.2380952380952,4,2,1,65,0,1
67314,-90.9090909090909,4,2,1,65,0,1
67653,-100,4,2,1,65,0,1
73585,-76.9230769230769,4,2,1,65,0,1
74263,-100,4,2,1,65,0,1
83754,-100,4,2,1,65,0,0
88500,-66.6666666666667,4,2,1,65,0,0
88754,-66.6666666666667,4,2,1,5,0,0

[HitObjects]
166,49,2399,6,0,P|157:138|162:153,1,90
256,193,2737,1,2,0:0:0:0:
346,335,2907,2,0,P|355:246|350:231,1,90
256,193,3246,1,0,0:0:0:0:
391,157,3415,2,0,L|495:157,1,90,2|0,0:0|0:0,0:0:0:0:
294,24,3754,5,0,0:0:0:0:
252,135,3924,1,0,0:0:0:0:
166,49,4093,1,2,0:0:0:0:
55,181,4263,2,0,B|116:196|168:139|168:139|184:205,1,180
201,340,4771,2,0,P|167:312|173:245,1,90,2|0,0:0|0:0,0:0:0:0:
348,67,5110,5,4,0:0:0:0:
315,306,5280,1,0,0:0:0:0:
166,146,5788,6,0,P|126:124|102:87,1,90
256,93,6127,1,2,0:0:0:0:
250,220,6297,2,0,P|195:267|168:271,1,90
256,93,6636,1,0,0:0:0:0:
379,167,6805,2,0,P|378:259|387:271,1,90,2|0,0:0|0:0,0:0:0:0:
445,65,7144,5,0,0:0:0:0:
277,135,7314,1,0,0:0:0:0:
323,0,7483,1,2,0:0:0:0:
175,45,7653,2,0,B|69:83|69:83|85:13,1,180
174,46,8161,1,2,0:0:0:0:
170,158,8331,1,0,0:0:0:0:
355,106,8500,5,0,0:0:0:0:
306,288,8670,1,0,0:0:0:0:
170,158,8839,1,0,0:0:0:0:
188,116,8924,1,0,0:0:0:0:
222,86,9009,1,0,0:0:0:0:
265,78,9093,1,0,0:0:0:0:
307,94,9178,5,6,0:0:0:0:
306,288,9348,1,0,0:0:0:0:
484,203,9517,1,0,0:0:0:0:
401,36,9687,2,0,L|380:194,1,135
353,187,10026,1,2,0:0:0:0:
164,237,10195,1,0,0:0:0:0:
222,86,10365,2,0,L|54:64,1,135
64,47,10704,6,0,L|71:91,2,45
21,196,11043,1,0,0:0:0:0:
164,237,11212,1,0,0:0:0:0:
91,325,11382,1,0,0:0:0:0:
257,327,11551,1,2,0:0:0:0:
215,170,11721,1,0,0:0:0:0:
373,38,11890,5,2,0:0:0:0:
373,38,11975,1,0,0:0:0:0:
366,184,12144,1,0,0:0:0:0:
366,184,12229,2,0,L|256:192,1,90,2|0,0:0|0:0,0:0:0:0:
126,212,12568,5,2,0:0:0:0:
163,43,12737,1,0,0:0:0:0:
60,109,12907,1,2,0:0:0:0:
229,146,13076,1,0,0:0:0:0:
291,263,13246,6,2,L|204:263,1,45
333,81,13500,2,2,L|420:81,1,45
474,185,13754,6,0,L|366:185,1,107.999996704102
366,185,14263,1,2,0:0:0:0:
267,147,14602,6,0,P|265:221|315:277,1,153.000002918243,0|2,0:0|0:0,0:0:0:0:
362,58,15110,2,0,B|302:69|255:24|199:47,1,153.000002918243
95,27,15619,1,0,0:0:0:0:
41,133,15788,5,0,0:0:0:0:
41,133,15873,1,0,0:0:0:0:
41,133,15958,2,0,L|41:235,1,76.5000014591217,0|0,0:0|0:0,0:0:0:0:
128,333,16297,2,0,L|128:231,1,76.5000014591217,2|0,0:0|0:0,0:0:0:0:
204,94,16636,2,0,L|204:196,1,76.5000014591217
289,352,16975,2,0,L|289:250,1,76.5000014591217,2|0,0:0|0:0,0:0:0:0:
415,214,17314,5,0,0:0:0:0:
450,202,17483,1,0,0:0:0:0:
448,91,17653,1,2,0:0:0:0:
471,60,17822,2,0,B|398:77|350:32|350:32|306:42,1,153.000002918243
207,187,18331,5,2,0:0:0:0:
302,155,18500,1,0,0:0:0:0:
119,41,18839,5,0,0:0:0:0:
79,131,19009,1,2,0:0:0:0:
207,187,19178,1,0,0:0:0:0:
214,95,19348,1,0,0:0:0:0:
302,155,19517,1,0,0:0:0:0:
124,207,19687,1,2,0:0:0:0:
118,41,19856,5,0,0:0:0:0:
214,95,20026,1,0,0:0:0:0:
314,37,20195,1,0,0:0:0:0:
423,81,20365,1,2,0:0:0:0:
423,81,20534,2,0,B|433:129|433:129|393:177|412:251,1,153.000002918243
443,318,21043,1,2,0:0:0:0:
274,357,21212,2,0,L|370:357,1,76.5000014591217
220,225,21551,1,0,0:0:0:0:
160,329,21721,1,2,0:0:0:0:
119,184,21890,5,0,0:0:0:0:
299,164,22060,1,0,0:0:0:0:
119,184,22229,1,0,0:0:0:0:
222,61,22399,1,2,0:0:0:0:
220,225,22568,1,0,0:0:0:0:
377,219,22737,5,0,0:0:0:0:
414,191,22822,1,0,0:0:0:0:
428,147,22907,1,0,0:0:0:0:
422,101,22992,1,0,0:0:0:0:
395,65,23076,2,0,L|286:65,1,76.5000014591217,2|0,0:0|0:0,0:0:0:0:
78,74,23415,5,0,0:0:0:0:
119,186,23585,1,0,0:0:0:0:
319,65,23924,5,0,0:0:0:0:
176,291,24263,1,0,0:0:0:0:
380,281,24602,1,0,0:0:0:0:
185,137,24941,1,0,0:0:0:0:
185,137,25110,6,0,B|253:137|295:188|295:188|348:197|426:127,1,233.999989288331
319,65,25619,5,0,0:0:0:0:
198,31,25788,2,0,P|160:30|125:46,1,76.5000014591217,2|0,0:0|0:0,0:0:0:0:
185,137,26127,1,0,0:0:0:0:
253,216,26297,2,0,P|277:188|286:151,1,76.5000014591217,0|0,0:0|0:0,0:0:0:0:
319,65,26636,2,0,P|415:131|466:117,1,153.000002918243
412,29,27144,5,0,0:0:0:0:
286,312,27483,1,0,0:0:0:0:
384,331,27653,1,0,0:0:0:0:
318,142,27822,1,0,0:0:0:0:
253,218,27992,1,0,0:0:0:0:
450,255,28161,6,0,L|424:182,1,76.5000014591217
253,218,28500,1,0,0:0:0:0:
418,105,28670,2,0,L|349:71,1,76.5000014591217
253,218,29009,1,0,0:0:0:0:
289,21,29178,2,0,L|196:53,1,76.5000014591217
35,140,29517,6,0,P|142:173|179:155,1,153.000002918243
322,79,30026,6,0,P|326:126|334:180,1,90
231,331,30365,6,0,P|249:276|253:218,1,116.999994644165
168,58,30873,5,0,0:0:0:0:
40,122,31043,1,0,0:0:0:0:
168,58,31212,1,0,0:0:0:0:
403,125,31382,2,0,P|341:141|286:133,1,90
129,178,31721,2,0,P|172:188|211:210,1,90
302,356,32060,2,0,P|322:270|423:212,1,180
488,175,32568,5,0,0:0:0:0:
456,285,32737,1,0,0:0:0:0:
428,42,32907,1,0,0:0:0:0:
353,143,33076,1,0,0:0:0:0:
168,58,33246,1,0,0:0:0:0:
168,58,33585,6,0,P|156:117|154:146,1,90
198,337,33924,2,0,P|210:280|212:249,1,90
321,320,34263,1,0,0:0:0:0:
130,220,34432,1,0,0:0:0:0:
270,125,34602,1,2,0:0:0:0:
167,57,34771,1,0,0:0:0:0:
237,277,34941,5,2,0:0:0:0:
237,277,35026,1,0,0:0:0:0:
237,277,35110,1,0,0:0:0:0:
377,97,35280,6,0,L|369:238,1,141.749995674133,6|0,0:0|0:0,0:0:0:0:
321,319,35619,1,2,0:0:0:0:
321,319,35704,1,0,0:0:0:0:
321,319,35788,1,0,0:0:0:0:
188,97,35958,6,0,L|281:205,1,141.749995674133,6|0,0:0|0:0,0:0:0:0:
369,239,36297,2,0,P|443:206|457:175,1,90
381,47,36636,2,0,L|372:137,1,90,2|0,0:0|0:0,0:0:0:0:
256,195,36975,1,8,0:0:0:0:
187,96,37144,1,0,0:0:0:0:
55,266,37314,6,0,P|99:265|139:244,1,90,2|0,0:0|0:0,0:0:0:0:
86,88,37653,2,0,P|70:130|74:174,1,90,0|0,0:0|0:0,0:0:0:0:
256,195,37992,1,2,0:0:0:0:
187,96,38161,1,0,0:0:0:0:
140,244,38331,1,0,0:0:0:0:
372,244,38500,1,0,0:0:0:0:
325,96,38670,1,2,0:0:0:0:
60,218,38839,5,8,0:0:0:0:
182,186,49856,6,0,L|84:162,1,90
330,198,50195,2,0,L|428:222,1,90
262,118,50534,2,0,L|286:20,1,90
250,266,50873,2,0,L|226:364,1,90
308,209,52907,6,0,P|409:199|449:149,2,116.999994644165,0|0|0,0:0|0:0|0:0,0:0:0:0:
204,175,53415,2,0,P|103:185|63:235,2,116.999994644165,0|0|0,0:0|0:0|0:0,0:0:0:0:
252,140,53839,1,0,0:0:0:0:
252,140,53924,2,0,L|222:21,1,116.999994644165
260,244,54263,2,0,L|290:363,1,116.999994644165,0|0,0:0|0:0,0:0:0:0:
308,209,54602,1,0,0:0:0:0:
308,209,54687,1,0,0:0:0:0:
308,209,54771,2,0,P|409:199|449:149,2,116.999994644165,0|0|0,0:0|0:0|0:0,0:0:0:0:
256,55,55280,5,0,0:0:0:0:
131,270,55506,1,0,0:0:0:0:
381,270,55732,1,0,0:0:0:0:
131,114,55958,1,0,0:0:0:0:
381,114,56184,1,0,0:0:0:0:
256,329,56410,1,0,0:0:0:0:
256,192,56636,1,0,0:0:0:0:
256,192,56749,12,0,57822,0:0:0:0:
116,154,57992,6,0,P|160:163|203:151,1,90
312,157,58331,2,0,P|307:113|281:77,1,90,8|0,0:0|0:0,0:0:0:0:
297,265,58670,1,0,0:0:0:0:
423,226,58839,1,0,0:0:0:0:
446,98,59009,2,0,L|334:98,1,90,8|0,0:0|0:0,0:0:0:0:
202,151,59348,5,0,0:0:0:0:
202,151,59432,1,0,0:0:0:0:
202,151,59517,1,0,0:0:0:0:
108,80,59687,1,8,0:0:0:0:
37,254,59856,2,0,P|109:264|168:201,1,135
202,151,60195,2,0,P|243:222|237:262,1,90,0|8,0:0|0:0,0:0:0:0:
193,346,60534,5,0,0:0:0:0:
438,300,60704,2,0,P|373:265|325:275,1,90
370,351,61043,5,8,0:0:0:0:
352,172,61212,2,0,P|282:210|271:255,1,90
454,180,61551,1,0,0:0:0:0:
410,34,61721,1,0,0:0:0:0:
230,120,61890,1,0,0:0:0:0:
352,171,62060,1,0,0:0:0:0:
275,53,62229,1,0,0:0:0:0:
319,245,62399,1,0,0:0:0:0:
188,184,62568,5,0,0:0:0:0:
100,321,62737,2,0,B|111:312|79:269|99:233,1,90
226,273,63076,1,8,0:0:0:0:
100,233,63246,1,0,0:0:0:0:
175,28,63415,2,0,B|202:99|152:146|152:146|188:184,1,180,0|8,0:0|0:0,0:0:0:0:
270,128,63924,5,0,0:0:0:0:
336,244,64093,2,0,L|441:256,1,90
417,50,64432,1,8,0:0:0:0:
366,131,64602,2,0,L|410:224,1,90
317,317,64941,1,0,0:0:0:0:
270,128,65110,1,8,0:0:0:0:
218,221,65280,5,0,0:0:0:0:
183,37,65449,2,0,L|59:38,1,90
93,217,65788,2,0,P|149:168|142:108,1,135,8|0,0:0|0:0,0:0:0:0:
183,36,66127,2,0,B|274:82|274:82|356:57,1,180,0|0,0:0|0:0,0:0:0:0:
448,16,66636,6,0,P|423:88|434:117,1,90,2|0,0:0|0:0,0:0:0:0:
335,162,66975,6,0,P|368:230|396:243,1,90,2|0,0:0|0:0,0:0:0:0:
452,329,67314,6,0,P|368:356|269:284,1,198.000006042481,6|0,0:0|0:0,0:0:0:0:
205,216,67822,1,8,0:0:0:0:
168,320,67992,1,0,0:0:0:0:
84,137,68161,1,0,0:0:0:0:
251,43,68331,6,0,L|222:102,1,45
318,121,68500,2,0,L|335:162,1,45
412,77,68670,2,0,L|430:24,1,45
500,159,68839,6,0,L|399:192,1,90
318,121,69178,1,0,0:0:0:0:
178,335,69348,2,0,B|236:367|289:322|289:322|303:224,1,180
251,42,69856,2,0,P|224:87|229:147,1,90
99,201,70195,5,0,0:0:0:0:
222,236,70365,1,0,0:0:0:0:
251,42,70534,1,0,0:0:0:0:
448,160,70704,2,0,L|427:58,1,90
251,42,71043,1,0,0:0:0:0:
350,253,71212,2,0,L|331:164,1,90
61,316,71551,6,0,P|155:329|208:255,1,180
350,253,72060,2,0,L|326:353,1,90
118,237,72399,1,0,0:0:0:0:
412,131,72568,1,0,0:0:0:0:
207,12,72737,2,0,B|199:77|199:77|206:132|206:132|191:201,1,180
33,147,73246,2,0,L|136:125,1,90
412,131,73585,6,0,P|402:212|303:228,1,175.499991966248
325,127,74178,5,0,0:0:0:0:
216,84,74347,1,0,0:0:0:0:
409,49,74517,1,8,0:0:0:0:
447,159,74686,1,0,0:0:0:0:
329,332,74856,1,0,0:0:0:0:
352,217,75025,1,0,0:0:0:0:
180,170,75195,1,8,0:0:0:0:
225,280,75364,1,0,0:0:0:0:
287,109,75534,5,0,0:0:0:0:
196,35,75703,1,0,0:0:0:0:
28,114,75873,1,8,0:0:0:0:
145,156,76042,1,0,0:0:0:0:
92,345,76212,1,0,0:0:0:0:
58,233,76381,1,0,0:0:0:0:
275,254,76551,1,8,0:0:0:0:
218,355,76720,1,0,0:0:0:0:
