osu file format v13

[General]
AudioFilename: ED.mp3
AudioLeadIn: 0
PreviewTime: 56975
Countdown: 0
SampleSet: Soft
StackLeniency: 0.7
Mode: 0
LetterboxInBreaks: 1
WidescreenStoryboard: 1

[Editor]
DistanceSpacing: 1.4
BeatDivisor: 4
GridSize: 32
TimelineZoom: 2.2

[Metadata]
Title:You Gotta Love Me!
TitleUnicode:You Gotta Love Me!
Artist:Kato*Fuku
ArtistUnicode:かと*ふく
Creator:Hyasalia
Version:I1
Source:Inou Battle wa Nichijoukei no Naka de
Tags:ending tv size 異能バトルは日常系のなかで Fukuhara Kaori Kato Emiri
BeatmapID:554098
BeatmapSetID:222983

[Difficulty]
HPDrainRate:7
CircleSize:4
OverallDifficulty:7
ApproachRate:9
SliderMultiplier:1.8
SliderTickRate:1

[Events]
//Background and Video events
Video,0,"ED.flv"
0,0,"ED BG.jpg",0,0
//Break Periods
//Storyboard Layer 0 (Background)
//Storyboard Layer 1 (Fail)
//Storyboard Layer 2 (Pass)
//Storyboard Layer 3 (Foreground)
//Storyboard Sound Samples
//Background Colour Transformations
3,100,163,162,255

[TimingPoints]
2399,338.983050847458,4,2,1,60,1,0
8839,-100,4,2,1,65,0,0
9178,-100,4,2,1,65,0,0
9941,-100,4,2,1,5,0,0
10026,-100,4,2,1,65,0,0
13754,-166.666666666667,4,2,1,65,0,0
14602,-117.647058823529,4,2,1,55,0,0
25110,-76.9230769230769,4,2,1,55,0,0
25449,-117.647058823529,4,2,1,55,0,0
30026,-105.263157894737,4,2,1,55,0,0
30365,-95.2380952380952,4,2,1,55,0,0
30873,-100,4,2,1,55,0,0
35280,-95.2380952380952,4,2,1,60,0,0
36297,-100,4,2,1,60,0,0
38839,-100,4,2,1,65,0,0
41212,-76.9230769230769,4,2,1,65,0,0
41721,-100,4,2,1,65,0,0
52907,-76.9230769230769,4,2,1,65,0,0
57992,-100,4,2,1,65,0,1
66975,-95.2380952380952,4,2,1,65,0,1
67314,-90.9090909090909,4,2,1,65,0,1
67653,-100,4,2,1,65,0,1
73585,-76.9230769230769,4,2,1,65,0,1
74263,-100,4,2,1,65,0,1
83754,-100,4,2,1,65,0,0
88500,-66.6666666666667,4,2,1,65,0,0
88754,-66.6666666666667,4,2,1,5,0,0

[HitObjects]
166,49,2399,6,0,P|157:138|162:153,1,90
256,193,2737,1,2,0:0:0:0:
346,335,2907,2,0,P|355:246|350:231,1,90
256,193,3246,1,0,0:0:0:0:
391,157,3415,2,0,L|495:157,1,90,2|0,0:0|0:0,0:0:0:0:
294,24,3754,5,0,0:0:0:0:
252,135,3924,1,0,0:0:0:0:
166,49,4093,1,2,0:0:0:0:
55,181,4263,2,0,B|116:196|168:139|168:139|184:205,1,180
201,340,4771,2,0,P|167:312|173:245,1,90,2|0,0:0|0:0,0:0:0:0:
348,67,5110,5,4,0:0:0:0:
315,306,5280,1,0,0:0:0:0:
166,146,5788,6,0,P|126:124|102:87,1,90
256,93,6127,1,2,0:0:0:0:
250,220,6297,2,0,P|195:267|168:271,1,90
256,93,6636,1,0,0:0:0:0:
379,167,6805,2,0,P|378:259|387:271,1,90,2|0,0:0|0:0,0:0:0:0:
445,65,7144,5,0,0:0:0:0:
277,135,7314,1,0,0:0:0:0:
323,0,7483,1,2,0:0:0:0:
175,45,7653,2,0,B|69:83|69:83|85:13,1,180
174,46,8161,1,2,0:0:0:0:
170,158,8331,1,0,0:0:0:0:
355,106,8500,5,0,0:0:0:0:
306,288,8670,1,0,0:0:0:0:
170,158,8839,1,0,0:0:0:0:
184,115,8924,1,0,0:0:0:0:
217,84,9009,1,0,0:0:0:0:
260,74,9093,1,0,0:0:0:0:
303,86,9178,5,6,0:0:0:0:
306,288,9348,1,0,0:0:0:0:
486,198,9517,1,0,0:0:0:0:
401,36,9687,2,0,L|380:194,1,135
353,187,10026,1,2,0:0:0:0:
167,255,10195,1,0,0:0:0:0:
216,84,10365,2,0,L|48:62,1,135
58,45,10704,6,0,L|65:89,2,45
21,196,11043,1,0,0:0:0:0:
167,255,11212,1,2,0:0:0:0:
91,325,11382,1,0,0:0:0:0:
259,322,11551,1,2,0:0:0:0:
215,170,11721,1,0,0:0:0:0:
373,38,11890,5,2,0:0:0:0:
373,38,11975,1,0,0:0:0:0:
366,184,12144,1,0,0:0:0:0:
366,184,12229,2,0,L|256:192,1,90,2|0,0:0|0:0,0:0:0:0:
126,212,12568,5,2,0:0:0:0:
163,43,12737,1,0,0:0:0:0:
60,109,12907,1,2,0:0:0:0:
229,146,13076,1,0,0:0:0:0:
291,263,13246,6,2,L|204:263,1,45
333,81,13500,2,2,L|420:81,1,45
474,185,13754,6,0,L|366:185,1,107.999996704102
366,185,14263,1,2,0:0:0:0:
267,147,14602,6,0,P|265:221|315:277,1,153.000002918243,0|2,0:0|0:0,0:0:0:0:
362,58,15110,2,0,B|302:69|255:24|199:47,1,153.000002918243
95,27,15619,1,0,0:0:0:0:
41,133,15788,5,0,0:0:0:0:
41,133,15873,1,0,0:0:0:0:
41,133,15958,2,0,L|41:235,1,76.5000014591217,0|0,0:0|0:0,0:0:0:0:
128,333,16297,2,0,L|128:231,1,76.5000014591217,2|0,0:0|0:0,0:0:0:0:
204,94,16636,2,0,L|204:196,1,76.5000014591217
289,352,16975,2,0,L|289:250,1,76.5000014591217,2|0,0:0|0:0,0:0:0:0:
415,214,17314,5,0,0:0:0:0:
450,202,17483,1,0,0:0:0:0:
448,91,17653,1,2,0:0:0:0:
471,60,17822,2,0,B|398:77|350:32|350:32|306:42,1,153.000002918243
207,187,18331,5,2,0:0:0:0:
302,155,18500,1,0,0:0:0:0:
119,41,18839,5,0,0:0:0:0:
79,131,19009,1,2,0:0:0:0:
207,187,19178,1,0,0:0:0:0:
214,95,19348,1,0,0:0:0:0:
274,238,19517,1,0,0:0:0:0:
107,214,19687,1,2,0:0:0:0:
118,41,19856,5,0,0:0:0:0:
214,95,20026,1,0,0:0:0:0:
314,37,20195,1,0,0:0:0:0:
423,81,20365,1,2,0:0:0:0:
423,81,20534,2,0,B|433:129|433:129|393:177|412:251,1,153.000002918243
443,318,21043,1,2,0:0:0:0:
274,357,21212,2,0,L|370:357,1,76.5000014591217
220,225,21551,1,0,0:0:0:0:
160,329,21721,1,2,0:0:0:0:
119,184,21890,5,0,0:0:0:0:
299,164,22060,1,0,0:0:0:0:
119,184,22229,1,0,0:0:0:0:
222,61,22399,1,2,0:0:0:0:
220,225,22568,1,0,0:0:0:0:
377,219,22737,5,0,0:0:0:0:
414,191,22822,1,0,0:0:0:0:
428,147,22907,1,0,0:0:0:0:
422,101,22992,1,0,0:0:0:0:
395,65,23076,2,0,L|286:65,1,76.5000014591217,2|0,0:0|0:0,0:0:0:0:
78,74,23415,5,0,0:0:0:0:
119,186,23585,1,0,0:0:0:0:
319,65,23924,5,0,0:0:0:0:
176,291,24263,1,0,0:0:0:0:
380,281,24602,1,0,0:0:0:0:
185,137,24941,1,0,0:0:0:0:
185,137,25110,6,0,B|253:137|295:188|295:188|348:197|426:127,1,233.999989288331
319,65,25619,5,0,0:0:0:0:
198,31,25788,2,0,P|145:35|110:63,1,76.5000014591217,2|0,0:0|0:0,0:0:0:0:
185,137,26127,1,0,0:0:0:0:
264,219,26297,2,0,P|293:168|294:135,1,76.5000014591217,0|2,0:0|0:0,0:0:0:0:
319,65,26636,2,0,B|378:53|421:99|421:99|474:91,1,153.000002918243
460,4,27144,1,2,0:0:0:0:
319,65,27314,5,0,0:0:0:0:
228,233,27483,1,0,0:0:0:0:
400,150,27653,1,0,0:0:0:0:
212,116,27822,1,2,0:0:0:0:
344,254,27992,1,0,0:0:0:0:
344,254,28161,2,0,P|345:296|328:342,1,76.5000014591217,0|0,0:0|0:0,0:0:0:0:
228,233,28500,1,0,0:0:0:0:
401,150,28670,1,0,0:0:0:0:
401,150,28754,1,0,0:0:0:0:
402,151,28839,2,0,P|437:155|477:142,2,76.5000014591217,0|0|0,0:0|0:0|0:0,0:0:0:0:
469,40,29348,1,0,0:0:0:0:
340,37,29517,6,0,P|320:77|310:138,2,76.5000014591217,0|0|2,0:0|0:0|0:0,0:0:0:0:
206,109,30026,6,0,P|209:153|241:218,1,85.4999977169037
150,267,30365,6,0,P|177:306|253:343,1,94.499997116089,0|2,0:0|0:0,0:0:0:0:
215,332,30619,1,0,0:0:0:0:
215,332,30704,1,0,0:0:0:0:
348,240,30873,5,0,0:0:0:0:
270,31,31043,1,0,0:0:0:0:
111,179,31212,1,2,0:0:0:0:
270,31,31382,5,0,0:0:0:0:
464,158,31721,1,0,0:0:0:0:
241,263,32060,2,0,B|124:230|124:230|53:253,1,180
50,317,32568,5,2,0:0:0:0:
193,346,32737,1,0,0:0:0:0:
50,317,32907,1,0,0:0:0:0:
213,238,33076,1,0,0:0:0:0:
139,34,33246,6,0,L|139:124,1,90,2|0,0:0|0:0,0:0:0:0:
257,125,33585,2,0,P|297:107|323:72,1,90
212,238,33924,2,0,P|199:280|207:323,1,90,2|0,0:0|0:0,0:0:0:0:
321,320,34263,1,0,0:0:0:0:
119,226,34432,1,0,0:0:0:0:
258,125,34602,1,2,0:0:0:0:
149,62,34771,1,0,0:0:0:0:
237,277,34941,5,2,0:0:0:0:
237,277,35026,1,0,0:0:0:0:
237,277,35110,1,0,0:0:0:0:
377,97,35280,6,0,L|369:238,1,141.749995674133,6|0,0:0|0:0,0:0:0:0:
321,319,35619,1,2,0:0:0:0:
321,319,35704,1,0,0:0:0:0:
321,319,35788,1,0,0:0:0:0:
188,97,35958,6,0,L|281:205,1,141.749995674133,6|0,0:0|0:0,0:0:0:0:
369,239,36297,2,0,P|443:206|457:175,1,90
381,47,36636,2,0,L|372:137,1,90,2|0,0:0|0:0,0:0:0:0:
256,195,36975,1,8,0:0:0:0:
187,96,37144,1,0,0:0:0:0:
55,266,37314,2,0,P|99:265|139:244,1,90,2|0,0:0|0:0,0:0:0:0:
86,88,37653,2,0,P|70:130|74:174,1,90,0|0,0:0|0:0,0:0:0:0:
256,195,37992,5,2,0:0:0:0:
187,96,38161,1,0,0:0:0:0:
140,244,38331,1,0,0:0:0:0:
372,244,38500,1,0,0:0:0:0:
325,96,38670,1,2,0:0:0:0:
140,244,38839,5,8,0:0:0:0:
364,239,39009,1,0,0:0:0:0:
314,104,39178,1,0,0:0:0:0:
110,258,39348,5,8,0:0:0:0:
355,234,39517,1,0,0:0:0:0:
303,112,39687,1,2,0:0:0:0:
151,168,39856,1,0,0:0:0:0:
219,350,40026,1,0,0:0:0:0:
360,216,40195,5,2,0:0:0:0:
77,64,40534,1,2,0:0:0:0:
435,64,40873,1,2,0:0:0:0:
219,350,41212,6,0,P|209:309|170:287,1,58.4999973220826,2|0,0:0|0:0,0:0:0:0:
107,257,41382,1,0,0:0:0:0:
107,257,41466,5,0,0:0:0:0:
107,257,41551,1,0,0:0:0:0:
107,257,41636,1,0,0:0:0:0:
107,257,41721,2,0,L|210:245,1,90,12|0,0:0|0:0,0:0:0:0:
234,172,41975,2,0,P|231:126|258:60,1,90
185,26,42229,1,0,0:0:0:0:
318,28,42399,6,0,P|356:48|436:51,1,90,8|0,0:0|0:0,0:0:0:0:
455,122,42653,2,0,L|399:226,1,90
437,288,42907,1,0,0:0:0:0:
345,354,43076,6,0,P|323:308|335:248,1,90,8|0,0:0|0:0,0:0:0:0:
320,160,43331,1,0,0:0:0:0:
288,192,43415,2,0,L|190:226,1,90
95,176,43754,2,0,P|83:130|95:86,1,90,8|0,0:0|0:0,0:0:0:0:
151,17,44009,1,0,0:0:0:0:
186,40,44093,2,0,L|186:130,1,90
162,233,44432,6,0,P|89:265|45:247,1,90,8|0,0:0|0:0,0:0:0:0:
10,187,44687,2,0,P|38:112|82:94,1,90
147,105,44941,1,0,0:0:0:0:
338,76,45110,2,0,P|279:90|242:145,1,90,8|0,0:0|0:0,0:0:0:0:
334,174,45365,2,0,P|355:219|352:289,1,90
272,332,45619,1,0,0:0:0:0:
86,379,45788,6,0,P|133:359|193:372,1,90,8|0,0:0|0:0,0:0:0:0:
272,332,46043,1,0,0:0:0:0:
238,302,46127,2,0,P|240:253|202:203,1,90
213,34,46466,2,0,P|280:60|315:51,1,90,8|0,0:0|0:0,0:0:0:0:
400,41,46721,1,0,0:0:0:0:
378,73,46805,2,0,P|376:122|414:172,1,90
453,276,47144,6,0,L|323:276,1,90,8|0,0:0|0:0,0:0:0:0:
327,255,47399,1,0,0:0:0:0:
327,255,47483,1,0,0:0:0:0:
239,345,47653,1,0,0:0:0:0:
147,162,47822,2,0,L|148:267,1,90,8|0,0:0|0:0,0:0:0:0:
123,284,48076,1,0,0:0:0:0:
123,284,48161,1,0,0:0:0:0:
49,88,48331,1,0,0:0:0:0:
219,68,48500,6,0,P|264:93|337:72,1,90,8|0,0:0|0:0,0:0:0:0:
376,47,48754,1,0,0:0:0:0:
376,47,48839,2,0,P|386:102|363:156,1,90
237,344,49178,2,0,P|227:301|236:258,1,90,8|0,0:0|0:0,0:0:0:0:
186,189,49432,1,0,0:0:0:0:
186,189,49517,2,0,P|146:208|73:193,1,90
305,184,49856,5,0,0:0:0:0:
219,67,50026,1,0,0:0:0:0:
348,177,50195,5,0,0:0:0:0:
418,50,50365,1,0,0:0:0:0:
355,220,50534,5,0,0:0:0:0:
450,328,50704,1,0,0:0:0:0:
312,227,50873,5,0,0:0:0:0:
251,345,51043,1,0,0:0:0:0:
131,292,51212,5,2,0:0:0:0:
116,254,51297,1,0,0:0:0:0:
120,213,51382,1,2,0:0:0:0:
141,179,51466,1,0,0:0:0:0:
143,138,51551,1,2,0:0:0:0:
103,129,51636,1,0,0:0:0:0:
63,119,51721,1,2,0:0:0:0:
35,89,51805,1,0,0:0:0:0:
36,48,51890,5,2,0:0:0:0:
70,26,51975,1,0,0:0:0:0:
109,34,52060,1,2,0:0:0:0:
125,70,52144,1,0,0:0:0:0:
163,83,52229,1,2,0:0:0:0:
202,75,52314,1,0,0:0:0:0:
231,42,52399,1,2,0:0:0:0:
270,34,52483,1,0,0:0:0:0:
307,49,52568,1,0,0:0:0:0:
437,223,52907,1,0,0:0:0:0:
437,223,52992,5,0,0:0:0:0:
437,223,53076,2,0,P|330:264|305:238,1,116.999994644165
209,222,53415,2,0,L|236:320,2,58.4999973220826,8|0|0,0:0|0:0|0:0,0:0:0:0:
101,119,53754,2,0,P|146:82|203:74,2,116.999994644165,8|0|0,0:0|0:0|0:0,0:0:0:0:
363,100,54263,2,0,L|385:27,2,58.4999973220826,8|0|0,0:0|0:0|0:0,0:0:0:0:
256,192,54602,1,0,0:0:0:0:
256,192,54771,2,0,P|235:246|244:303,2,116.999994644165,0|0|0,0:0|0:0|0:0,0:0:0:0:
256,55,55280,5,0,0:0:0:0:
381,270,55506,1,0,0:0:0:0:
131,270,55732,1,0,0:0:0:0:
381,114,55958,1,0,0:0:0:0:
131,114,56184,1,0,0:0:0:0:
256,329,56410,1,0,0:0:0:0:
256,192,56636,1,0,0:0:0:0:
256,192,56749,12,0,57822,0:0:0:0:
116,154,57992,6,0,P|160:163|203:151,1,90
312,157,58331,2,0,P|307:113|281:77,1,90,8|0,0:0|0:0,0:0:0:0:
297,265,58670,1,0,0:0:0:0:
423,226,58839,1,0,0:0:0:0:
446,98,59009,2,0,L|334:98,1,90,8|0,0:0|0:0,0:0:0:0:
202,151,59348,5,0,0:0:0:0:
202,151,59432,1,0,0:0:0:0:
202,151,59517,1,0,0:0:0:0:
108,80,59687,1,8,0:0:0:0:
37,254,59856,2,0,P|109:264|168:201,1,135
202,151,60195,2,0,P|243:222|237:262,1,90,0|8,0:0|0:0,0:0:0:0:
193,346,60534,5,0,0:0:0:0:
438,300,60704,2,0,P|373:265|325:275,1,90
370,351,61043,5,8,0:0:0:0:
352,172,61212,2,0,P|282:210|271:255,1,90
457,190,61551,1,0,0:0:0:0:
388,33,61721,1,8,0:0:0:0:
288,107,61890,1,0,0:0:0:0:
416,119,62060,1,0,0:0:0:0:
280,216,62229,1,0,0:0:0:0:
223,37,62399,1,8,0:0:0:0:
186,184,62568,5,0,0:0:0:0:
100,321,62737,2,0,B|111:312|79:269|99:233,1,90
225,273,63076,1,8,0:0:0:0:
100,233,63246,1,0,0:0:0:0:
175,28,63415,2,0,B|202:99|152:146|152:146|194:190,1,180,0|8,0:0|0:0,0:0:0:0:
270,128,63924,5,0,0:0:0:0:
336,244,64093,2,0,L|441:256,1,90
417,50,64432,1,8,0:0:0:0:
366,131,64602,2,0,L|410:224,1,90
317,317,64941,1,0,0:0:0:0:
270,128,65110,1,8,0:0:0:0:
218,221,65280,5,0,0:0:0:0:
183,37,65449,2,0,L|59:38,1,90
93,217,65788,2,0,P|149:168|142:108,1,135,8|0,0:0|0:0,0:0:0:0:
183,36,66127,2,0,B|274:82|274:82|356:57,1,180,0|0,0:0|0:0,0:0:0:0:
448,16,66636,6,0,P|423:88|434:117,1,90,2|0,0:0|0:0,0:0:0:0:
335,162,66975,6,0,P|368:230|396:243,1,90,2|0,0:0|0:0,0:0:0:0:
452,329,67314,6,0,P|368:356|269:284,1,198.000006042481,6|0,0:0|0:0,0:0:0:0:
205,216,67822,1,8,0:0:0:0:
168,320,67992,1,0,0:0:0:0:
84,137,68161,1,0,0:0:0:0:
167,22,68331,6,0,P|181:42|181:87,1,45
217,166,68500,2,0,P|233:147|250:101,1,45
332,144,68670,2,0,P|334:117|302:74,1,45
362,9,68839,2,0,P|410:44|426:92,1,90
497,206,69178,1,0,0:0:0:0:
376,196,69348,2,0,L|388:317,1,90
290,350,69687,1,0,0:0:0:0:
226,255,69856,1,8,0:0:0:0:
321,191,70026,1,0,0:0:0:0:
332,59,70195,6,0,P|292:80|247:81,1,90,0|0,0:0|0:0,0:0:0:0:
110,33,70534,2,0,L|99:87,1,45
68,195,70704,2,0,P|56:146|21:112,1,90
207,185,71043,2,0,P|271:191|315:161,1,90,0|8,0:0|0:0,0:0:0:0:
443,121,71382,5,0,0:0:0:0:
465,324,71551,1,0,0:0:0:0:
465,324,71636,1,0,0:0:0:0:
465,324,71721,1,0,0:0:0:0:
364,251,71890,1,8,0:0:0:0:
443,121,72060,2,0,P|461:192|441:242,1,90
293,170,72399,5,0,0:0:0:0:
351,38,72568,1,0,0:0:0:0:
216,126,72737,2,0,B|190:197|240:238|240:238|197:304,1,180
104,360,73246,1,8,0:0:0:0:
135,262,73415,1,0,0:0:0:0:
23,133,73585,6,0,B|59:231|59:231|112:174,1,175.499991966248
142,20,73924,2,0,P|94:67|111:110,1,116.999994644165
325,127,74263,5,0,0:0:0:0:
216,84,74432,1,0,0:0:0:0:
409,49,74602,1,8,0:0:0:0:
447,159,74771,1,0,0:0:0:0:
329,332,74941,1,0,0:0:0:0:
352,217,75110,1,0,0:0:0:0:
180,170,75280,1,8,0:0:0:0:
225,280,75449,1,0,0:0:0:0:
287,109,75619,5,0,0:0:0:0:
196,35,75788,1,0,0:0:0:0:
28,114,75958,1,8,0:0:0:0:
145,156,76127,1,0,0:0:0:0:
92,345,76297,1,0,0:0:0:0:
58,233,76466,1,0,0:0:0:0:
275,254,76636,1,8,0:0:0:0:
218,355,76805,1,0,0:0:0:0:
160,257,76975,6,0,L|180:170,1,90
346,124,77314,2,0,L|361:213,1,90,8|0,0:0|0:0,0:0:0:0:
113,112,77653,2,0,P|164:81|224:93,1,90
361,213,77992,1,8,0:0:0:0:
251,252,78161,2,0,P|243:200|278:138,1,90
465,97,78500,1,0,0:0:0:0:
488,270,78670,2,0,P|417:282|389:269,1,90,8|0,0:0|0:0,0:0:0:0:
252,253,79009,1,0,0:0:0:0:
313,351,79178,1,0,0:0:0:0:
237,286,79348,5,2,0:0:0:0:
272,110,79517,1,8,0:0:0:0:
272,110,79602,1,0,0:0:0:0:
272,110,79687,1,0,0:0:0:0:
119,116,79856,5,0,0:0:0:0:
141,231,80026,1,2,0:0:0:0:
33,58,80195,1,8,0:0:0:0:
33,58,80280,1,0,0:0:0:0:
33,58,80365,1,0,0:0:0:0:
46,210,80534,5,0,0:0:0:0:
209,137,80704,1,2,0:0:0:0:
339,252,80873,1,8,0:0:0:0:
314,84,81212,5,8,0:0:0:0:
209,137,81382,1,2,0:0:0:0:
262,242,81551,1,0,0:0:0:0:
367,189,81721,1,8,0:0:0:0:
209,137,81890,1,0,0:0:0:0:
262,242,82060,1,2,0:0:0:0:
314,84,82229,1,8,0:0:0:0:
136,324,82568,5,0,0:0:0:0:
249,348,82737,1,0,0:0:0:0:
359,308,82907,1,0,0:0:0:0:
427,213,83076,1,0,0:0:0:0:
415,96,83246,1,0,0:0:0:0:
359,76,83331,1,0,0:0:0:0:
317,35,83415,1,0,0:0:0:0:
258,34,83500,1,0,0:0:0:0:
202,54,83585,1,0,0:0:0:0:
145,37,83670,1,0,0:0:0:0:
87,45,83754,5,8,0:0:0:0:
249,348,84093,1,2,0:0:0:0:
297,231,84263,1,2,0:0:0:0:
45,216,84602,1,2,0:0:0:0:
248,347,84941,1,8,0:0:0:0:
288,94,86297,5,8,0:0:0:0:
174,238,86636,1,0,0:0:0:0:
186,249,86805,1,0,0:0:0:0:
198,260,86975,1,8,0:0:0:0:
434,152,87314,1,0,0:0:0:0:
422,163,87483,1,0,0:0:0:0:
410,174,87653,1,8,0:0:0:0:
178,57,87992,6,0,L|214:100,1,45
185,126,88161,2,0,L|230:158,1,45
214,192,88331,2,0,L|266:211,1,45
290,258,88500,2,0,B|307:165|348:164|348:164|395:232|452:182,1,202.500007724762,12|0,0:0|0:0,0:0:0:0:
